osu file format v5

[General]
AudioFilename: DoItAllNightERotic.mp3
AudioLeadIn: 0
PreviewTime: -1
Countdown: 1
SampleSet: Normal
StackLeniency: 0.7
Mode: 0
LetterboxInBreaks: 1
EditorBookmarks: 104523,143758

[Metadata]
Title:Do It All Night
Artist:E-Rotic
Creator:osu_CN_yaya
Version:Insane
Source:
Tags:

[Difficulty]
HPDrainRate:7
CircleSize:6
OverallDifficulty:7
SliderMultiplier:1.6
SliderTickRate:2

[Events]
//Background and Video events
0,0,"img200801280034540832.jpg"
//Break Periods
2,28783,41530
2,55636,69012
2,98014,103627
2,113119,124397
2,153399,159012
2,166825,172439
2,178363,179152
//Storyboard Layer 0 (Background)
//Storyboard Layer 1 (Failing)
//Storyboard Layer 2 (Passing)
//Storyboard Layer 3 (Foreground)
//Storyboard Sound Samples
//Background Colour Transformations
3,100,163,162,255

[TimingPoints]
2150,419.58041958042,4,1,0,69,1
22286,-100,4,1,1,81,0
28579,-100,4,2,2,81,0
42416,-100,4,1,1,81,0
49558,-100,4,1,0,81,0
69908,-100,4,1,1,81,0
83125,-100,4,1,0,81,0
86272,-100,4,1,0,81,0
96132,-100,4,1,0,81,0
96551,-100,4,1,0,81,0
104523,-100,4,2,1,81,0
109558,-100,4,1,0,29,0
109978,-100,4,1,0,58,0
110817,-100,4,1,0,71,0
111237,-100,4,1,2,79,0
111237,-100,4,1,2,79,0
112915,-100,4,1,1,79,0
125293,-100,4,1,0,79,0
139768,-100,4,1,1,79,0
147740,-100,4,1,0,79,0
148160,-100,4,1,1,79,0
151516,-100,4,1,0,79,0
151936,-100,4,1,0,79,0
153195,-100,4,2,2,79,0
159908,-100,4,1,0,40,0
160747,-100,4,1,0,53,0
161586,-100,4,1,0,70,0
163265,-100,4,1,0,81,0
164523,-100,4,1,2,81,0
173339,-100,4,2,1,69,0
176691,-100,4,1,0,51,0
177530,-100,4,1,0,64,0
177950,-100,4,1,0,80,0
180052,-100,4,1,1,69,0

[Colours]
Combo1 : 254,118,132
Combo2 : 255,0,128
Combo3 : 255,0,255
Combo4 : 251,79,79

[HitObjects]
96,88,15572,2,0,B|24:32,2,80,4|0|0
146,127,16202,1,0
146,127,16307,1,0
209,128,16516,1,0
241,128,16621,1,0
273,128,16726,1,0
305,128,16831,1,0
304,192,17041,1,0
240,192,17251,6,0,L|208:224|240:264|240:264,2,80,4|0|0
304,192,17880,1,0
304,192,17985,1,0
304,256,18195,1,0
304,288,18300,1,0
304,320,18405,1,0
304,352,18509,2,0,B|384:352|376:312|376:312,1,80
432,328,18929,6,0,B|384:280|424:224|424:224,1,80,4|0
411,255,19349,1,0
472,256,19558,1,0
472,256,19663,1,0
472,192,19873,1,0
448,168,19978,1,0
416,160,20083,1,0
384,152,20188,2,0,B|376:112|304:112|304:112,1,80
256,120,20607,6,0,B|256:32,2,80,4|0|0
256,184,21237,1,0
256,184,21342,1,0
256,120,21551,1,0
256,120,21656,1,0
256,184,21866,2,0,C|288:200|256:224|280:248|280:248,1,80
184,224,22286,6,0,L|160:256|136:224,2,80,4|0|0
184,160,22915,1,8
184,160,23020,1,0
120,160,23230,1,0
120,160,23335,1,8
80,208,23544,1,0
120,256,23754,1,8
152,312,23964,5,0
176,296,24069,1,0
200,280,24174,1,8
224,264,24279,1,0
248,248,24384,1,0
288,296,24593,1,8
312,280,24698,1,0
336,264,24803,1,0
392,232,25013,1,8
424,288,25223,2,0,B|496:224|496:224,1,80,0|8
480,168,25642,5,0
416,168,25852,2,0,B|328:168|328:168,1,80,8|0
272,168,26272,1,8
272,168,26377,1,0
208,168,26586,1,0
208,168,26691,1,8
208,168,26796,1,0
208,168,26901,1,0
208,232,27111,1,8
256,192,27321,12,4,28579
64,64,42426,5,0
192,64,42845,1,0
256,64,43055,2,0,B|208:104|280:160|280:160,1,80,8|0
312,112,43474,2,0,B|352:152|296:192|296:192,1,80
243,190,43894,1,8
243,190,43999,1,0
243,190,44104,1,0
280,242,44314,2,0,L|240:266|200:242|200:242,1,80,8|0
147,248,44733,1,8
82,248,44943,2,0,L|82:160,1,80,0|8
146,168,45363,5,0
146,168,45468,1,0
146,168,45572,1,8
376,168,45782,5,0
376,296,46202,5,0
311,296,46412,2,0,L|223:296,1,80,8|0
272,247,46831,2,0,L|360:247|360:247,1,80,8|0
272,248,47251,1,8
320,200,47461,2,0,L|232:200|232:200,1,80,0|8
280,152,47880,2,0,L|368:152|368:152,1,80,0|8
280,152,48300,1,0
280,152,48405,1,0
280,152,48509,1,8
216,152,48719,1,0
456,152,49139,5,0
352,328,49558,5,8
312,280,49768,1,0
312,280,49978,1,0
264,328,50188,1,0
264,328,50398,1,8
224,280,50607,1,0
184,328,50817,2,0,L|104:368,1,80
80,304,51237,2,0,L|40:233|40:233,1,80,8|0
80,184,51656,1,0
112,184,51761,1,0
144,184,51866,1,0
176,184,51971,1,0
208,184,52076,2,0,L|248:160|288:176|288:176,1,80,8|0
344,176,52495,5,0
344,208,52600,1,0
344,240,52705,1,0
400,208,52915,1,0
400,240,53020,1,0
400,272,53125,1,0
456,240,53335,1,0
456,272,53440,1,0
456,304,53544,2,0,L|424:344|400:328|400:328,1,80
344,328,53964,1,0
312,280,54174,5,0
280,280,54279,1,0
248,280,54384,1,0
184,280,54593,2,2,L|96:279|96:279,1,80
184,280,55013,1,0
184,280,55223,2,2,L|184:194|184:194,1,80
408,328,69908,5,0
296,264,70328,5,0
232,264,70537,2,0,L|208:296|184:264|184:264|184:256,1,80
184,200,70957,1,2
136,152,71167,1,0
184,104,71377,1,2
232,152,71586,5,0
232,152,71691,1,0
312,136,72006,1,0
312,136,72111,1,0
311,136,72216,2,0,C|319:152|311:176|327:192|319:208,1,80,2|0
323,267,72635,1,2
365,314,72845,1,0
324,359,73055,1,2
278,314,73265,1,0
214,312,73474,6,0,C|174:336|142:304|142:304,1,80,2|0
86,306,73894,2,0,C|94:298|86:290|94:282|84:274|94:266|86:258|94:250|86:242|94:234|86:226|94:218|86:210|94:202|86:194|86:194,1,160,2|2
94,133,74523,1,0
150,163,74733,1,2
175,182,74838,1,0
200,202,74943,1,0
240,152,75153,2,0,C|312:192|312:192,1,80,2|0
351,141,75572,2,0,C|423:181|423:181,1,80,2|0
473,216,75992,1,2
473,216,76097,1,0
473,216,76202,1,0
472,280,76412,1,2
416,304,76621,5,0
384,304,76726,1,0
320,304,76936,1,0
320,272,77041,1,0
320,208,77251,2,0,C|360:208|360:176,1,80,2|0
360,169,77670,1,2
384,112,77880,5,0
328,80,78090,1,2
280,112,78300,2,0,C|264:96|248:112|232:96|216:112|200:96|184:112|168:96|168:96,1,160
104,104,78929,1,2
152,152,79139,1,0
104,192,79349,2,0,C|96:208|112:224|96:240|112:256|112:256,1,80,2|0
105,251,79768,1,2
161,221,79978,1,0
160,288,80188,2,0,L|240:288|240:288,1,80,2|0
240,224,80607,1,2
240,160,80817,2,0,C|248:152|264:160|280:152|296:160|312:152|328:160|344:152|360:160|376:152|392:160|392:160,1,160
384,216,81447,1,2
384,280,81656,2,0,L|304:280|304:280,1,80,0|2
304,280,82076,1,0
304,344,82286,2,0,C|288:328|272:344|256:328|240:344|224:328|208:344|192:328|192:328,1,160,2|2
114,325,83125,5,0
114,293,83230,1,0
114,261,83335,1,0
114,229,83440,1,0
114,197,83544,1,0
174,174,83754,6,0,C|190:158|206:174|222:158|238:174|238:174,2,80
174,174,84384,1,8
222,215,84593,1,0
222,215,84698,1,0
222,215,84803,1,0
266,260,85013,2,0,C|290:284|322:228|322:228,1,80,0|8
312,247,85328,1,0
311,249,85433,1,0
312,247,85537,2,0,C|322:228|314:212|322:196|314:180|322:164|314:148|322:132,1,120
315,76,86062,5,4
250,75,86272,2,0,C|170:75|170:75,1,80
167,139,86691,1,0
167,139,86796,1,0
165,203,87006,1,0
165,203,87111,1,0
165,203,87216,1,0
165,203,87321,2,0,C|141:227|109:195|109:195,1,80,8|0
114,131,87740,6,0,L|45:131|24:131|24:131,2,80
114,66,88370,1,0
114,66,88474,1,0
114,131,88684,1,0
114,131,88789,1,0
114,131,88894,1,0
114,131,88999,2,0,L|114:203|114:219|114:219,1,80,8|0
170,241,89419,6,0,L|250:241|250:241|242:241,2,80,0|0|8
169,176,90048,1,0
169,176,90153,1,0
171,111,90363,1,0
203,111,90467,1,0
234,111,90572,1,0
266,112,90677,2,8,L|266:32,2,80
267,176,91307,6,0,L|267:260|267:260,1,80
328,256,91726,1,0
328,256,91831,1,0
392,256,92041,1,0
392,256,92146,1,0
392,256,92251,1,0
392,256,92356,2,8,L|408:272|392:288|408:304|392:320|392:320,1,80,8|0
352,360,92775,6,8,L|432:360,2,80,0|0|8
296,328,93405,1,0
296,328,93509,1,0
240,296,93719,1,0
240,296,93824,1,0
176,272,94034,2,0,L|152:256|128:272|104:264|104:264,1,80,8|0
96,200,94454,6,0,L|144:216|176:192|176:192,2,80,0|0|8
72,136,95083,1,0
72,136,95188,1,0
136,136,95398,1,0
168,136,95502,1,0
200,136,95607,2,0,L|216:152|232:136|248:152|264:136|280:152|296:136|296:136,1,120
256,40,96132,5,4
72,192,96551,5,4
432,192,96971,5,4
176,328,97391,5,4
344,328,97810,5,4
112,144,104523,5,8
176,144,104733,1,0
240,144,104943,2,0,L|336:144|336:144,1,80,8|0
320,208,105363,1,8
320,208,105467,1,0
320,208,105572,1,0
384,208,105782,2,0,L|384:296|384:296,1,80,8|0
320,288,106202,5,8
256,288,106412,1,0
192,288,106621,2,0,L|112:288|112:288,1,80,8|0
112,224,107041,1,8
112,224,107146,1,0
112,224,107251,1,0
176,224,107461,2,0,L|176:144|176:144,1,80,8|0
240,144,107880,5,8
176,144,108090,1,0
176,80,108300,2,0,L|264:80|264:80,1,80,8|0
256,16,108719,1,8
256,16,108824,1,0
256,16,108929,1,0
320,16,109139,2,0,L|320:104|320:104,1,80,8|0
320,160,109558,5,0
320,96,109768,1,0
400,96,109978,2,0,L|320:96|312:96,1,80
400,96,110398,1,0
400,96,110502,1,0
400,96,110607,1,0
400,96,110712,1,0
400,96,110817,1,0
400,96,110922,1,0
400,96,111027,1,0
400,96,111132,1,0
400,96,111237,1,4
256,192,111342,12,0,112915
136,112,125293,5,0
232,112,125607,1,0
232,112,125712,2,0,L|264:80|296:112|296:112,1,80
288,168,126132,1,0
352,168,126342,1,8
352,232,126551,1,0
352,232,126656,1,0
352,232,126761,1,0
304,272,126971,6,0,L|216:272|216:272,1,80,0|8
144,272,127391,2,0,L|224:272|224:272,1,80
224,272,127810,2,0,L|224:192|224:192,1,80,0|8
160,192,128230,1,0
96,192,128440,1,0
128,136,128649,5,8
128,136,128754,1,8
192,136,128964,1,8
192,136,129069,1,8
224,192,129279,2,0,L|256:168|264:128|264:128,1,80
288,192,129698,1,0
320,136,129908,1,0
320,136,130013,1,0
320,136,130118,1,8
352,192,130328,2,0,L|384:224|352:256|352:256,1,80
296,248,130747,1,0
360,248,130957,1,8
296,248,131167,2,0,C|280:240|264:248|248:240|232:248|216:240|200:248|184:240|168:248|152:240|152:240,1,160
112,192,131796,5,0
152,136,132006,1,8
176,152,132111,1,8
224,112,132321,1,8
248,128,132426,1,8
296,160,132635,2,0,L|232:224|232:224,1,80,8|0
192,256,133055,2,2,L|256:320,2,80
128,264,133684,5,0
128,264,133789,1,0
80,216,133999,1,0
80,216,134104,1,8
80,216,134209,1,0
80,216,134314,2,0,C|80:128|80:128,1,80,8|0
144,136,134733,1,2
80,136,134943,1,2
144,136,135153,1,2
192,96,135363,5,0
256,96,135572,2,0,B|216:136|264:176|264:176,1,80,8|0
312,136,135992,2,2,B|352:176|312:216|312:216,1,80
256,168,136412,2,0,B|216:208|264:248|264:248,1,80,8|0
318,208,136831,2,2,B|358:248|318:288|318:288,1,80
264,304,137251,5,0
264,304,137356,1,0
264,304,137461,1,0
200,304,137670,1,0
200,304,137775,1,0
200,304,137880,1,0
200,304,137985,1,0
200,304,138090,1,0
200,304,138195,1,0
200,304,138300,1,0
200,304,138405,1,0
200,304,138509,2,0,C|104:304|104:304|112:304,2,80
56,96,139768,5,12
120,104,139978,2,0,L|184:160|184:160,1,80
232,192,140398,1,0
232,192,140502,1,0
280,232,140712,1,0
280,232,140817,2,0,L|360:152|360:152,1,80
384,208,141237,1,0
384,272,141447,5,12
336,320,141656,6,0,C|312:344|288:320|264:344|264:344,1,80
216,320,142076,1,0
216,320,142181,1,0
160,296,142391,1,0
160,296,142495,2,0,L|160:216|160:216,1,80
160,152,142915,1,0
224,152,143125,6,0,L|224:232,2,80,12|0|0
224,88,143754,1,0
224,88,143859,1,0
224,88,143964,1,0
224,88,144069,1,0
224,88,144174,2,0,L|312:88|312:88,1,80
304,152,144593,1,0
304,216,144803,6,0,C|368:280|368:280,1,80,12|0
360,272,145223,1,0
408,230,145433,1,0
408,230,145537,1,0
456,271,145747,1,0
456,271,145852,1,0
456,271,145957,1,0
456,271,146062,1,0
456,271,146167,1,0
456,271,146272,1,0
417,322,146481,6,0,C|453:345|415:365,2,80,12|0|0
353,314,147111,1,0
323,302,147216,1,0
261,285,147426,1,0
261,285,147530,1,0
261,285,147635,2,0,L|165:261|189:245|189:245,1,120
236,214,148160,6,0,L|316:182|316:182,1,80,12|0
237,213,148579,1,0
180,249,148789,1,0
180,249,148894,1,0
132,206,149104,1,0
132,206,149209,1,0
132,206,149314,2,0,C|128:192|136:176|128:160|136:144|128:128|136:112|128:96|128:96,1,120
192,104,149838,6,0,L|216:72|248:104|248:104,1,80
248,160,150258,1,8
312,160,150467,1,0
312,192,150572,1,0
312,256,150782,1,0
312,256,150887,1,0
312,256,150992,1,0
312,256,151097,2,0,L|280:240|248:256|224:240|224:240,1,80,8|0
88,192,151516,5,4
256,56,151936,5,4
432,192,152356,5,4
352,320,152775,5,4
168,320,153195,5,4
88,120,159908,5,0
216,120,160328,1,0
344,120,160747,1,0
472,120,161167,1,0
472,248,161586,6,0,L|392:248|392:248,1,80
296,248,162006,2,0,L|216:248|216:248|216:256,1,80
112,248,162426,2,0,L|16:248|16:248,3,80
48,312,163265,5,0
112,312,163474,1,0
176,312,163684,1,0
240,312,163894,1,0
304,312,164104,1,0
336,312,164209,1,0
368,312,164314,1,0
400,312,164419,1,0
432,312,164523,2,0,C|424:296|440:280|424:264|440:248|440:248,1,80,4|4
256,192,164943,12,0,166621
168,56,173335,6,0,L|168:144,1,80,8|0
232,136,173754,2,0,C|272:112|304:112|344:136|344:136,1,120,8|0
338,132,174174,2,0,C|338:213|338:213,1,80,8|0
338,211,174593,1,8
338,339,175013,6,0,L|338:251,1,80,8|0
273,257,175433,2,0,C|233:281|201:281|161:257|161:257,1,120,8|0
166,260,175852,2,0,C|166:179|166:179,1,80,8|0
166,179,176272,1,8
230,180,176481,1,0
294,180,176691,5,0
336,130,176901,1,0
289,85,177111,1,0
246,132,177321,1,0
245,132,177426,1,0
246,132,177530,2,0,C|196:132,3,40
247,133,177950,2,0,L|247:221|247:221,1,80
80,72,180048,6,0,L|128:136|168:136|168:136,1,120,2|0
168,136,180468,2,0,L|256:136|256:136,1,80,2|0
248,200,180887,1,2
248,136,181097,1,0
248,200,181307,2,0,L|328:200|328:200,1,80,2|0
376,240,181726,5,2
376,240,181831,1,0
376,240,181936,1,0
346,295,182146,1,10
347,295,182251,1,8
294,256,182461,1,8
294,256,182565,1,8
264,314,182775,1,0
216,273,182985,1,0
184,328,183195,6,0,L|160:312|160:288|144:272|144:248|128:232|128:200|112:176|112:176,1,160
128,128,183824,2,0,L|160:88|192:128|192:128,1,80
184,176,184244,1,0
232,136,184454,1,0
288,176,184663,2,8,L|288:136,2,40
288,240,185083,1,0
288,240,185188,1,0
288,240,185293,1,0
352,240,185502,1,0
408,200,185712,5,0
408,264,185922,1,8
408,264,186027,1,8
408,328,186237,1,8
408,328,186342,1,8
344,328,186551,1,0
280,328,186761,2,0,L|312:288|280:256,2,80
224,288,187391,5,8
224,288,187495,1,8
184,240,187705,1,8
184,240,187810,1,8
224,192,188020,1,0
264,240,188230,1,0
264,240,188335,1,0
264,240,188440,2,8,L|264:322,2,80
344,280,189069,5,0
368,304,189174,1,0
392,328,189279,2,0,L|480:328,3,80
472,264,190118,1,0
432,216,190328,1,0
392,168,190537,1,0
352,216,190747,1,0
312,168,190957,5,0
312,168,191062,5,0
312,168,191167,5,0
312,168,191272,5,0
312,168,191377,5,0
312,168,191481,5,0
312,168,191586,5,0
312,168,191691,5,0
312,168,191796,5,4
256,192,191901,12,0,193474
