osu file format v5

[General]
AudioFilename: E_Nomine_SchwarzeSonneEnglish.mp3
AudioLeadIn: 0
PreviewTime: -1
Countdown: 1
SampleSet: Normal
StackLeniency: 0.7
Mode: 0
LetterboxInBreaks: 1
EditorDistanceSpacing: 1

[Metadata]
Title:Schwarze Sonne (English version)
Artist:E Nomine
Creator:DarkCenobyte
Version:Normal
Source:
Tags:E Nomine Enomine Schwarze Sonne english

[Difficulty]
HPDrainRate:7
CircleSize:6
OverallDifficulty:7
SliderMultiplier:1.4
SliderTickRate:1

[Events]
//Background and Video events
0,0,"enomine3.jpg"
1,1399,"E_Nomine_-_Schwarze_Sonne.flv"
//Break Periods
2,46991,49791
2,66188,69587
2,87484,88184
2,121978,127178
2,145075,146974
2,164271,165571
//Storyboard Layer 0 (Background)
//Storyboard Layer 1 (Failing)
//Storyboard Layer 2 (Passing)
//Storyboard Layer 3 (Foreground)
//Storyboard Sound Samples
//Background Colour Transformations
3,100,163,162,255

[TimingPoints]
9598,599.899999999997,4,1,0,60,1,0
146375,-100,4,2,0,60,0,0
164972,-100,4,1,0,60,0,0

[HitObjects]
192,192,11997,1,0
256,192,12297,1,0
320,192,12597,1,0
384,320,13197,6,0,C|384:0,1,280
384,40,14997,1,4
128,320,15596,6,0,C|128:0,1,280
128,40,17396,1,4
128,40,17696,1,4
184,40,17996,6,0,C|184:360,1,280
184,320,19796,1,4
248,320,20396,6,0,C|248:0,1,280
248,40,22196,1,4
248,40,22496,1,4
248,40,22795,6,0,C|288:96|240:136|296:192|240:232|280:280|240:352,2,420
248,40,26995,1,4
248,40,27295,1,4
304,40,27594,6,0,C|304:360,1,280
304,320,29394,1,4
360,320,29994,6,0,C|360:0,1,280
360,40,31794,5,0
320,32,32094,1,0
288,64,32394,1,0
256,32,32694,1,0
224,64,32994,1,0
192,32,33293,1,0
160,64,33593,1,0
160,64,34193,5,0
192,96,34493,1,0
160,128,34793,1,0
192,160,35093,1,0
160,192,35392,1,0
192,224,35693,1,0
192,224,36593,5,0
224,256,36893,1,0
256,224,37193,1,0
288,256,37493,1,0
320,224,37792,1,0
352,256,38092,1,0
320,192,38993,5,0
256,192,39592,1,0
192,192,40192,1,0
256,192,40792,2,0,C|320:128|384:128|480:0,1,280
457,31,42592,1,0
480,64,43192,1,0
448,96,43792,1,0
480,128,44392,1,0
448,160,44992,1,0
480,192,45591,1,0
256,192,46191,5,4
256,192,46791,1,4
32,64,50991,5,8
64,64,51291,2,0,C|512:64,1,420
484,64,53390,1,8
484,64,53690,2,0,C|0:64,1,420
64,64,55790,2,0,C|64:192,6,70
64,64,58189,2,0,C|192:64,6,70
96,64,61189,6,0,C|448:352,1,420
416,64,63588,2,0,C|64:352,1,420
112,312,65688,1,4
144,288,65988,1,4
352,96,70787,5,0
160,96,71387,1,0
256,48,71987,1,0
256,96,72287,1,0
256,144,72587,1,4
256,96,73187,5,0
256,288,73787,1,0
208,192,74387,1,0
256,192,74687,1,0
304,192,74987,1,4
352,304,75586,5,0
160,304,76186,1,0
256,256,76786,1,0
256,304,77086,1,0
256,352,77386,1,4
256,288,77986,5,0
256,96,78586,1,0
112,192,79186,1,0
160,192,79486,1,0
208,192,79786,1,4
256,192,80086,1,4
256,192,80386,6,0,C|416:192,2,140
256,192,82185,2,0,C|64:192,2,140
256,192,83685,2,0,C|288:224|256:256|288:288|256:352,1,210
256,320,84885,1,0
256,288,85185,1,0
256,256,85485,1,0
256,224,85785,2,0,C|256:96,5,70
448,64,89384,5,0
416,64,89684,2,0,C|320:64,1,70
320,64,90284,5,0
288,64,90584,2,0,C|192:64,1,70
192,64,91184,5,0
160,64,91484,2,0,C|64:64,7,70
64,64,94183,5,0
64,96,94483,2,0,C|64:192,1,70
64,192,95083,5,0
96,192,95383,2,0,C|192:192,1,70
192,192,95983,5,0
192,160,96283,2,0,C|192:64,7,70
256,192,99582,5,4
288,160,99882,1,0
320,128,100182,2,0,C|448:0,1,140
256,192,101082,5,4
224,224,101382,1,0
192,256,101682,2,0,C|64:384,1,140
256,192,103782,5,4
256,160,104382,2,4,C|288:192|256:224|192:160|256:96|352:192|256:288|128:160|256:0,1,910
256,32,108581,5,0
288,64,108881,1,0
320,96,109181,2,0,C|384:160,3,70
256,192,110381,5,0
224,160,110681,1,0
192,128,110981,2,0,C|128:64|96:128,3,140
256,192,113380,6,0,C|256:64,1,70
256,96,113980,1,0
256,192,114280,6,0,C|384:192,1,70
352,192,114880,1,0
256,192,115780,6,4,C|160:288,5,70
192,256,117579,1,4
256,320,118779,5,0
256,256,119379,1,0
256,192,119979,1,0
256,128,120579,1,0
256,64,121179,2,4,C|160:64,2,70
352,288,128378,5,0
160,288,128978,1,0
256,336,129578,1,0
256,288,129878,1,0
256,240,130178,1,4
256,288,130778,5,0
256,96,131378,1,0
208,192,131978,1,0
256,192,132278,1,0
304,192,132578,1,4
352,80,133177,5,0
160,80,133777,1,0
256,128,134377,1,0
256,80,134677,1,0
256,32,134977,1,4
256,96,135577,5,0
256,288,136177,1,0
112,192,136777,1,0
160,192,137077,1,0
208,192,137377,1,4
256,192,137677,1,4
256,192,137977,6,0,C|416:192,2,140
256,192,139776,2,0,C|64:192,2,140
256,192,141276,2,0,C|288:160|256:128|288:96|256:32,1,210
256,64,142476,1,0
256,96,142776,1,0
256,128,143076,1,0
256,160,143376,2,0,C|256:288,5,70
128,64,148174,6,0,B|208:128|304:32,2,140
384,64,149974,6,0,B|304:128|208:32,2,140
448,48,152974,6,0,C|256:48|368:48,1,280
64,96,154773,6,0,C|256:96|144:96,1,280
448,336,157173,6,0,C|256:336|368:336,1,280
64,288,158972,6,0,C|256:288|144:288,1,280
472,32,161372,2,8,L|216:32,3,210
256,192,166771,5,0
192,128,167371,1,0
320,128,167971,1,0
192,256,168571,1,0
320,256,169171,1,0
320,256,170371,6,0,C|192:128,2,140
320,128,172170,5,0
192,256,172770,1,0
192,128,173370,1,0
320,256,173970,1,0
256,192,174570,1,0
256,192,174870,1,0
256,192,175170,1,0
288,192,176370,5,4
352,192,177569,2,0,C|352:64,4,70
352,256,179369,5,0
288,256,179969,2,0,C|192:256,1,70
192,256,180569,2,0,C|192:128,1,70
224,192,181169,2,0,C|224:96,1,70
256,128,181769,2,0,C|256:32,1,70
288,64,183568,6,0,C|192:64,1,70
256,96,184167,2,0,C|160:96,1,70
224,128,184767,2,0,C|128:128,2,70
160,96,185968,5,0
160,288,186568,1,0
112,192,187168,1,0
160,192,187468,1,0
208,192,187768,1,4
160,192,188368,5,0
352,192,188968,1,0
256,240,189568,1,0
256,192,189868,1,0
256,144,190168,1,4
368,96,190767,5,0
368,288,191367,1,0
320,192,191967,1,0
368,192,192267,1,0
416,192,192567,1,4
352,192,193167,5,0
160,192,193767,1,0
256,336,194367,1,0
256,288,194667,1,0
256,240,194967,1,4
256,192,195267,1,4
256,192,195567,6,0,C|416:192,2,140
256,192,197366,2,0,C|64:192,4,140
352,64,200366,5,0
368,80,200516,1,0
352,96,200666,1,0
368,112,200816,1,0
352,128,200966,1,0
368,144,201116,1,0
352,160,201266,1,0
368,176,201416,1,0
352,192,201565,1,4
256,192,202165,12,4,203965
352,288,205165,5,0
352,96,205765,1,0
400,192,206365,1,0
352,192,206665,1,0
304,192,206965,1,4
352,192,207565,5,0
160,192,208165,1,0
256,144,208765,1,0
256,192,209065,1,0
256,240,209365,1,4
144,288,209964,5,0
144,96,210564,1,0
192,192,211164,1,0
144,192,211464,1,0
96,192,211764,1,4
160,192,212364,5,0
352,192,212964,1,0
256,48,213564,1,0
256,96,213864,1,0
256,144,214164,1,4
256,192,214464,1,4
256,192,214764,6,0,C|416:192,2,140
256,192,216563,2,0,C|64:192,2,140
256,192,218063,2,0,C|288:224|256:256|288:288|256:352,1,210
256,320,219263,1,0
256,288,219563,1,0
256,256,219863,1,0
256,224,220163,2,0,C|256:96,5,70
112,96,221962,5,0
128,112,222112,1,0
144,96,222262,1,0
160,112,222412,1,0
176,96,222562,1,0
192,112,222712,1,0
208,96,222862,1,0
224,112,223012,1,0
240,96,223162,1,0
256,112,223312,1,0
272,96,223462,1,0
288,112,223612,1,0
304,96,223762,1,0
320,112,223912,1,0
336,96,224062,1,0
352,112,224212,1,0
368,96,224362,1,4
