osu file format v5

[General]
AudioFilename: E_Nomine_SchwarzeSonneEnglish.mp3
AudioLeadIn: 0
PreviewTime: 48591
Countdown: 1
SampleSet: Normal
StackLeniency: 0.7
Mode: 0
LetterboxInBreaks: 1
EditorDistanceSpacing: 1

[Metadata]
Title:Schwarze Sonne (English version)
Artist:E Nomine
Creator:DarkCenobyte
Version:Hard
Source:
Tags:E Nomine Enomine Schwarze Sonne english

[Difficulty]
HPDrainRate:7
CircleSize:6
OverallDifficulty:8
SliderMultiplier:1.4
SliderTickRate:1

[Events]
//Background and Video events
0,0,"enomine3.jpg"
1,1099,"E_Nomine_-_Schwarze_Sonne.flv"
//Break Periods
2,46991,49791
2,66188,69587
2,87484,88184
2,96782,98832
2,104580,107831
2,121978,127178
2,145075,146974
2,164572,166621
2,176569,185218
//Storyboard Layer 0 (Background)
//Storyboard Layer 1 (Failing)
//Storyboard Layer 2 (Passing)
//Storyboard Layer 3 (Foreground)
//Storyboard Sound Samples
//Background Colour Transformations
3,100,163,162,255

[TimingPoints]
9598,599.899999999997,4,1,0,60,1,0
146525,-100,4,2,0,60,0,0
165122,-100,4,1,0,60,0,0

[HitObjects]
192,192,11997,1,0
256,192,12297,1,0
256,192,12447,1,0
320,192,12597,1,0
352,280,13197,6,0,C|464:88,1,210
432,144,14397,1,4
408,128,14547,1,4
384,112,14697,1,4
360,96,14847,1,4
336,80,14997,1,4
160,280,15596,6,0,C|48:88,1,210
80,144,16796,1,4
104,128,16946,1,4
128,112,17096,1,4
152,96,17246,1,4
176,80,17396,1,4
352,104,17996,6,0,C|464:296,1,210
432,240,19196,1,4
408,256,19346,1,4
384,272,19496,1,4
360,288,19646,1,4
336,304,19796,1,4
160,104,20396,6,0,C|48:296,1,210
80,240,21596,1,4
104,256,21746,1,4
128,272,21896,1,4
152,288,22046,1,4
176,304,22196,1,4
256,192,22795,12,0,23995
256,192,23995,12,0,24595
256,192,24595,12,0,25195
256,192,25195,12,0,25795
256,192,25795,12,0,26095
256,192,26095,12,0,26395
160,104,26995,6,0,C|48:296,1,210
80,240,28195,1,4
104,256,28345,1,4
128,272,28495,1,4
152,288,28645,1,4
176,304,28795,1,4
352,104,29394,6,0,C|464:296,1,210
432,240,30594,1,4
408,256,30744,1,4
384,272,30894,1,4
360,288,31044,1,4
336,304,31194,1,4
416,48,31794,5,0
416,80,31944,1,0
416,112,32094,2,0,C|320:112,5,70
96,48,34193,5,0
96,80,34343,1,0
96,112,34493,2,0,C|192:112,5,70
192,320,36593,6,0,C|256:352|320:320,1,140
320,288,37343,1,0
320,256,37493,1,0
320,288,37643,1,0
315,322,37793,6,0,C|256:352|192:320,1,140
224,32,38993,5,0
200,32,39143,1,0
176,32,39293,2,0,C|128:32,2,35
288,32,39892,5,0
312,32,40042,1,0
336,32,40192,2,0,C|384:32,4,35
256,304,41392,6,0,C|256:144,1,140
208,160,42292,6,0,C|144:160,2,35
304,160,42892,2,0,C|352:160,2,35
256,112,43492,2,0,C|256:64,4,35
256,160,44392,1,0
256,184,44542,1,0
256,208,44692,1,0
256,232,44842,1,0
256,256,44992,1,0
256,280,45142,1,0
256,304,45292,1,0
224,192,46191,5,0
288,192,46791,1,0
288,136,50991,5,0
320,88,51291,1,0
352,136,51590,1,0
320,88,51890,1,0
280,48,52190,1,0
320,88,52490,1,0
360,48,52790,1,0
320,88,53090,1,0
320,88,53390,5,0
368,120,53690,1,0
320,152,53989,1,0
368,120,54289,1,0
408,80,54589,1,0
368,120,54889,1,0
408,160,55189,1,0
368,120,55489,1,0
368,120,55790,5,0
336,168,56090,1,0
304,120,56389,1,0
336,168,56689,1,0
376,208,56989,1,0
336,168,57289,1,0
296,208,57589,1,0
336,168,57889,1,0
336,168,58189,5,0
288,136,58489,1,0
336,104,58788,1,0
288,136,59088,1,0
248,176,59388,1,0
288,136,59688,1,0
248,96,59988,1,0
288,136,60288,1,0
136,296,61189,6,0,C|440:296,1,280
416,296,62989,6,0,C|136:296,1,280
136,296,64788,6,0,C|440:296,1,280
256,192,70787,5,0
216,152,71087,2,0,C|96:32,1,140
112,48,71987,1,0
128,64,72137,1,0
144,80,72287,1,0
160,96,72437,1,0
176,112,72587,1,4
256,192,73187,5,0
216,232,73487,2,0,C|96:352,1,140
112,336,74387,1,0
128,320,74537,1,0
144,304,74687,1,0
160,288,74837,1,0
176,272,74987,1,4
256,192,75586,5,0
296,232,75886,2,0,C|416:352,1,140
400,336,76786,1,0
384,320,76936,1,0
368,304,77086,1,0
352,288,77236,1,0
336,272,77386,1,4
256,192,77986,5,0
296,152,78286,2,0,C|416:32,1,140
400,48,79186,1,0
384,64,79336,1,0
368,80,79486,1,0
352,96,79636,1,0
336,112,79786,1,4
256,192,80386,5,0
32,360,80986,1,0
32,24,81585,1,0
480,360,82185,1,0
480,24,82785,1,0
256,192,83385,5,0
128,288,83685,1,0
128,96,83985,1,0
384,288,84285,1,0
384,96,84585,1,0
256,192,85185,12,0,86985
416,96,89384,6,0,B|352:32|288:96,1,140
256,128,90284,1,0
256,176,90584,6,0,B|192:112|128:176,1,140
96,208,91484,1,0
96,256,91784,6,0,B|160:320|224:256,1,140
256,224,92684,1,0
256,176,92984,6,0,B|320:240|384:176,1,140
416,144,93884,1,0
320,192,94183,6,0,B|256:128|192:192,4,140
48,320,99582,6,0,C|48:16,1,280
48,40,101382,6,0,C|48:320,1,280
48,320,103181,6,0,C|48:16,1,280
432,272,108581,5,0
432,208,108881,2,0,B|368:160|432:80,1,140
352,80,109781,1,0
288,80,110081,1,0
256,80,110381,5,0
256,144,110681,2,0,B|320:192|256:272,1,140
336,272,111581,1,0
400,272,111881,1,0
400,208,112180,1,0
400,144,112480,1,0
256,208,113380,6,0,B|192:144,2,70
256,208,114580,6,0,B|320:144,2,70
256,208,115780,6,4,B|256:304,6,70
48,208,118779,6,0,B|128:0|224:208,1,280
288,208,120279,1,0
288,144,120579,1,0
320,144,120729,1,0
352,144,120879,1,0
384,144,121029,1,0
416,144,121179,1,0
256,192,128378,5,0
296,152,128678,2,0,C|416:32,1,140
400,48,129577,1,0
384,64,129728,1,0
368,80,129878,1,0
352,96,130028,1,0
336,112,130178,1,4
256,192,130778,5,0
296,232,131078,2,0,C|416:352,1,140
400,336,131977,1,0
384,320,132128,1,0
368,304,132278,1,0
352,288,132428,1,0
336,272,132578,1,4
256,192,133177,5,0
216,232,133477,2,0,C|96:352,1,140
112,336,134377,1,0
128,320,134527,1,0
144,304,134677,1,0
160,288,134827,1,0
176,272,134977,1,4
256,192,135577,5,0
216,152,135877,2,0,C|96:32,1,140
112,48,136776,1,0
128,64,136927,1,0
144,80,137077,1,0
160,96,137227,1,0
176,112,137377,1,4
256,192,137977,5,0
32,360,138577,1,0
32,24,139176,1,0
480,360,139776,1,0
480,24,140376,1,0
256,192,140976,5,0
128,288,141276,1,0
128,96,141576,1,0
384,288,141876,1,0
384,96,142176,1,0
256,192,142776,12,0,144576
64,288,148174,5,0
64,144,148774,1,0
208,144,149374,1,0
208,288,149974,1,0
352,288,150574,1,0
352,144,151174,2,0,C|304:208|240:128|192:224,1,280
48,48,152974,5,0
112,112,153573,1,0
48,176,154173,1,0
112,112,154773,1,0
48,48,155373,1,0
112,112,155973,2,0,C|176:160|96:224|192:272,1,280
416,320,157773,5,0
416,176,158373,1,0
416,32,158973,1,0
416,176,159572,1,0
416,320,160172,1,0
416,176,160772,1,0
256,192,161972,12,0,164372
256,48,167371,5,0
336,160,167971,1,0
256,272,168571,1,0
176,160,169171,1,0
80,144,170371,2,0,C|128:80|176:160|240:64,1,280
256,48,172170,5,0
176,160,172770,1,0
256,272,173370,1,0
336,160,173970,1,0
432,144,175170,2,4,C|384:80|336:160|272:64,1,280
256,192,185968,5,0
296,232,186268,2,0,C|416:352,1,140
400,336,187168,1,0
384,320,187318,1,0
368,304,187468,1,0
352,288,187618,1,0
336,272,187768,1,4
256,192,188368,5,0
296,152,188668,2,0,C|416:32,1,140
400,48,189567,1,0
384,64,189718,1,0
368,80,189868,1,0
352,96,190018,1,0
336,112,190168,1,4
256,192,190767,5,0
216,152,191067,2,0,C|96:32,1,140
112,48,191967,1,0
128,64,192117,1,0
144,80,192267,1,0
160,96,192417,1,0
176,112,192567,1,4
256,192,193167,5,0
216,232,193467,2,0,C|96:352,1,140
112,336,194367,1,0
128,320,194517,1,0
144,304,194667,1,0
160,288,194817,1,0
176,272,194967,1,4
256,192,195567,5,0
32,360,196167,1,0
32,24,196766,1,0
480,360,197366,1,0
480,24,197966,1,0
256,192,198566,5,0
128,288,198866,1,0
128,96,199166,1,0
384,288,199466,1,0
384,96,199766,1,0
256,192,200366,5,0
192,144,200666,1,0
192,176,200816,1,0
192,208,200966,1,0
224,224,201116,1,0
256,240,201266,1,0
288,224,201416,1,0
320,208,201565,1,0
320,176,201715,1,0
320,144,201865,1,0
288,112,202015,1,0
256,112,202165,1,0
256,144,202315,1,0
256,176,202465,1,0
256,192,202765,12,0,203065
256,192,203365,12,0,203965
256,192,205165,5,0
216,232,205465,2,0,C|96:352,1,140
112,336,206365,1,0
128,320,206515,1,0
144,304,206665,1,0
160,288,206815,1,0
176,272,206965,1,4
256,192,207565,5,0
216,152,207865,2,0,C|96:32,1,140
112,48,208764,1,0
128,64,208915,1,0
144,80,209065,1,0
160,96,209215,1,0
176,112,209365,1,4
256,192,209964,5,0
296,152,210264,2,0,C|416:32,1,140
400,48,211164,1,0
384,64,211314,1,0
368,80,211464,1,0
352,96,211614,1,0
336,112,211764,1,4
256,192,212364,5,0
296,232,212664,2,0,C|416:352,1,140
400,336,213563,1,0
384,320,213714,1,0
368,304,213864,1,0
352,288,214014,1,0
336,272,214164,1,4
256,192,214764,5,0
480,24,215364,1,0
480,360,215963,1,0
32,24,216563,1,0
32,360,217163,1,0
256,192,217763,5,0
384,96,218063,1,0
384,288,218363,1,0
128,96,218663,1,0
128,288,218963,1,0
256,192,219563,12,4,221363
