osu file format v14

[General]
AudioFilename: Dzeko_Torres__2015_in_10_Minutes.mp3
AudioLeadIn: 0
PreviewTime: 61850
Countdown: 0
SampleSet: Normal
StackLeniency: 0.4
Mode: 0
LetterboxInBreaks: 0
WidescreenStoryboard: 1

[Editor]
DistanceSpacing: 0.5
BeatDivisor: 4
GridSize: 4
TimelineZoom: 2.739998

[Metadata]
Title:2015 in 10 minutes
TitleUnicode:2015 in 10 minutes
Artist:Dzeko & Torres
ArtistUnicode:Dzeko & Torres
Creator:Aleks719
Version:Marathon
Source:
Tags:Martin Garrix Matisse Sadko Eric Prydz Acappella KSHMR Tiesto Vassy Bassjackers Sirah Axwell Ingrosso Snake Harrison Ephwurd Jack Khan Calvin Harris Ellie Goulding Sander Doorn Phoenix Avicii W&W DVBBS Zedd Stevenson ODESZA Harrell House Trance Electro Progressive marathon Remix
BeatmapID:887252
BeatmapSetID:408612

[Difficulty]
HPDrainRate:6.5
CircleSize:4.4
OverallDifficulty:7
ApproachRate:8.3
SliderMultiplier:2
SliderTickRate:2

[Events]
//Background and Video events
0,0,"Black-White-312.jpg",0,0
//Break Periods
2,315175,327865
2,555175,560600
//Storyboard Layer 0 (Background)
//Storyboard Layer 1 (Fail)
//Storyboard Layer 2 (Pass)
//Storyboard Layer 3 (Foreground)
//Storyboard Sound Samples

[TimingPoints]
-25,468.75,4,1,1,50,1,0
3256,-142.857142857143,4,2,2,50,0,0
14740,-142.857142857143,4,2,2,45,0,0
18490,-142.857142857143,4,2,2,40,0,0
19662,-125,4,2,2,50,0,0
31029,-125,4,2,2,45,0,0
31967,-125,4,2,2,40,0,0
32904,-125,4,2,2,35,0,0
33607,-125,4,2,2,60,0,0
33725,-111.111111111111,4,2,2,55,0,1
33842,-111.111111111111,4,2,2,45,0,0
48725,-100,4,1,1,50,0,0
53353,-100,4,1,1,55,0,0
53471,-100,4,1,1,50,0,0
54291,-100,4,1,1,65,0,0
54408,-100,4,1,1,50,0,0
55697,-100,4,1,1,60,0,0
55814,-100,4,1,1,50,0,0
63725,-83.3333333333333,4,1,1,60,0,1
66478,-66.6666666666667,4,1,1,60,0,1
66889,-83.3333333333333,4,1,1,60,0,1
71107,-83.3333333333333,4,1,1,60,0,0
71225,-83.3333333333333,4,1,1,70,0,1
71342,-83.3333333333333,4,1,1,60,0,1
74623,-83.3333333333333,4,1,1,45,0,1
74857,-83.3333333333333,4,1,1,60,0,1
78725,-83.3333333333333,4,1,1,55,0,0
82475,-133.333333333333,4,1,1,45,0,0
89975,-133.333333333333,4,3,1,60,0,0
96010,-133.333333333333,4,3,1,35,0,0
96127,-133.333333333333,4,3,1,60,0,0
96361,-133.333333333333,4,3,1,40,0,0
96478,-133.333333333333,4,3,1,60,0,0
97182,-133.333333333333,4,3,1,40,0,0
97416,-133.333333333333,4,3,1,50,0,0
97943,-111.111111111111,4,1,1,50,0,0
119975,-100,4,1,1,60,0,0
132982,-90.9090909090909,4,1,1,60,0,0
134975,-71.4285714285714,4,1,1,60,0,1
141947,-100,4,1,1,40,0,1
142416,-71.4285714285714,4,1,1,60,0,1
149975,-71.4285714285714,4,1,1,60,0,0
150912,-71.4285714285714,4,1,1,50,0,0
151850,-71.4285714285714,4,1,1,40,0,0
152787,-71.4285714285714,4,1,1,30,0,0
153725,-133.333333333333,4,2,2,50,0,0
164916,-133.333333333333,4,2,2,40,0,0
182260,-133.333333333333,4,2,2,45,0,0
182728,-133.333333333333,4,2,2,40,0,0
183197,-133.333333333333,4,2,2,35,0,0
183725,-100,4,1,1,50,0,0
198021,-166.666666666667,4,1,1,50,0,0
198725,-83.3333333333333,4,1,1,60,0,1
198842,-76.9230769230769,4,1,1,50,0,0
206225,-76.9230769230769,4,1,11,55,0,0
207162,-76.9230769230769,4,1,1,55,0,0
208100,-76.9230769230769,4,1,1,60,0,0
209037,-76.9230769230769,4,1,1,55,0,0
211850,-76.9230769230769,4,1,1,50,0,0
213725,-83.3333333333333,4,1,1,55,0,1
217357,-83.3333333333333,4,1,10,60,0,1
217592,-83.3333333333333,4,1,1,55,0,1
220697,-83.3333333333333,4,1,10,45,0,1
220814,-83.3333333333333,4,1,1,55,0,1
224916,-83.3333333333333,4,1,10,45,0,1
225033,-83.3333333333333,4,1,1,55,0,1
226732,-83.3333333333333,4,1,10,45,0,1
226967,-83.3333333333333,4,1,1,40,0,1
227201,-83.3333333333333,4,1,1,50,0,1
227670,-83.3333333333333,4,1,1,60,0,1
228139,-83.3333333333333,4,1,1,70,0,1
228725,-100,4,1,1,30,0,0
230600,-100,4,1,1,35,0,0
232475,-100,4,1,1,45,0,0
233412,-100,4,1,1,50,0,0
234350,-100,4,1,1,55,0,0
235287,-100,4,1,1,60,0,0
236225,-111.111111111111,4,1,1,30,0,0
236693,-111.111111111111,4,2,2,60,0,0
251225,-100,4,2,1,60,0,0
265697,-100,4,2,2,60,0,0
266225,-83.3333333333333,4,1,1,55,0,1
266342,-83.3333333333333,4,1,1,55,0,0
266576,-100,4,1,1,55,0,0
268920,-100,4,1,11,60,0,0
269623,-100,4,1,1,55,0,0
272728,-100,4,1,11,55,0,0
273549,-100,4,1,1,55,0,0
276478,-100,4,1,11,55,0,0
277064,-100,4,1,1,55,0,0
280170,-100,4,1,1,65,0,0
281225,-90.9090909090909,4,1,1,60,0,1
281342,-90.9090909090909,4,1,1,60,0,0
296225,-100,4,1,1,70,0,1
296342,-100,4,1,1,50,0,1
303490,-100,4,1,1,60,0,0
303725,-100,4,1,1,65,0,1
311225,-111.111111111111,4,1,1,60,0,0
314975,-125,4,2,2,80,0,0
328334,-125,4,2,2,55,0,0
329975,-111.111111111111,4,2,1,60,0,0
342572,-111.111111111111,4,2,2,60,0,0
343217,-111.111111111111,4,2,1,60,0,0
344975,-111.111111111111,4,1,1,55,0,0
359975,-111.111111111111,4,1,1,55,0,1
360092,-111.111111111111,4,1,1,45,0,0
374447,-111.111111111111,4,1,11,60,0,0
374975,-83.3333333333333,4,2,1,65,0,1
381420,-133.333333333333,4,2,1,65,0,1
382123,-83.3333333333333,4,2,1,65,0,1
389623,-83.3333333333333,4,1,10,55,0,1
389975,-111.111111111111,4,1,1,50,0,0
392670,-111.111111111111,4,1,1,50,0,0
412475,-90.9090909090909,4,1,1,50,0,0
427475,-90.9090909090909,4,2,2,60,0,0
430697,-90.9090909090909,4,1,11,55,0,0
430814,-90.9090909090909,4,2,2,60,0,0
434389,-90.9090909090909,4,1,11,55,0,0
434623,-90.9090909090909,4,2,2,60,0,0
434975,-83.3333333333333,4,2,2,70,0,0
438607,-83.3333333333333,4,2,2,80,0,0
442475,-133.333333333333,4,1,1,55,0,1
442943,-83.3333333333333,4,1,1,55,0,1
446225,-133.333333333333,4,1,1,55,0,1
446693,-83.3333333333333,4,1,1,55,0,1
449975,-133.333333333333,4,1,1,55,0,1
450443,-83.3333333333333,4,1,1,55,0,1
453725,-133.333333333333,4,1,1,55,0,1
454193,-83.3333333333333,4,1,1,55,0,1
455600,-100,4,1,1,55,0,1
457475,-111.111111111111,4,1,1,55,0,0
461459,-111.111111111111,4,2,2,55,0,0
483725,-100,4,2,2,60,0,0
490404,-100,4,1,11,55,0,0
491342,-100,4,2,2,65,0,0
493920,-100,4,2,2,70,0,0
496732,-100,4,1,1,55,0,0
517475,-90.9090909090909,4,2,2,60,0,0
524975,-76.9230769230769,4,1,1,100,0,0
532475,-71.4285714285714,4,1,1,65,0,1
539037,-71.4285714285714,4,1,1,10,0,1
539271,-71.4285714285714,4,1,1,20,0,1
539506,-71.4285714285714,4,1,1,40,0,1
539740,-71.4285714285714,4,1,1,60,0,1
539857,-71.4285714285714,4,1,1,75,0,0
539975,-71.4285714285714,4,1,1,60,0,1
547475,-181.818181818182,4,2,2,80,0,0
554975,-181.818181818182,4,2,2,10,0,0
561303,-181.818181818182,4,2,2,40,0,0
566342,-181.818181818182,4,2,2,30,0,0
568803,-181.818181818182,4,2,2,50,0,0
569857,-153.846153846154,4,2,2,60,0,0
577357,-133.333333333333,4,2,2,60,0,0
592826,-133.333333333333,4,2,2,45,0,0
593060,-133.333333333333,4,2,2,60,0,0
593764,-133.333333333333,4,2,2,45,0,0
593998,-133.333333333333,4,2,2,60,0,0
594701,-133.333333333333,4,2,2,40,0,0
594935,-133.333333333333,4,2,2,60,0,0
595639,-133.333333333333,4,2,2,40,0,0
595873,-133.333333333333,4,2,2,60,0,0
596576,-133.333333333333,4,2,2,35,0,0
596810,-133.333333333333,4,2,2,60,0,0
597514,-133.333333333333,4,2,2,35,0,0
597748,-133.333333333333,4,2,2,60,0,0
598451,-133.333333333333,4,2,2,30,0,0
598685,-133.333333333333,4,2,2,60,0,0
599389,-133.333333333333,4,2,2,30,0,0
599623,-133.333333333333,4,2,2,60,0,0
600092,-133.333333333333,4,2,2,20,0,0
600560,-133.333333333333,4,2,2,60,0,0
600678,-133.333333333333,4,2,2,50,0,0
600795,-133.333333333333,4,2,2,60,0,0
601967,-133.333333333333,4,2,2,20,0,0
602435,-133.333333333333,4,2,2,60,0,0
602553,-133.333333333333,4,2,2,40,0,0
602670,-133.333333333333,4,2,2,60,0,0
603842,-133.333333333333,4,2,2,20,0,0
604310,-133.333333333333,4,2,2,60,0,0
604428,-133.333333333333,4,2,2,30,0,0
604545,-133.333333333333,4,2,2,60,0,0
605600,480,4,2,2,60,1,0
607520,521.739130434783,4,2,2,60,1,0
607520,-111.111111111111,4,2,2,60,0,0
607650,-111.111111111111,4,2,2,20,0,0
608172,-111.111111111111,4,2,2,60,0,0
609606,545.454545454546,4,2,2,60,1,0
609606,-133.333333333333,4,2,2,60,0,0
609742,-133.333333333333,4,2,2,20,0,0
610696,571.428571428571,4,2,2,60,1,0
611838,594.059405940594,4,2,2,60,1,0
611838,-133.333333333333,4,2,2,60,0,0
611986,-133.333333333333,4,2,2,20,0,0
613026,631.578947368421,4,2,2,60,1,0
614289,666.666666666667,4,2,2,60,1,0
614289,-133.333333333333,4,2,2,60,0,0
614622,-133.333333333333,4,2,2,20,0,0
614789,-133.333333333333,4,2,2,60,0,0
615622,731.707317073171,4,2,2,60,1,0

[Colours]
Combo1 : 223,0,0
Combo2 : 0,191,191
Combo3 : 196,40,90
Combo4 : 140,240,19
Combo5 : 64,112,170
Combo6 : 255,255,21

[HitObjects]
256,192,3725,12,2,9819,2:0:0:0:
320,148,11225,6,0,L|356:148,4,34.9999989318848,2|0|2|0|2,0:0|0:0|0:0|0:0|0:0,0:0:0:0:
256,92,11928,2,0,P|236:156|272:216,1,139.999995727539,0|0,0:0|1:0,0:0:0:0:
356,200,12631,1,0,1:0:0:0:
436,220,12866,2,0,L|444:176,6,34.9999989318848,2|0|2|0|2|0|2,0:0|0:0|0:0|0:0|0:0|0:0|0:0,0:0:0:0:
500,276,13803,2,0,P|436:304|372:276,1,139.999995727539,0|0,0:0|1:0,0:0:0:0:
356,200,14506,1,0,1:0:0:0:
192,148,14975,6,0,L|156:148,4,34.9999989318848,2|0|2|0|2,0:0|0:0|0:0|0:0|0:0,0:0:0:0:
256,92,15678,2,0,P|276:156|240:216,1,139.999995727539,0|0,0:0|1:0,0:0:0:0:
156,200,16381,1,0,1:0:0:0:
76,220,16616,2,0,L|68:176,6,34.9999989318848,2|0|2|0|2|0|2,0:0|0:0|0:0|0:0|0:0|0:0|0:0,0:0:0:0:
12,276,17553,2,0,P|76:304|140:276,1,139.999995727539,0|0,0:0|1:0,0:0:0:0:
156,200,18256,1,0,1:0:0:0:
256,48,18725,5,4,0:1:0:0:
256,72,18842,1,0,0:0:0:0:
256,96,18959,1,2,0:0:0:0:
256,120,19076,1,0,0:0:0:0:
256,144,19194,1,2,0:0:0:0:
392,288,19662,5,2,0:0:0:0:
440,216,19897,1,0,0:0:0:0:
436,128,20131,1,0,0:0:0:0:
436,128,20366,2,0,P|376:88|292:104,1,160,2|0,0:0|0:0,0:0:0:0:
248,180,21069,2,0,P|220:208|180:212,1,80,2|0,0:0|0:0,0:0:0:0:
108,160,21537,1,2,0:0:0:0:
140,76,21772,1,0,0:0:0:0:
140,76,22006,2,0,P|192:136|180:212,1,160,2|0,0:0|0:0,0:0:0:0:
168,232,22592,2,0,L|176:272,3,40,0|0|0|2,0:0|0:0|0:0|0:0,0:0:0:0:
140,76,23647,1,0,1:0:0:0:
140,76,23881,1,0,1:0:0:0:
224,124,24116,5,2,0:0:0:0:
224,124,24350,2,0,P|260:144|304:140,1,80,2|0,0:0|0:0,0:0:0:0:
376,100,24819,2,0,P|412:80|456:84,1,80,2|0,0:0|0:0,0:0:0:0:
432,168,25287,2,0,L|412:332,1,160,2|0,0:0|0:0,0:0:0:0:
488,376,25991,2,0,L|508:212,1,160,2|0,0:0|0:0,0:0:0:0:
432,168,26694,1,2,0:0:0:0:
256,72,27162,5,2,0:0:0:0:
204,144,27396,1,0,0:0:0:0:
292,152,27631,1,0,0:0:0:0:
256,72,27866,2,0,P|180:60|120:120,1,160,2|0,0:0|0:0,0:0:0:0:
140,204,28569,1,2,0:0:0:0:
204,144,28803,1,0,0:0:0:0:
122,112,29037,2,0,P|144:208|196:232,1,160,2|0,0:0|0:0,0:0:0:0:
276,256,29740,6,0,P|312:236|352:228,1,80,2|0,0:0|0:0,0:0:0:0:
388,308,30209,2,0,P|352:328|312:336,1,80,2|0,0:0|1:0,0:0:0:0:
316,188,30678,2,0,P|357:188|395:201,1,80
314,335,31147,2,0,P|272:334|234:321,1,80,2|0,0:0|1:0,0:0:0:0:
380,152,31616,2,0,P|415:173|442:203,1,80
236,322,32084,2,0,P|200:300|173:270,1,80,2|0,0:0|1:0,0:0:0:0:
456,152,32553,2,0,P|476:188|484:227,1,80
175,272,33022,2,0,P|154:236|146:196,2,80,2|4|2,0:0|0:0|0:0,0:0:0:0:
144,112,33725,5,4,0:1:0:0:
48,56,34194,2,0,B|20:108|48:140|24:188,2,134.999995880127,4|4|4,0:0|0:0|0:0,0:0:0:0:
144,112,35131,1,0,0:0:0:0:
204,200,35366,2,0,P|292:208|356:140,1,179.999994506836,4|4,0:0|0:0,0:0:0:0:
144,112,36303,2,0,P|100:184|124:272,1,179.999994506836,4|4,0:0|0:0,0:0:0:0:
353,147,37241,1,2,0:0:0:0:
353,147,37475,1,4,0:1:0:0:
353,147,38178,6,0,P|396:136|444:144,2,89.9999972534181,4|4|4,0:0|0:0|0:0,0:0:0:0:
400,244,38881,1,0,0:0:0:0:
472,324,39116,2,0,P|392:352|312:304,2,179.999994506836,4|4|4,0:0|0:0|0:0,0:0:0:0:
400,244,40287,2,0,L|416:152,1,89.9999972534181,0|4,0:0|0:0,0:0:0:0:
404,48,40756,1,2,0:0:0:0:
504,88,40991,1,2,0:0:0:0:
415,155,41225,1,4,0:1:0:0:
160,72,41694,6,0,P|116:76|72:60,1,89.9999972534181,4|0,0:0|0:0,0:0:0:0:
48,40,42045,2,0,P|36:112|52:172,1,134.999995880127,4|4,0:0|0:0,0:0:0:0:
96,272,42631,1,0,0:0:0:0:
192,328,42866,2,0,P|284:348|368:320,1,179.999994506836,4|4,0:0|0:0,0:0:0:0:
138,167,43803,2,0,P|95:159|51:171,1,89.9999972534181,4|0,0:0|0:0,0:0:0:0:
96,272,44272,1,2,0:0:0:0:
208,252,44506,1,2,0:0:0:0:
138,167,44741,1,2,0:0:0:0:
96,272,44975,1,4,0:1:0:0:
412,268,45678,5,4,0:0:0:0:
304,252,45912,1,0,0:0:0:0:
374,167,46147,1,2,0:0:0:0:
412,268,46381,1,2,0:0:0:0:
304,252,46616,2,0,P|276:212|284:120,1,134.999995880127,4|0,0:0|0:0,0:0:0:0:
296,108,47084,2,0,P|256:80|164:88,1,134.999995880127,4|0,0:0|0:0,0:0:0:0:
148,96,47553,6,0,L|56:84,1,89.9999972534181,4|0,0:0|0:0,0:0:0:0:
84,188,48022,1,8,0:1:0:0:
28,280,48256,2,0,L|120:292,1,89.9999972534181,8|0,0:1|0:0,0:0:0:0:
148,96,48725,5,4,0:1:0:0:
28,280,49194,1,8,2:1:0:0:
80,24,49662,1,0,0:0:0:0:
250,115,49897,1,0,0:0:0:0:
59,142,50131,1,8,2:1:0:0:
197,7,50366,1,0,0:0:0:0:
164,198,50600,1,2,0:1:0:0:
164,198,51069,5,8,2:1:0:0:
372,76,51537,1,0,0:0:0:0:
420,240,51772,1,0,0:0:0:0:
256,192,52006,1,8,2:1:0:0:
372,76,52241,1,0,0:0:0:0:
372,76,52358,1,0,0:0:0:0:
372,76,52475,1,2,0:0:0:0:
296,268,52943,6,0,B|276:300|276:300|252:308|252:308|232:340,2,100,8|0|2,2:1|0:0|0:2,0:0:0:0:
188,100,53881,2,0,B|208:68|208:68|232:60|232:60|252:28,2,100,8|0|2,2:1|0:0|0:2,0:0:0:0:
60,316,54819,1,8,0:0:0:0:
156,252,55053,1,0,0:0:0:0:
32,244,55287,1,2,0:0:0:0:
172,176,55522,1,0,0:0:0:0:
0,176,55756,2,2,P|-8:124|8:76,1,100,10|0,0:0|0:0,0:0:0:0:
112,40,56225,6,2,L|168:28,3,50,2|0|0|0,0:0|0:0|0:0|0:0,0:0:0:0:
240,112,56694,2,0,L|184:100,3,50,8|0|0|0,0:0|0:0|0:0|0:0,0:0:0:0:
264,192,57162,2,2,L|320:204,3,50,2|0|0|0,0:0|0:0|0:0|0:0,0:0:0:0:
404,261,57631,2,0,L|356:272,3,50,8|0|0|0,0:0|0:0|0:0|0:0,0:0:0:0:
288,340,58100,5,2,0:0:0:0:
252,348,58217,1,0,0:0:0:0:
216,348,58334,1,0,0:0:0:0:
184,340,58451,1,0,0:0:0:0:
156,320,58569,1,10,0:0:0:0:
140,288,58686,1,0,0:0:0:0:
132,252,58803,1,0,0:0:0:0:
136,216,58920,1,0,0:0:0:0:
148,184,59037,5,2,0:0:0:0:
176,164,59155,1,0,0:0:0:0:
212,160,59272,1,2,0:0:0:0:
244,176,59389,1,0,0:0:0:0:
252,212,59506,1,10,0:0:0:0:
240,244,59623,1,0,0:0:0:0:
208,260,59741,1,2,0:0:0:0:
176,252,59858,1,0,0:0:0:0:
92,201,59975,6,0,L|84:169,6,25,2|0|0|2|0|0|0,0:3|0:0|0:0|0:3|0:0|0:0|0:0,0:0:0:0:
136,93,60443,2,0,L|168:85,6,25,2|0|0|2|0|0|0,0:3|0:0|0:0|0:3|0:0|0:0|0:0,0:0:0:0:
244,137,60912,2,0,L|252:169,6,25,2|0|0|2|0|0|0,0:3|0:0|0:0|0:3|0:0|0:0|0:0,0:0:0:0:
200,245,61381,2,0,L|168:253,6,25,2|0|0|2|0|0|0,0:3|0:0|0:0|0:3|0:0|0:0|0:0,0:0:0:0:
168,169,61850,5,4,0:3:0:0:
292,144,62084,1,0,0:0:0:0:
324,140,62201,1,0,0:0:0:0:
356,148,62319,2,2,P|408:140|452:160,1,100,4|0,0:3|0:0,0:0:0:0:
476,184,62670,1,0,0:0:0:0:
488,216,62787,1,4,0:3:0:0:
484,252,62905,1,0,0:0:0:0:
464,280,63022,1,0,0:0:0:0:
432,292,63139,1,0,0:0:0:0:
396,288,63256,1,14,0:1:0:0:
396,288,63725,5,4,0:0:0:0:
284,196,63959,1,2,0:2:0:0:
256,184,64076,1,2,0:2:0:0:
224,188,64194,2,0,P|168:200|108:176,1,119.999996337891,4|0,0:3|0:0,0:0:0:0:
124,35,64662,2,2,P|180:23|240:51,1,119.999996337891,4|0,0:3|0:0,0:0:0:0:
300,120,65014,2,0,P|356:132|416:104,1,119.999996337891,2|0,0:0|0:0,0:0:0:0:
348,36,65366,5,2,0:2:0:0:
348,36,65483,1,2,0:2:0:0:
348,36,65600,2,2,P|284:24|236:48,1,119.999996337891,4|0,0:3|0:0,0:0:0:0:
172,120,65951,2,0,B|184:164|184:164|180:192|180:192|196:240,1,119.999996337891,2|0,0:0|0:0,0:0:0:0:
268,272,66303,5,2,0:2:0:0:
268,284,66420,1,2,0:2:0:0:
268,296,66537,2,2,P|208:340|136:332,1,150.000005722046,4|0,0:3|0:0,0:0:0:0:
32,272,67006,1,4,0:2:0:0:
288,196,67241,1,0,0:0:0:0:
32,272,67475,1,6,0:0:0:0:
68,136,67709,6,0,L|64:104,3,29.9999990844727,2|0|2|0,0:2|0:0|0:2|0:0,0:0:0:0:
80,148,67944,2,0,B|104:128|132:120|132:120|152:96|184:84,1,119.999996337891,4|0,0:3|0:0,0:0:0:0:
224,192,68412,2,2,P|280:160|340:168,1,119.999996337891,4|0,0:3|0:0,0:0:0:0:
396,240,68764,2,2,P|424:188|420:120,1,119.999996337891,2|0,0:0|0:0,0:0:0:0:
384,44,69116,5,2,0:2:0:0:
384,44,69233,1,2,0:2:0:0:
384,44,69350,2,2,B|336:48|336:48|312:60|312:60|264:64,1,119.999996337891,4|0,0:3|0:0,0:0:0:0:
176,24,69701,2,2,P|172:88|200:136,1,119.999996337891,2|0,0:0|0:0,0:0:0:0:
288,196,70053,5,2,0:2:0:0:
288,196,70170,1,2,0:2:0:0:
288,196,70287,2,8,L|292:128,1,59.9999981689454,8|8,0:3|0:3,0:3:0:0:
212,152,70522,2,8,L|208:212,1,59.9999981689454,2|2,0:3|0:3,0:3:0:0:
260,272,70756,2,8,L|256:332,1,59.9999981689454,2|2,0:3|0:3,0:3:0:0:
192,376,70991,2,0,L|140:344,1,59.9999981689454,2|2,0:3|0:3,0:3:0:0:
76,300,71225,5,6,0:0:0:0:
164,192,71459,1,2,0:2:0:0:
136,200,71576,1,2,0:2:0:0:
108,208,71694,2,0,P|92:144|112:96,1,119.999996337891,8|2,0:2|0:0,0:0:0:0:
268,188,72162,2,2,P|284:252|264:300,1,119.999996337891,4|0,0:3|0:0,0:0:0:0:
168,328,72514,2,2,P|108:316|68:264,1,119.999996337891,10|0,0:2|0:0,0:0:0:0:
44,172,72866,5,2,0:2:0:0:
44,172,72983,1,2,0:2:0:0:
44,172,73100,2,2,P|96:136|152:152,1,119.999996337891,8|0,0:2|0:0,0:0:0:0:
204,228,73451,2,2,P|256:264|312:248,1,119.999996337891,10|0,0:2|0:0,0:0:0:0:
268,188,73803,5,2,0:2:0:0:
268,188,73920,1,2,0:2:0:0:
268,188,74037,2,0,P|256:124|280:76,1,119.999996337891,6|0,0:1|0:0,0:0:0:0:
307,251,74506,1,12,0:2:0:0:
328,20,74741,1,2,0:0:0:0:
368,196,74975,1,6,0:0:0:0:
340,344,75209,6,0,L|348:300,3,29.9999990844727,2|2|2|0,0:2|0:2|0:2|0:0,0:0:0:0:
322,353,75444,2,0,P|266:369|206:353,1,119.999996337891,4|0,0:3|0:0,0:0:0:0:
18,301,75912,2,2,P|74:285|134:301,1,119.999996337891,4|0,0:3|0:0,0:0:0:0:
214,265,76264,2,2,L|230:141,1,119.999996337891,2|0,0:0|0:0,0:0:0:0:
328,104,76616,5,2,0:2:0:0:
328,104,76733,1,2,0:2:0:0:
328,104,76850,2,2,L|312:228,1,119.999996337891,6|0,0:3|0:0,0:0:0:0:
404,84,77319,2,2,L|388:208,1,119.999996337891,2|0,0:0|0:0,0:0:0:0:
480,68,77787,2,2,L|464:192,1,119.999996337891
468,216,78139,1,0,0:0:0:0:
472,244,78256,1,2,0:2:0:0:
476,272,78373,1,0,0:0:0:0:
480,300,78491,6,2,P|452:316|424:320,1,59.9999981689454,2|0,0:0|0:0,0:0:0:0:
344,304,78725,1,4,0:0:0:0:
256,192,78842,12,8,82475,0:3:0:0:
324,208,82709,5,0,2:0:0:0:
324,208,82943,2,0,P|276:152|204:156,1,150.000005722046,2|0,0:2|2:0,0:0:0:0:
148,216,83647,2,0,P|204:156|200:92,1,150.000005722046,2|0,0:2|2:0,0:0:0:0:
112,128,84350,2,0,L|252:68,1,150.000005722046,2|2,0:2|0:2,0:0:0:0:
284,152,85053,2,0,P|336:96|328:24,1,150.000005722046,2|0,0:2|2:0,0:0:0:0:
416,120,85756,2,0,P|452:132|488:128,1,75.0000028610231,0|0,0:0|2:0,0:0:0:0:
460,48,86225,1,0,0:0:0:0:
464,236,86693,6,0,P|404:280|328:272,1,150.000005722046,2|0,0:2|2:0,0:0:0:0:
264,228,87397,2,0,P|190:222|131:265,1,150.000005722046,2|0,0:2|2:0,0:0:0:0:
216,316,88100,2,0,P|221:242|178:183,1,150.000005722046,2|2,0:2|0:2,0:0:0:0:
132,360,88803,1,2,0:2:0:0:
400,128,90326,6,0,L|408:80,2,37.5000014305115
408,152,90678,2,0,P|376:168|336:164,1,75.0000028610231,2|0,0:2|0:0,0:0:0:0:
200,120,91264,2,0,L|196:72,2,37.5000014305115
212,144,91616,2,0,P|228:180|224:216,1,75.0000028610231,2|0,0:2|0:0,0:0:0:0:
44,248,92319,6,0,P|28:212|32:176,1,75.0000028610231,2|0,0:2|0:0,0:0:0:0:
56,148,92670,2,0,B|84:160|84:160|104:156|104:156|128:164,2,75.0000028610231,2|0|2,0:2|0:0|0:2,0:0:0:0:
64,112,93256,2,0,P|120:64|192:72,1,150.000005722046
296,180,94194,5,0,0:0:0:0:
296,180,94311,1,2,0:2:0:0:
296,180,94428,2,0,P|360:216|432:200,1,150.000005722046,2|0,0:2|0:0,0:0:0:0:
456,184,95014,1,0,0:0:0:0:
476,160,95131,1,2,0:2:0:0:
380,104,95366,2,0,P|300:72|236:92,1,150.000005722046,2|0,0:2|0:0,0:0:0:0:
140,148,96069,5,4,0:2:0:0:
184,232,96303,1,2,0:2:0:0:
184,232,96420,2,0,P|228:248|256:244,1,75.0000028610231,4|0,0:2|0:0,0:0:0:0:
288,228,96772,2,0,P|332:222|364:232,1,75.0000028610231,2|0,0:2|0:0,0:0:0:0:
332,312,97241,1,4,0:2:0:0:
308,324,97358,1,0,0:2:0:0:
284,336,97475,1,4,0:2:0:0:
260,348,97592,1,0,0:2:0:0:
260,348,97944,5,8,0:0:0:0:
60,224,98412,1,0,0:0:0:0:
140,148,98647,1,0,0:0:0:0:
168,256,98881,2,0,P|256:240|292:160,1,179.999994506836,8|0,0:0|0:0,0:0:0:0:
256,72,99584,1,0,0:0:0:0:
219,164,99819,2,0,P|258:241|344:256,1,179.999994506836,8|0,0:0|0:0,0:0:0:0:
452,224,100522,1,0,0:0:0:0:
372,148,100756,1,8,0:0:0:0:
20,72,101694,6,0,L|32:120,1,44.999998626709,8|2,0:0|0:2,0:0:0:0:
12,136,101928,2,0,P|-8:212|60:280,1,179.999994506836,2|0,0:2|0:0,0:0:0:0:
80,288,102514,1,2,0:2:0:0:
104,288,102631,1,8,0:0:0:0:
232,228,102866,2,0,P|316:200|400:232,1,179.999994506836,2|0,0:2|0:0,0:0:0:0:
416,248,103451,1,2,0:2:0:0:
428,268,103569,6,0,L|408:360,1,89.9999972534181,8|0,0:0|0:0,0:0:0:0:
392,376,103920,2,0,P|344:384|300:380,2,89.9999972534181,2|2|2,0:2|0:2|0:2,0:0:0:0:
408,356,104506,1,8,0:0:0:0:
408,356,104741,1,8,0:2:0:0:
408,356,104975,5,4,0:3:0:0:
276,300,105444,1,10,0:0:0:0:
276,300,105678,1,2,0:0:0:0:
140,348,105912,1,8,0:0:0:0:
124,340,106381,6,2,P|88:300|100:212,1,134.999995880127,8|2,0:0|0:0,0:0:0:0:
108,200,106850,1,8,0:0:0:0:
208,136,107084,6,0,L|256:128,1,44.999998626709,2|0,0:0|0:0,0:0:0:0:
304,60,107318,2,2,P|264:44|212:52,1,89.9999972534181,10|0,0:0|0:0,0:0:0:0:
132,80,107670,2,0,P|84:84|40:68,2,89.9999972534181,2|2|0,0:0|0:0|0:0,0:0:0:0:
192,164,108256,2,10,L|180:268,2,89.9999972534181,8|2|8,0:0|0:0|0:0,0:0:0:0:
204,148,109194,5,10,0:0:0:0:
352,240,109428,1,2,0:0:0:0:
320,132,109662,1,8,0:0:0:0:
240,272,110131,6,2,P|172:280|120:240,1,134.999995880127,8|2,0:0|0:0,0:0:0:0:
112,216,110600,1,8,0:0:0:0:
251,58,110834,5,2,0:0:0:0:
251,58,110951,1,0,0:0:0:0:
251,58,111068,2,2,L|240:148,1,89.9999972534181,10|0,0:0|0:0,0:0:0:0:
236,224,111420,2,2,L|309:280,2,89.9999972534181
172,184,112006,2,2,L|86:219,1,89.9999972534181,8|2,0:0|0:0,0:0:0:0:
108,96,112475,2,2,P|172:76|244:100,1,134.999995880127,10|0,0:0|0:0,0:0:0:0:
260,116,112944,5,10,0:0:0:0:
376,168,113178,1,2,0:0:0:0:
364,44,113412,1,8,0:0:0:0:
136,184,113881,5,10,0:0:0:0:
148,308,114116,1,0,0:0:0:0:
252,236,114350,1,10,0:0:0:0:
192,76,114584,5,2,0:0:0:0:
164,80,114701,1,0,0:0:0:0:
142,98,114818,2,2,P|127:140|136:184,1,89.9999972534181,10|0,0:0|0:0,0:0:0:0:
125,261,115170,2,2,P|169:251|204:224,2,89.9999972534181,0|2|2,0:0|0:0|0:0,0:0:0:0:
208,144,115756,2,2,P|250:159|280:194,1,89.9999972534181,8|2,0:0|0:0,0:0:0:0:
128,260,116225,2,2,P|108:188|124:132,1,134.999995880127,10|0,0:0|0:0,0:0:0:0:
142,98,116694,5,10,0:0:0:0:
232,56,116928,1,2,0:0:0:0:
332,80,117162,1,8,0:0:0:0:
364,300,117631,5,10,0:0:0:0:
276,348,117866,1,0,0:0:0:0:
176,324,118100,1,10,0:0:0:0:
142,98,118334,5,2,0:0:0:0:
142,98,118451,1,0,0:0:0:0:
142,98,118568,2,2,P|127:140|136:184,1,89.9999972534181,10|0,0:0|0:0,0:0:0:0:
204,224,118920,2,2,P|169:252|123:261,2,89.9999972534181,2|2|0,0:0|0:0|0:0,0:0:0:0:
208,144,119506,2,2,P|250:159|280:194,1,89.9999972534181,10|0,0:0|0:0,0:0:0:0:
120,148,119975,6,2,P|148:80|216:56,1,150,6|0,0:0|0:0,0:0:0:0:
244,56,120444,1,10,0:0:0:0:
380,92,120678,2,0,L|392:192,1,100,0|10,0:0|0:0,0:0:0:0:
391,191,121381,1,8,0:0:0:0:
272,304,121850,6,2,P|200:328|128:312,1,150,10|0,0:0|0:0,0:0:0:0:
104,300,122319,2,2,B|88:260|88:260|96:204,1,100,10|0,0:0|0:0,0:0:0:0:
116,96,122787,1,10,0:0:0:0:
116,96,123256,1,8,0:0:0:0:
296,48,123725,6,2,L|292:200,1,150,10|0,0:0|0:0,0:0:0:0:
304,224,124194,2,2,P|256:236|204:224,2,100,10|0|10,0:0|0:0|0:0,0:0:0:0:
472,156,125131,1,8,0:0:0:0:
480,176,125600,6,2,L|328:180,1,150,10|0,0:0|0:0,0:0:0:0:
312,196,126069,2,2,P|344:240|348:288,1,100,10|0,0:0|0:0,0:0:0:0:
256,276,126537,1,10,0:0:0:0:
256,276,127006,1,8,0:0:0:0:
76,240,127475,6,2,P|64:164|84:92,1,150,10|0,0:0|0:0,0:0:0:0:
100,72,127943,1,10,0:0:0:0:
224,108,128178,2,0,L|328:100,1,100,0|10,0:0|0:0,0:0:0:0:
323,100,128881,1,8,0:0:0:0:
476,56,129350,6,2,P|488:132|468:204,1,150,10|0,0:0|0:0,0:0:0:0:
452,224,129819,1,10,0:0:0:0:
340,312,130053,2,0,L|236:320,1,100,0|10,0:0|0:0,0:0:0:0:
241,320,130756,1,8,0:0:0:0:
96,152,131225,6,0,L|112:212,3,50,8|0|8|0,0:0|0:0|0:0|0:0,0:0:0:0:
176,244,131694,2,0,L|200:192,3,50,8|0|8|0,0:0|0:0|0:0|0:0,0:0:0:0:
264,244,132162,2,0,L|364:268,1,100,10|2,0:0|0:2,0:0:0:0:
500,164,132631,2,0,L|400:188,1,100,2|0,0:0|0:0,0:2:0:0:
308,100,133100,6,2,P|316:176|264:244,1,165.000005035401,2|0,0:0|2:0,0:0:0:0:
240,256,133569,2,0,B|200:248|200:248|160:252|160:252|124:248,1,110.000003356934,0|2,0:0|0:2,0:0:0:0:
40,152,134037,1,2,0:2:0:0:
32,144,134506,1,6,0:2:0:0:
16,248,134741,1,4,0:3:0:0:
120,360,134975,6,0,P|188:380|252:360,1,139.999995727539,4|0,0:0|0:0,0:0:0:0:
320,248,135444,2,0,P|252:228|188:248,1,139.999995727539,10|0,0:0|0:0,0:0:0:0:
252,360,135912,2,0,P|320:380|384:360,1,139.999995727539,8|0,0:3|0:0,0:0:0:0:
504,192,136381,1,10,0:0:0:0:
476,300,136616,1,2,0:0:0:0:
320,248,136850,2,0,P|300:180|316:104,1,139.999995727539,2|0,0:1|0:0,0:0:0:0:
332,88,137201,1,2,0:0:0:0:
356,72,137319,5,8,0:0:0:0:
436,172,137553,1,8,0:3:0:0:
320,248,137787,1,8,0:3:0:0:
320,248,137905,2,0,B|256:276|256:276|192:248,1,139.999995727539,8|8,0:3|0:3,0:0:0:0:
172,240,138256,1,8,0:0:0:0:
256,108,138491,1,8,0:3:0:0:
432,148,138725,5,2,0:0:0:0:
500,308,139017,2,0,L|508:272,2,34.9999989318848,2|0|2,0:2|0:0|0:2,0:0:0:0:
496,324,139193,2,0,P|432:300|360:312,1,139.999995727539,10|0,0:2|0:0,0:0:0:0:
204,352,139662,2,0,P|160:292|156:220,1,139.999995727539,2|0,1:0|0:0,0:0:0:0:
160,212,140014,1,0,0:0:0:0:
168,196,140131,1,10,0:0:0:0:
280,248,140366,1,2,0:0:0:0:
104,164,140600,2,0,P|164:124|224:152,1,139.999995727539,2|0,1:0|0:0,0:0:0:0:
232,160,140951,1,2,0:0:0:0:
236,176,141069,5,8,0:0:0:0:
372,196,141303,1,8,0:3:0:0:
376,72,141537,1,8,0:3:0:0:
364,60,141655,1,8,0:3:0:0:
208,60,141889,1,8,0:3:0:0:
196,48,142006,6,2,L|144:40,1,50,2|0,0:2|2:0,0:0:0:0:
100,108,142241,2,2,L|152:116,1,50,2|0,0:2|2:2,0:0:0:0:
168,128,142475,6,0,P|196:188|172:256,1,139.999995727539,6|0,0:0|0:0,0:0:0:0:
100,108,142943,2,0,P|168:92|236:104,1,139.999995727539,10|0,0:0|0:0,0:0:0:0:
336,156,143412,1,2,0:0:0:0:
448,152,143647,2,0,L|464:84,1,69.9999978637696,2|2,0:2|0:2,0:0:0:0:
456,168,143881,2,0,P|472:240|436:300,1,139.999995727539,10|2,0:0|0:0,0:0:0:0:
324,344,144350,5,2,0:0:0:0:
208,288,144584,2,0,L|200:216,1,69.9999978637696,2|2,0:2|0:0,0:0:0:0:
216,300,144819,2,0,P|152:336|84:328,1,139.999995727539,8|0,0:0|0:0,0:0:0:0:
48,212,145287,1,2,0:0:0:0:
60,204,145405,1,8,0:3:0:0:
52,76,145639,1,8,0:3:0:0:
40,84,145756,1,10,0:0:0:0:
140,132,145991,1,8,0:3:0:0:
152,124,146108,1,0,0:0:0:0:
164,116,146225,5,2,0:0:0:0:
332,112,146459,2,0,B|324:88|324:88|328:64|328:64|320:44,2,69.9999978637696,2|0|10,0:2|0:0|0:0,0:0:0:0:
244,256,146928,2,0,B|252:280|252:280|248:304|248:304|256:324,2,69.9999978637696,2|0|2,0:2|0:0|0:0,0:0:0:0:
164,116,147397,1,2,0:2:0:0:
176,108,147514,1,0,0:0:0:0:
188,100,147631,2,0,P|256:84|324:104,1,139.999995727539,10|2,0:0|0:0,0:0:0:0:
444,152,148100,5,2,0:0:0:0:
376,268,148334,1,0,2:0:0:0:
376,268,148451,1,2,2:0:0:0:
376,268,148569,2,0,P|308:296|244:284,1,139.999995727539,8|0,0:0|0:0,0:0:0:0:
160,208,149037,5,2,0:0:0:0:
300,176,149272,1,0,0:0:0:0:
128,280,149506,1,8,0:3:0:0:
96,256,149623,1,8,0:3:0:0:
80,220,149741,1,8,0:3:0:0:
80,180,149858,1,8,0:3:0:0:
96,148,149975,1,4,0:0:0:0:
256,192,150092,12,2,153725,2:2:0:0:
296,140,154194,5,0,0:0:0:0:
208,120,154428,1,0,0:0:0:0:
296,140,154662,2,0,P|300:180|292:216,1,75.0000028610231,2|0,0:0|2:0,0:0:0:0:
328,296,155131,2,0,P|300:320|264:328,1,75.0000028610231,0|0,0:0|2:0,0:0:0:0:
160,304,155600,5,2,0:0:0:0:
28,180,155951,2,0,L|36:232,1,37.5000014305115
160,304,156303,2,0,P|200:256|192:168,1,150.000005722046,2|0,0:0|0:0,0:0:0:0:
116,220,157006,2,0,P|104:184|108:144,1,75.0000028610231,2|0,0:0|0:0,0:0:0:0:
140,64,157475,1,2,0:0:0:0:
384,160,157943,6,0,P|424:164|460:152,1,75.0000028610231,2|0,0:0|0:0,0:0:0:0:
332,80,158412,2,0,P|292:140|308:220,1,150.000005722046,2|0,0:0|0:0,0:0:0:0:
303,213,159350,1,2,0:0:0:0:
360,284,159584,1,2,0:0:0:0:
448,312,159819,1,0,0:0:0:0:
360,284,160053,2,0,P|352:208|400:152,1,150.000005722046,2|0,0:0|0:0,0:0:0:0:
440,237,160756,2,0,L|448:313,1,75.0000028610231,2|0,0:0|0:0,0:0:0:0:
308,348,161225,6,0,P|248:356|200:336,1,112.500004291535,2|2,0:0|0:0,0:0:0:0:
180,316,161694,2,0,L|192:240,1,75.0000028610231,0|2,0:0|0:0,0:0:0:0:
212,152,162162,2,0,B|176:140|136:148,1,75.0000028610231
96,248,162631,2,0,B|132:260|172:252,1,75.0000028610231,2|0,0:0|0:0,0:0:0:0:
272,228,163100,2,0,P|328:232|372:268,2,112.500004291535,2|2|2,0:0|0:0|0:0,0:0:0:0:
272,228,164506,1,2,0:0:0:0:
272,228,164975,6,0,P|216:236|164:216,1,112.500004291535,4|2,0:0|0:0,0:0:0:0:
144,196,165444,2,0,L|132:120,1,75.0000028610231,0|2,0:0|0:0,0:0:0:0:
216,76,165912,2,0,P|228:112|224:152,2,75.0000028610231,2|0|2,0:0|0:0|0:0,0:0:0:0:
38,95,166850,6,0,P|36:132|48:168,1,75.0000028610231,2|2,0:0|0:0,0:0:0:0:
108,56,167319,1,0,0:0:0:0:
68,188,167553,2,0,P|103:198|140:194,1,75.0000028610231,2|0,0:0|0:0,0:0:0:0:
232,156,168022,1,2,0:0:0:0:
328,164,168256,1,2,0:0:0:0:
336,176,168725,6,0,P|348:224|328:284,2,112.500004291535,4|0|2,1:2|0:0|0:0,0:0:0:0:
284,72,169780,1,0,0:0:0:0:
284,72,169896,1,2,0:0:0:0:
184,236,170366,1,0,0:0:0:0:
176,252,170600,6,0,P|164:300|184:360,2,112.500004291535,2|0|2,1:2|0:0|0:0,0:0:0:0:
224,120,171655,1,0,0:0:0:0:
224,120,171772,1,2,0:0:0:0:
296,260,172123,1,0,0:0:0:0:
296,260,172241,1,2,0:0:0:0:
152,244,172475,6,0,B|136:272|144:300|144:300|156:332|144:356,2,112.500004291535,2|0|2,1:2|0:0|0:0,0:0:0:0:
188,68,173530,1,0,0:0:0:0:
188,68,173647,1,2,0:0:0:0:
332,92,173998,1,0,0:0:0:0:
332,92,174116,1,2,0:0:0:0:
456,56,174350,6,0,P|468:108|456:164,1,112.500004291535,2|0,1:2|0:0,0:0:0:0:
464,184,174818,2,0,L|384:200,1,75.0000028610231,0|2,0:0|0:0,0:0:0:0:
188,200,175405,2,0,L|204:148,1,37.5000014305115,0|2,0:0|0:0,0:0:0:0:
96,352,175873,2,0,L|80:300,1,37.5000014305115,0|2,0:0|0:0,0:0:0:0:
264,352,176225,6,0,P|320:368|376:356,1,112.500004291535,2|0,1:2|0:0,0:0:0:0:
396,360,176694,2,0,L|408:280,1,75.0000028610231,0|2,0:0|0:0,0:0:0:0:
460,96,177162,2,0,L|504:92,2,37.5000014305115,0|0|2,1:0|0:0|0:0,0:0:0:0:
304,168,177631,2,0,L|260:164,2,37.5000014305115,0|0|2,0:0|0:0|0:0,0:0:0:0:
316,4,178100,6,0,P|264:28|204:24,1,112.500004291535,2|0,1:2|0:0,0:0:0:0:
188,16,178569,2,0,P|152:8|116:20,2,75.0000028610231,0|2|2,0:0|0:0|1:2,0:0:0:0:
156,108,179272,1,0,0:0:0:0:
84,192,179506,2,0,P|68:224|72:268,1,75.0000028610231,2|0,1:2|0:0,0:0:0:0:
220,328,179975,6,0,P|236:296|232:252,1,75.0000028610231,2|0,1:2|0:0,0:0:0:0:
180,176,180444,1,2,1:2:0:0:
84,192,180678,1,0,0:0:0:0:
20,300,180912,2,0,L|100:312,1,75.0000028610231,2|0,1:2|0:0,0:0:0:0:
108,304,181264,1,0,0:0:0:0:
120,296,181381,1,2,1:2:0:0:
260,356,181616,1,2,0:0:0:0:
344,284,181850,6,0,L|372:240,3,37.5000014305115,2|0|0|0,1:2|0:0|1:0|0:0,0:0:0:0:
440,244,182319,2,0,L|436:196,3,37.5000014305115,2|0|0|0,1:2|0:0|1:0|0:0,0:0:0:0:
484,144,182787,2,0,L|460:104,3,37.5000014305115,2|0|0|0,1:2|0:0|1:0|0:0,0:0:0:0:
492,40,183256,2,0,L|448:20,3,37.5000014305115,2|0|0|0,1:2|0:0|1:0|0:0,0:0:0:0:
368,48,183725,5,4,0:0:0:0:
196,132,184193,2,0,P|148:140|104:112,1,100,2|0,0:2|0:0,0:0:0:0:
32,56,184662,2,0,P|12:132|52:192,2,150,2|2|0,0:2|2:0|0:0,0:0:0:0:
164,60,185600,1,2,0:2:0:0:
144,256,186069,5,0,0:0:0:0:
144,256,186303,1,0,0:0:0:0:
144,256,186537,2,0,B|200:292|244:248|292:280,2,150,2|2|0,0:2|0:2|0:0,0:0:0:0:
196,192,187475,6,0,P|220:152|212:96,1,100,2|0,0:2|0:0,0:0:0:0:
88,196,187944,2,0,P|64:236|72:292,1,100,2|0,0:2|0:0,0:0:0:0:
264,220,188412,2,0,P|292:148|276:72,2,150,2|2|0,0:2|0:2|0:0,0:0:0:0:
169,298,189350,6,0,L|64:284,1,100,2|0,0:2|0:0,0:0:0:0:
264,356,189819,1,2,0:2:0:0:
344,300,190053,1,0,0:0:0:0:
264,356,190287,2,0,P|248:284|292:216,2,150,2|2|0,0:2|0:2|0:0,0:0:0:0:
344,300,191225,1,2,0:2:0:0:
332,64,191693,6,0,P|328:116|360:156,1,100,10|0,0:2|0:0,0:0:0:0:
416,244,192162,2,0,P|460:184|452:108,2,150,2|10|0,0:2|0:2|0:0,0:0:0:0:
308,248,193100,1,2,0:2:0:0:
180,64,193569,6,0,P|184:116|152:156,1,100,10|0,0:2|0:0,0:0:0:0:
96,244,194037,2,0,P|52:184|60:108,2,150,2|10|0,0:2|0:2|0:0,0:0:0:0:
204,248,194975,5,2,0:2:0:0:
308,248,195209,1,0,0:0:0:0:
256,160,195444,1,8,0:2:0:0:
204,248,195678,1,0,0:0:0:0:
308,248,195912,2,0,P|344:216|360:164,1,100,2|0,0:2|0:0,0:0:0:0:
304,64,196381,2,0,B|256:40|208:64,1,100,10|0,0:2|0:0,0:0:0:0:
152,167,196850,2,0,P|167:214|204:248,1,100,2|0,0:2|0:0,0:0:0:0:
360,304,197319,5,8,0:2:0:0:
256,336,197553,1,0,0:0:0:0:
152,304,197787,1,10,0:2:0:0:
136,312,198256,6,0,L|132:240,1,59.9999981689454,10|0,0:2|0:0,0:0:0:0:
216,128,198725,5,4,0:0:0:0:
284,148,198959,1,0,0:0:0:0:
352,168,199194,1,2,0:2:0:0:
420,188,199428,1,2,0:2:0:0:
404,116,199662,1,0,0:0:0:0:
352,168,199897,1,0,0:0:0:0:
304,224,200131,1,2,0:2:0:0:
256,276,200366,1,2,0:2:0:0:
256,276,200483,1,0,0:0:0:0:
256,276,200600,5,0,0:0:0:0:
176,256,200834,1,0,0:0:0:0:
96,232,201069,1,2,0:2:0:0:
16,208,201303,1,0,0:0:0:0:
36,292,201537,1,0,0:0:0:0:
96,232,201772,1,0,0:0:0:0:
152,168,202006,1,2,0:2:0:0:
212,108,202241,1,2,0:2:0:0:
212,108,202358,1,0,0:0:0:0:
212,108,202475,5,0,0:0:0:0:
240,200,202709,1,0,0:0:0:0:
332,172,202944,1,2,0:2:0:0:
304,80,203178,1,0,0:0:0:0:
212,108,203412,1,2,0:2:0:0:
208,228,203647,1,0,0:0:0:0:
328,236,203881,1,2,0:2:0:0:
332,116,204116,1,0,0:0:0:0:
332,116,204233,1,0,0:0:0:0:
332,116,204350,5,2,0:2:0:0:
459,150,204584,1,0,0:0:0:0:
425,277,204819,1,2,0:2:0:0:
296,244,205053,1,2,0:2:0:0:
332,116,205287,1,2,0:2:0:0:
485,142,205522,1,0,0:0:0:0:
458,296,205756,1,0,0:0:0:0:
304,268,205991,1,0,0:0:0:0:
296,244,206108,1,0,0:0:0:0:
288,220,206225,6,2,B|288:184|288:184|304:152,3,64.9999970245363,2|2|2|2,0:3|0:3|0:3|0:3,0:3:0:0:
368,92,206694,2,2,L|304:80,3,64.9999970245363,2|2|2|2,0:3|0:3|0:3|0:3,0:3:0:0:
232,112,207162,2,2,L|224:44,3,64.9999970245363,2|2|2|2,0:3|0:3|0:3|0:3,0:3:0:0:
152,36,207631,2,2,L|84:24,3,64.9999970245363,2|2|2|2,0:3|0:3|0:3|0:3,0:3:0:0:
24,64,208100,5,2,0:0:0:0:
12,96,208217,1,2,0:3:0:0:
8,132,208334,1,2,0:3:0:0:
12,168,208451,1,2,0:3:0:0:
24,204,208569,1,2,0:0:0:0:
44,236,208686,1,2,0:3:0:0:
72,260,208803,1,2,0:3:0:0:
108,268,208920,1,2,0:3:0:0:
144,264,209037,5,2,0:0:0:0:
176,248,209155,1,2,0:3:0:0:
196,220,209272,1,2,0:3:0:0:
204,184,209389,1,2,0:3:0:0:
192,152,209506,1,2,0:0:0:0:
160,132,209623,1,2,0:3:0:0:
124,136,209741,1,2,0:3:0:0:
104,164,209858,1,2,0:3:0:0:
256,192,209975,12,8,211850,2:0:0:0:
312,264,212319,5,8,2:0:0:0:
280,128,212553,1,0,2:0:0:0:
312,264,212787,2,0,P|364:292|436:288,1,129.999994049073,8|0,2:0|2:0,0:0:0:0:
280,128,213256,2,0,P|228:100|156:104,1,129.999994049073,12|0,2:0|0:0,0:0:0:0:
196,228,213725,5,4,0:0:0:0:
196,228,213959,2,0,L|228:344,1,119.999996337891,2|12,0:0|0:0,0:0:0:0:
104,296,214428,2,0,P|80:240|92:176,1,119.999996337891,2|4,0:0|0:0,0:0:0:0:
168,56,214896,2,0,L|296:48,1,119.999996337891,2|8,0:0|0:0,0:0:0:0:
196,228,215366,1,2,0:0:0:0:
196,228,215600,6,0,L|68:236,1,119.999996337891,0|2,0:0|0:0,0:0:0:0:
56,224,215951,1,2,0:0:0:0:
36,212,216068,1,8,0:0:0:0:
40,64,216303,1,2,0:0:0:0:
60,76,216420,1,2,0:0:0:0:
80,88,216537,2,2,P|144:80|204:84,1,119.999996337891
312,104,217006,1,8,0:0:0:0:
236,188,217241,1,2,0:0:0:0:
268,11,217475,5,4,0:0:0:0:
380,52,217709,1,2,0:0:0:0:
392,76,217826,1,2,0:0:0:0:
396,104,217944,1,8,0:0:0:0:
392,132,218061,1,2,0:0:0:0:
380,160,218178,1,2,0:0:0:0:
356,180,218295,1,0,0:0:0:0:
328,188,218412,1,2,0:0:0:0:
220,176,218647,1,2,0:0:0:0:
312,104,218881,1,8,0:0:0:0:
264,276,219116,1,2,0:0:0:0:
124,332,219350,5,2,0:3:0:0:
124,332,219584,1,2,2:0:0:0:
20,304,219819,1,2,0:3:0:0:
20,304,220053,1,2,2:0:0:0:
108,176,220287,2,0,L|100:116,3,59.9999981689454,2|0|2|0,0:3|0:0|0:2|0:0,0:0:0:0:
160,40,220756,2,2,P|224:44|288:40,1,119.999996337891,4|2,0:0|0:0,0:0:0:0:
420,112,221225,5,2,0:2:0:0:
420,112,221342,1,2,0:2:0:0:
420,112,221459,1,2,0:2:0:0:
280,56,221693,2,2,P|220:59|160:55,1,119.999996337891,8|0,0:2|0:0,0:0:0:0:
32,24,222162,5,4,0:0:0:0:
60,128,222397,1,2,0:0:0:0:
24,232,222631,2,0,P|16:292|44:344,1,119.999996337891,12|0,0:0|0:0,0:0:0:0:
152,368,223100,1,4,0:0:0:0:
252,292,223334,5,2,0:0:0:0:
252,292,223451,1,2,0:0:0:0:
252,292,223568,1,12,0:0:0:0:
364,352,223803,1,2,0:0:0:0:
364,352,223920,1,2,0:0:0:0:
364,352,224037,1,2,0:0:0:0:
472,272,224270,1,2,0:0:0:0:
348,264,224506,1,8,0:0:0:0:
280,368,224740,1,2,0:0:0:0:
412,196,224975,5,4,0:0:0:0:
288,120,225209,1,2,0:0:0:0:
260,112,225326,1,2,0:0:0:0:
232,104,225444,1,8,0:0:0:0:
204,96,225561,1,2,0:0:0:0:
176,104,225678,1,2,0:0:0:0:
148,112,225795,1,0,0:0:0:0:
120,120,225912,1,2,0:0:0:0:
24,196,226147,1,2,0:0:0:0:
104,32,226381,1,8,0:0:0:0:
204,192,226616,1,2,0:0:0:0:
368,116,226850,5,4,0:0:0:0:
368,116,227084,1,12,0:3:0:0:
460,196,227319,1,12,0:3:0:0:
460,196,227553,1,12,0:3:0:0:
372,316,227787,1,12,0:3:0:0:
188,308,228021,1,10,0:3:0:0:
284,148,228256,1,12,0:3:0:0:
256,192,228725,12,4,236225,1:0:0:0:
256,100,236694,5,0,0:0:0:0:
344,120,236928,1,0,0:0:0:0:
256,100,237162,2,0,P|224:128|212:172,1,89.9999972534181,2|0,0:0|0:0,0:0:0:0:
228,260,237631,1,0,0:0:0:0:
228,260,237866,1,0,0:0:0:0:
288,328,238100,2,0,L|384:312,1,89.9999972534181,2|0,0:0|0:0,0:0:0:0:
228,260,238569,2,0,L|132:276,1,89.9999972534181,2|0,0:0|0:0,0:0:0:0:
16,356,239037,2,0,P|-8:292|4:228,1,134.999995880127,2|0,0:0|0:0,0:0:0:0:
20,204,239506,5,0,0:0:0:0:
132,184,239741,1,0,0:0:0:0:
60,92,239975,2,0,P|128:68|188:80,1,134.999995880127,2|0,0:0|0:0,0:0:0:0:
212,96,240444,1,0,0:0:0:0:
316,124,240678,1,0,0:0:0:0:
468,64,240912,2,0,P|488:124|484:196,1,134.999995880127,2|0,0:0|0:0,0:0:0:0:
472,220,241381,2,0,L|384:240,1,89.9999972534181
204,264,241850,5,2,0:0:0:0:
184,232,242319,1,2,0:0:0:0:
164,200,242787,1,2,0:0:0:0:
144,168,243256,1,2,0:0:0:0:
144,168,243491,5,0,0:0:0:0:
160,76,243725,2,0,P|224:60|296:68,1,134.999995880127,2|0,0:0|0:0,0:0:0:0:
320,76,244194,1,0,0:0:0:0:
368,156,244428,1,0,0:0:0:0:
336,268,244662,2,0,P|272:284|200:276,1,134.999995880127,2|0,0:0|0:0,0:0:0:0:
180,264,245131,5,2,0:0:0:0:
197,142,245366,1,0,0:0:0:0:
84,204,245600,2,0,P|52:256|68:328,1,134.999995880127,2|2,0:0|0:0,0:0:0:0:
180,264,246185,2,0,P|212:212|196:140,1,134.999995880127,0|2,0:0|0:0,0:0:0:0:
197,142,247006,5,2,0:0:0:0:
284,116,247241,1,0,0:0:0:0:
372,92,247475,2,0,P|400:152|392:224,1,134.999995880127,2|0,0:0|0:0,0:0:0:0:
380,244,247944,1,2,0:0:0:0:
293,270,248178,1,0,0:0:0:0:
205,294,248412,2,0,P|177:234|185:162,1,134.999995880127,2|0,0:0|0:0,0:0:0:0:
197,142,248881,5,2,0:0:0:0:
292,208,249116,1,0,0:0:0:0:
184,256,249350,2,0,P|104:216|24:256,1,179.999994506836,2|0,0:0|0:0,0:0:0:0:
104,316,250053,5,0,0:0:0:0:
104,316,250287,1,2,0:0:0:0:
204,360,250756,1,2,0:0:0:0:
320,328,251225,6,0,B|296:272|376:192|352:136,1,200,4|8,0:1|0:2,0:0:0:0:
256,164,251928,1,0,0:0:0:0:
184,96,252162,2,0,P|140:72|92:76,1,100
60,172,252631,2,0,P|104:196|152:192,1,100,10|0,0:0|0:0,0:0:0:0:
176,180,252982,1,2,0:0:0:0:
192,160,253100,2,0,P|284:128|384:164,1,200,0|8,0:0|0:0,0:0:0:0:
480,240,253803,5,0,0:0:0:0:
480,240,254037,2,0,L|380:264,1,100,2|0,0:0|0:0,0:0:0:0:
352,360,254506,2,0,L|252:336,1,100,8|0,0:0|0:0,0:0:0:0:
232,324,254858,1,2,0:0:0:0:
208,312,254975,2,0,B|172:272|180:216|180:216|224:188|228:136,1,200,0|8,0:0|0:0,0:0:0:0:
132,132,255678,5,0,0:0:0:0:
120,112,255795,2,0,P|84:148|80:200,1,100,10|8,0:0|0:0,0:0:0:0:
24,244,256147,2,0,P|8:196|16:136,1,100,0|8,0:0|0:0,0:0:0:0:
72,40,256616,1,0,0:0:0:0:
72,40,256850,1,2,0:0:0:0:
72,40,257318,1,8,0:0:0:0:
212,96,257786,5,0,0:0:0:0:
320,76,258021,1,0,0:0:0:0:
252,200,258255,1,10,0:0:0:0:
144,180,258490,1,10,0:0:0:0:
288,308,258724,1,2,0:3:0:0:
288,308,259194,1,10,0:0:0:0:
388,324,259428,5,0,0:0:0:0:
388,324,259662,2,0,P|412:280|408:228,1,100,2|0,0:0|0:0,0:0:0:0:
304,172,260131,2,0,P|261:145|238:98,1,100,8|0,0:0|0:0,0:0:0:0:
236,76,260482,1,2,0:0:0:0:
236,76,261069,1,8,0:0:0:0:
224,56,261537,6,0,L|120:48,1,100
64,140,262006,1,8,0:0:0:0:
216,180,262240,1,0,0:0:0:0:
216,180,262358,1,2,0:0:0:0:
124,48,262944,1,8,0:0:0:0:
156,232,263178,5,0,0:0:0:0:
156,232,263295,2,0,P|200:256|256:248,1,100,10|8,0:0|0:0,0:0:0:0:
312,216,263647,2,0,P|361:208|411:235,1,100,0|8,0:0|0:0,0:0:0:0:
344,308,264116,1,2,0:0:0:0:
268,120,264350,5,4,0:1:0:0:
268,120,264819,1,2,0:0:0:0:
120,96,265287,1,0,0:0:0:0:
120,96,265404,2,0,P|124:148|108:200,1,100,2|0,0:0|0:0,0:0:0:0:
96,216,265756,1,8,0:0:0:0:
76,236,265873,1,8,0:0:0:0:
52,248,265991,1,8,0:0:0:0:
116,76,266225,6,2,P|168:48|232:52,1,119.999996337891,4|2,0:1|0:0,0:0:0:0:
404,96,266694,1,10,0:0:0:0:
448,188,266928,1,2,0:0:0:0:
444,288,267162,2,0,P|340:312|300:300,1,150,10|2,0:0|0:0,0:0:0:0:
276,308,267631,2,0,P|288:264|284:208,1,100,8|2,0:0|0:0,0:0:0:0:
148,152,268100,2,0,P|136:196|140:252,1,100,10|2,0:0|0:0,0:0:0:0:
260,116,268569,5,10,0:0:0:0:
176,44,268803,1,2,0:0:0:0:
240,204,269037,1,10,0:0:0:0:
264,208,269155,1,8,0:0:0:0:
288,204,269272,1,8,0:0:0:0:
312,196,269389,1,8,0:0:0:0:
332,180,269506,1,10,0:0:0:0:
312,40,269741,1,2,0:0:0:0:
300,52,269975,6,0,P|248:68|196:60,1,100,10|2,0:0|0:0,0:0:0:0:
16,120,270444,2,0,P|68:104|120:112,1,100,10|0,0:0|0:0,0:0:0:0:
224,304,270912,2,0,P|192:244|200:164,1,150,10|2,0:0|0:0,0:0:0:0:
212,140,271381,2,0,L|312:128,1,100,8|2,0:0|0:0,0:0:0:0:
440,56,271850,1,10,0:0:0:0:
432,40,272084,1,2,0:0:0:0:
432,216,272319,1,10,0:0:0:0:
424,200,272553,1,2,0:0:0:0:
308,332,272787,6,0,L|288:280,3,50,10|8|8|8,0:0|0:0|0:0|0:0,0:0:0:0:
280,256,273256,2,0,P|236:236|184:244,1,100,10|0,0:0|0:0,0:0:0:0:
52,340,273725,5,10,0:0:0:0:
40,224,273959,1,2,0:0:0:0:
40,224,274194,2,0,P|60:176|56:128,1,100,10|2,0:0|0:0,0:0:0:0:
24,248,274662,2,0,P|96:264|168:240,1,150,10|2,0:0|0:0,0:0:0:0:
184,224,275131,2,0,P|232:208|280:220,1,100,8|2,0:0|0:0,0:0:0:0:
248,384,275600,2,0,P|228:340|236:288,1,100,10|2,0:0|0:0,0:0:0:0:
356,160,276069,2,0,P|376:204|368:256,1,100,10|2,0:0|0:0,0:0:0:0:
216,296,276537,5,10,0:0:0:0:
192,300,276655,1,8,0:0:0:0:
168,304,276772,1,8,0:0:0:0:
144,308,276889,1,8,0:0:0:0:
120,312,277006,1,10,0:0:0:0:
120,312,277241,1,2,0:0:0:0:
120,312,277475,6,0,P|104:264|116:216,1,100,10|2,0:0|0:0,0:0:0:0:
184,116,277944,1,10,0:0:0:0:
232,216,278178,1,2,0:0:0:0:
112,112,278412,2,0,P|160:44|228:60,1,150,10|2,0:0|0:0,0:0:0:0:
240,68,278881,2,0,P|288:88|336:76,1,100,8|2,0:0|0:0,0:0:0:0:
512,48,279350,2,0,P|464:28|416:40,1,100,10|2,0:0|0:0,0:0:0:0:
404,208,279819,1,10,0:0:0:0:
460,108,280053,1,2,0:0:0:0:
304,128,280287,6,2,P|272:168|268:220,1,100,10|2,0:0|0:0,0:0:0:0:
414,302,280756,2,2,P|421:251|402:206,1,100,10|2,0:0|0:0,0:0:0:0:
304,128,281225,6,2,L|192:120,1,110.000003356934,6|0,0:1|0:0,0:0:0:0:
144,196,281693,2,0,L|253:203,1,110.000003356934,8|0,0:0|0:0,0:0:0:0:
208,284,282162,2,0,L|96:276,1,110.000003356934,8|0,0:0|0:0,0:0:0:0:
60,360,282631,2,0,L|169:367,1,110.000003356934,8|2,0:0|0:2,0:0:0:0:
208,372,282983,1,0,0:0:0:0:
248,372,283100,6,2,L|232:260,1,110.000003356934,10|0,0:0|0:0,0:0:0:0:
332,344,283568,2,0,L|316:232,1,110.000003356934,8|0,0:0|0:0,0:0:0:0:
416,316,284037,2,0,L|400:204,1,110.000003356934,8|0,0:0|0:0,0:0:0:0:
500,288,284506,2,0,L|484:176,1,110.000003356934,8|2,0:0|0:2,0:0:0:0:
476,136,284858,1,0,0:0:0:0:
468,92,284975,6,2,P|416:80|364:100,1,110.000003356934,10|0,0:0|0:0,0:0:0:0:
284,204,285444,2,0,P|336:216|388:196,1,110.000003356934,8|0,0:0|0:0,0:0:0:0:
224,80,285912,2,0,P|172:68|120:88,1,110.000003356934,8|0,0:0|0:0,0:0:0:0:
40,192,286381,2,0,P|92:204|144:184,1,110.000003356934,8|2,0:0|0:2,0:0:0:0:
168,168,286733,1,0,0:0:0:0:
192,152,286850,6,2,P|244:140|296:160,1,110.000003356934,10|0,0:0|0:0,0:0:0:0:
340,256,287319,2,0,P|288:268|236:248,1,110.000003356934,8|0,0:0|0:0,0:0:0:0:
384,176,287787,2,0,P|420:215|429:270,1,110.000003356934,10|2,0:0|0:0,0:0:0:0:
452,292,288139,2,0,P|384:336|304:328,1,165.000005035401,8|10,0:0|0:0,0:0:0:0:
168,336,288725,5,8,0:0:0:0:
168,336,288842,2,0,P|120:312|64:324,1,110.000003356934,2|0,0:0|0:0,0:0:0:0:
44,340,289194,2,0,P|12:272|32:188,1,165.000005035401,10|2,0:0|0:0,0:0:0:0:
44,164,289662,2,0,P|60:112|40:60,2,110.000003356934,8|2|8,0:0|0:0|0:0,0:0:0:0:
32,187,290248,6,0,L|144:200,1,110.000003356934,2|0,0:0|0:0,0:0:0:0:
156,216,290600,1,10,0:0:0:0:
260,84,290951,1,2,0:0:0:0:
260,84,291068,2,0,P|312:68|368:80,1,110.000003356934,8|2,0:0|0:0,0:0:0:0:
460,140,291537,1,8,0:0:0:0:
460,140,291655,2,0,B|476:196|476:196|464:248,1,110.000003356934,2|0,0:0|0:0,0:0:0:0:
480,272,292006,2,0,P|408:300|320:284,1,165.000005035401,10|2,0:0|0:0,0:0:0:0:
300,264,292475,5,8,0:0:0:0:
188,288,292709,1,8,0:0:0:0:
240,208,292944,1,8,0:0:0:0:
116,200,293178,1,8,0:0:0:0:
216,128,293412,1,8,0:0:0:0:
84,88,293647,1,8,0:0:0:0:
248,32,293881,2,0,L|312:40,3,55.0000016784668,8|2|8|2,0:0|0:2|0:0|0:2,0:3:0:0:
244,296,295287,5,8,2:0:0:0:
332,141,295522,1,2,0:3:0:0:
170,214,295756,1,8,0:3:0:0:
344,248,295991,1,8,0:3:0:0:
225,118,296225,5,4,0:2:0:0:
225,118,296459,1,2,0:0:0:0:
232,92,296693,1,8,0:2:0:0:
232,92,296811,2,0,P|184:76|136:84,1,100,2|2,0:0|0:0,0:0:0:0:
112,96,297162,1,0,0:0:0:0:
92,112,297280,2,0,B|84:168|84:168|100:208,1,100,2|0,0:0|0:0,0:0:0:0:
112,232,297631,2,0,L|104:284,3,50,8|2|2|0,0:2|0:0|0:0|0:0,0:0:0:0:
100,308,298100,6,0,P|144:328|196:320,1,100,0|2,0:0|0:0,0:0:0:0:
296,260,298569,1,10,0:2:0:0:
300,244,298685,2,0,L|292:188,2,50,2|2|2,0:2|0:2|0:2,0:0:0:0:
380,272,299037,1,2,0:0:0:0:
384,256,299154,2,0,L|376:200,2,50,2|2|2,0:2|0:2|0:0,0:0:0:0:
460,296,299506,2,2,B|468:248|468:248|460:196,1,100,10|0,0:2|0:0,0:0:0:0:
436,88,299975,1,0,0:0:0:0:
436,88,300209,5,2,0:0:0:0:
320,48,300443,1,8,0:2:0:0:
300,64,300560,2,0,P|252:80|204:72,1,100,2|2,0:0|0:0,0:0:0:0:
180,60,300912,1,2,0:2:0:0:
156,48,301029,2,0,P|108:36|64:60,1,100,2|0,0:0|0:0,0:0:0:0:
48,80,301381,2,0,L|52:136,3,50,10|2|2|0,0:2|0:0|0:0|0:0,0:0:0:0:
68,152,301850,5,0,0:0:0:0:
128,244,302084,1,2,0:0:0:0:
16,312,302319,1,2,0:1:0:0:
196,340,302553,1,0,0:0:0:0:
340,360,302787,6,0,L|396:352,3,50,8|2|2|2,0:2|0:3|0:3|0:3,0:0:0:0:
428,252,303256,2,0,L|372:244,3,50,4|4|4|4,0:3|0:3|0:3|0:3,0:0:0:0:
308,172,303725,5,4,0:2:0:0:
192,136,303959,1,2,0:0:0:0:
308,172,304193,1,8,0:1:0:0:
308,172,304311,2,0,P|324:220|316:268,1,100,2|2,0:0|0:0,0:0:0:0:
300,292,304662,1,0,0:0:0:0:
280,312,304780,2,0,B|224:320|224:320|184:304,1,100,2|2,0:0|0:0,0:0:0:0:
160,292,305131,2,0,L|108:300,3,50,8|2|2|0,0:0|0:0|0:0|0:0,0:0:0:0:
80,304,305600,6,0,P|60:260|68:208,1,100,0|2,0:0|0:0,0:0:0:0:
152,124,306068,1,10,0:0:0:0:
168,120,306186,2,0,L|224:128,2,50,2|2|2,0:2|0:2|0:2,0:0:0:0:
184,204,306537,1,2,0:0:0:0:
200,200,306655,2,0,L|256:208,2,50,2|2|2,0:2|0:2|0:0,0:0:0:0:
212,288,307006,2,2,P|260:300|312:288,1,100,2|0,0:0|0:0,0:0:0:0:
488,312,307475,6,0,P|458:271|411:247,1,100,2|2,0:0|0:0,0:0:0:0:
328,188,307944,1,8,0:0:0:0:
328,188,308061,2,0,P|308:140|320:92,1,100,2|2,0:0|0:0,0:0:0:0:
332,72,308412,1,0,0:0:0:0:
332,72,308530,2,0,L|228:64,1,100,2|2,0:0|0:0,0:0:0:0:
216,40,308881,2,0,L|160:44,3,50,8|2|2|0,0:0|0:0|0:0|0:0,0:0:0:0:
136,64,309350,5,0,0:0:0:0:
200,196,309584,1,2,0:0:0:0:
116,244,309818,2,2,P|112:296|124:344,1,100,10|0,0:0|0:0,0:0:0:0:
200,196,310287,2,0,P|136:152|64:164,2,150,2|2|2,0:0|0:0|0:0,0:0:0:0:
256,192,311225,12,4,314975,2:1:0:0:
176,192,328569,6,0,L|264:180,1,80,2|0,0:0|0:0,0:0:0:0:
352,168,329037,2,0,P|384:216|376:276,2,120,2|2|2,0:0|0:0|0:0,0:0:0:0:
284,84,329975,6,0,L|148:76,1,134.999995880127,4|0,0:0|1:0,0:0:0:0:
124,64,330444,2,0,P|108:108|116:152,1,89.9999972534181,0|0,1:0|1:0,0:0:0:0:
172,232,330912,2,0,L|160:260,3,22.4999993133545,0|0|0|0,2:0|2:2|2:0|2:2,2:0:0:0:
172,232,331147,1,2,1:2:0:0:
264,280,331381,1,0,1:0:0:0:
280,272,331850,6,0,P|260:204|284:140,1,134.999995880127,0|0,1:0|1:0,0:0:0:0:
292,120,332319,2,0,L|384:112,1,89.9999972534181,0|0,1:0|1:0,0:0:0:0:
460,256,332787,2,0,L|368:264,1,89.9999972534181,2|0,0:0|1:0,0:0:0:0:
216,340,333256,6,0,P|148:360|88:344,1,134.999995880127,2|0,1:2|0:0,0:0:0:0:
68,332,333725,1,0,1:0:0:0:
60,312,334194,1,0,1:0:0:0:
168,204,334428,1,0,1:0:0:0:
320,216,334662,2,0,L|348:228,3,22.4999993133545,0|0|0|0,2:0|2:2|2:0|2:2,2:0:0:0:
320,216,334897,1,2,1:2:0:0:
236,328,335131,1,2,1:2:0:0:
236,328,335600,1,0,1:0:0:0:
284,28,336068,6,0,L|184:36,1,89.9999972534181,2|0,1:2|1:0,0:0:0:0:
92,56,336537,2,0,P|76:124|108:184,1,134.999995880127,2|0,1:2|0:0,0:0:0:0:
120,200,337006,2,0,B|144:208|144:208|184:200|184:200|208:208,1,89.9999972534181,2|2,2:2|0:2,0:0:0:0:
344,308,337475,2,0,P|412:320|472:288,1,134.999995880127,2|0,1:2|0:0,0:0:0:0:
480,272,337944,2,0,P|480:224|484:180,1,89.9999972534181,0|0,1:0|1:0,0:0:0:0:
500,72,338412,2,0,L|496:32,3,22.4999993133545,0|0|0|0,2:0|2:0|2:0|2:0,2:0:0:0:
500,72,338647,1,2,1:2:0:0:
388,44,338881,1,2,1:2:0:0:
388,44,339350,6,0,P|328:68|260:60,1,134.999995880127,2|0,1:2|0:0,0:0:0:0:
240,48,339819,2,0,P|196:32|152:40,1,89.9999972534181,2|0,1:2|1:0,0:0:0:0:
52,96,340287,2,0,L|12:88,3,22.4999993133545,0|0|0|0,2:0|2:0|2:0|2:0,2:0:0:0:
52,96,340521,1,2,1:2:0:0:
88,204,340756,1,2,1:2:0:0:
180,352,340991,6,0,L|228:360,1,44.999998626709
168,336,341225,2,0,P|160:272|208:224,1,134.999995880127,2|0,1:2|0:0,0:0:0:0:
232,232,341694,2,0,P|256:196|252:152,1,89.9999972534181,2|0,1:2|0:0,0:0:0:0:
144,52,342162,2,0,L|92:44,1,44.999998626709,2|0,1:2|0:0,0:0:0:0:
96,128,342397,2,0,L|48:128,1,44.999998626709,2|0,1:2|0:0,0:0:0:0:
88,212,342631,2,0,L|40:236,2,44.999998626709,8|8|8,0:0|0:0|0:0,0:0:0:0:
252,56,343100,1,10,0:0:0:0:
264,48,343569,6,0,P|308:48|356:56,1,89.9999972534181,2|0,0:0|2:2,0:0:0:0:
452,156,344037,2,0,P|392:176|312:168,1,134.999995880127,2|0,0:0|0:0,0:0:0:0:
300,148,344506,2,0,P|256:144|208:152,1,89.9999972534181,2|2,2:0|0:0,0:0:0:0:
104,208,344975,5,4,1:0:0:0:
124,224,345444,1,0,0:0:0:0:
144,240,345912,1,0,0:0:0:0:
164,256,346381,1,0,0:0:0:0:
276,292,346616,6,0,L|272:248,1,44.999998626709
296,304,346850,2,0,P|336:320|388:308,1,89.9999972534181
412,196,347318,5,0,0:0:0:0:
424,172,347553,1,0,0:0:0:0:
252,112,347787,1,0,0:0:0:0:
240,136,348022,1,0,0:0:0:0:
92,236,348256,1,0,0:0:0:0:
80,212,348491,1,0,0:0:0:0:
60,332,348725,5,0,0:0:0:0:
80,336,349194,1,0,0:0:0:0:
100,340,349662,1,0,0:0:0:0:
120,344,350131,1,0,0:0:0:0:
256,344,350366,6,0,L|248:296,1,44.999998626709
280,360,350600,2,0,B|304:352|304:352|344:360|344:360|368:352,1,89.9999972534181,0|0,0:0|0:0,0:0:0:0:
384,360,350951,1,0,0:0:0:0:
384,360,351069,1,0,0:0:0:0:
484,256,351303,6,0,P|496:212|484:168,2,89.9999972534181
356,208,352006,1,0,0:0:0:0:
224,248,352241,1,0,0:0:0:0:
72,192,352475,5,0,0:0:0:0:
68,168,352944,1,0,0:0:0:0:
72,144,353412,1,0,0:0:0:0:
68,120,353881,1,0,0:0:0:0:
224,32,354116,5,0,0:0:0:0:
224,32,354233,1,0,0:0:0:0:
224,32,354350,2,0,B|264:56|312:48,1,89.9999972534181,0|0,0:0|0:0,0:0:0:0:
432,32,354819,5,0,0:0:0:0:
448,24,355053,1,2,0:2:0:0:
472,200,355287,1,0,0:0:0:0:
456,212,355522,1,2,0:2:0:0:
288,152,355756,1,0,0:0:0:0:
304,140,355991,1,2,0:2:0:0:
472,200,356225,5,0,0:0:0:0:
472,200,356694,1,0,0:0:0:0:
472,200,357162,1,0,0:0:0:0:
472,200,357631,1,0,0:0:0:0:
444,320,357865,6,0,P|424:304|404:296,1,44.999998626709
380,320,358100,2,0,P|336:308|292:312,1,89.9999972534181
272,320,358451,1,0,0:0:0:0:
252,328,358569,1,0,0:0:0:0:
132,248,358803,5,0,0:0:0:0:
20,216,359037,1,2,0:2:0:0:
216,164,359272,1,0,0:0:0:0:
344,120,359506,1,2,0:2:0:0:
472,200,359741,1,2,0:2:0:0:
340,276,359975,6,0,P|304:200|348:116,1,179.999994506836,4|8,0:0|0:0,0:0:0:0:
404,200,360678,1,0,0:0:0:0:
436,368,360912,2,0,L|252:360,1,179.999994506836,0|8,0:0|0:0,0:0:0:0:
56,288,361616,1,0,0:0:0:0:
56,288,361850,2,0,L|236:280,1,179.999994506836,0|8,0:0|0:0,0:0:0:0:
340,276,362553,1,0,0:0:0:0:
340,276,362787,2,0,P|424:280|488:208,1,179.999994506836,0|8,0:0|0:0,0:0:0:0:
388,184,363491,1,0,0:0:0:0:
260,152,363725,6,0,L|272:56,1,89.9999972534181,8|0,0:0|0:0,0:0:0:0:
180,116,364194,2,0,P|172:164|192:204,1,89.9999972534181,8|0,0:0|0:0,0:0:0:0:
280,324,364662,2,0,P|312:288|324:244,1,89.9999972534181,8|0,0:0|0:0,0:0:0:0:
392,72,365131,2,0,L|300:60,1,89.9999972534181,8|0,0:0|0:0,0:0:0:0:
112,84,365600,6,0,P|104:128|128:172,1,89.9999972534181,8|0,0:0|0:0,0:0:0:0:
212,332,366069,2,0,B|224:284|224:284|220:240,1,89.9999972534181,8|0,0:0|0:0,0:0:0:0:
56,288,366537,2,0,L|152:284,1,89.9999972534181,8|0,0:0|0:0,0:0:0:0:
296,200,367006,2,0,P|252:196|212:220,1,89.9999972534181,8|0,0:0|0:0,0:0:0:0:
272,292,367475,5,12,0:0:0:0:
272,292,367592,1,0,2:0:0:0:
272,292,367709,2,0,P|320:304|360:288,2,89.9999972534181,8|8|8,0:0|0:0|0:0,0:0:0:0:
208,152,368412,1,8,0:0:0:0:
208,152,368529,1,0,2:0:0:0:
208,152,368647,2,0,P|160:140|120:156,2,89.9999972534181,8|8|8,0:0|0:0|0:0,0:0:0:0:
376,244,369350,1,8,0:0:0:0:
376,244,369467,1,0,2:0:0:0:
376,244,369584,2,8,B|416:248|416:248|432:244|432:244|476:248,2,89.9999972534181
192,288,370287,6,8,P|148:308|104:304,1,89.9999972534181
40,128,370756,2,8,P|84:108|128:112,1,89.9999972534181
264,120,371225,6,0,L|260:64,3,44.999998626709,12|0|8|0,0:0|0:0|0:0|0:0,0:0:0:0:
357,103,371693,2,0,L|348:148,3,44.999998626709,8|0|8|0,0:0|0:0|0:0|0:0,0:0:0:0:
416,200,372162,2,0,L|452:164,3,44.999998626709,8|0|8|0,0:0|0:0|0:0|0:0,0:0:0:0:
499,265,372631,2,0,L|456:276,3,44.999998626709,8|0|8|0,0:0|0:0|0:0|0:0,0:0:0:0:
460,364,373100,5,4,0:0:0:0:
460,364,374506,1,6,0:0:0:0:
264,304,374975,6,0,B|224:296|180:316|144:308,1,119.999996337891,4|0,1:1|0:0,0:0:0:0:
120,292,375326,1,0,0:0:0:0:
120,292,375444,1,0,1:0:0:0:
8,184,375678,1,0,0:0:0:0:
108,120,375912,5,0,1:0:0:0:
112,136,376030,1,0,0:0:0:0:
116,152,376147,1,0,0:0:0:0:
220,184,376381,1,0,1:0:0:0:
339,129,376616,5,0,0:0:0:0:
323,124,376733,1,0,0:0:0:0:
308,120,376850,1,0,1:0:0:0:
220,184,377084,1,0,0:0:0:0:
212,312,377319,5,0,1:0:0:0:
200,324,377436,1,0,0:0:0:0:
188,334,377553,1,2,0:0:0:0:
64,240,377787,1,0,1:0:0:0:
76,228,377904,1,0,0:0:0:0:
88,218,378021,1,2,0:0:0:0:
308,120,378256,2,0,P|328:100|344:72,2,59.9999981689454,0|0|2,1:0|0:0|0:0,0:0:0:0:
156,160,378725,6,0,P|104:132|40:148,1,119.999996337891,4|0,1:2|0:0,0:0:0:0:
20,156,379076,1,0,0:0:0:0:
8,184,379194,2,0,L|12:304,1,119.999996337891,0|2,1:0|0:0,0:0:0:0:
172,224,379662,5,0,1:0:0:0:
164,192,379780,1,0,0:0:0:0:
156,160,379897,2,0,P|192:116|252:112,1,119.999996337891,0|0,0:0|1:0,0:0:0:0:
304,260,380366,1,0,0:0:0:0:
272,268,380483,1,0,0:0:0:0:
240,264,380600,5,4,1:2:0:0:
156,160,380834,1,2,0:0:0:0:
416,360,381303,1,0,0:0:0:0:
416,360,381537,2,0,P|488:348|524:280,1,150.000005722046,2|12,0:0|0:0,0:0:0:0:
508,168,382240,1,2,0:0:0:0:
416,48,382475,6,0,L|296:40,1,119.999996337891,4|0,1:2|0:0,0:0:0:0:
276,56,382826,1,0,0:0:0:0:
256,72,382944,2,0,L|136:64,1,119.999996337891,4|0,1:2|0:0,0:0:0:0:
4,92,383412,2,0,L|0:32,2,59.9999981689454,4|0|0,1:2|0:0|0:0,0:0:0:0:
76,188,383881,1,4,1:2:0:0:
76,188,384116,2,0,L|80:248,2,59.9999981689454,0|0|4,0:0|0:0|1:2,0:0:0:0:
112,24,384584,1,0,0:0:0:0:
256,72,384819,6,0,L|324:56,2,59.9999981689454,4|0|2,1:2|0:0|0:0,0:0:0:0:
208,224,385287,2,0,L|140:208,2,59.9999981689454,4|0|2,1:2|0:0|0:0,0:0:0:0:
332,320,385756,1,4,1:2:0:0:
332,320,385873,1,0,0:0:0:0:
332,320,385991,1,2,0:0:0:0:
472,244,386225,6,0,P|496:184|476:128,1,119.999996337891,4|0,1:2|0:0,0:0:0:0:
464,112,386576,1,0,0:0:0:0:
440,96,386694,1,4,1:2:0:0:
320,152,386928,1,0,0:0:0:0:
156,116,387162,1,4,1:2:0:0:
156,116,387280,1,0,0:0:0:0:
156,116,387397,1,2,0:0:0:0:
112,268,387631,1,4,1:2:0:0:
280,272,387866,2,0,L|344:252,1,59.9999981689454
284,232,388100,6,0,P|308:176|292:120,1,119.999996337891,4|2,1:2|0:0,0:0:0:0:
156,116,388803,1,0,0:0:0:0:
156,116,389037,1,2,0:0:0:0:
156,116,389506,1,0,0:0:0:0:
276,60,389740,1,4,0:0:0:0:
456,56,389975,5,4,0:2:0:0:
456,56,390209,1,0,0:0:0:0:
456,56,390444,1,0,0:0:0:0:
292,244,390912,1,0,0:0:0:0:
456,260,391381,2,0,L|464:304,3,44.999998626709,0|2|0|2,0:0|0:2|0:0|0:2,0:0:0:0:
372,384,392084,1,0,0:2:0:0:
372,384,392319,1,0,0:2:0:0:
292,244,392787,5,2,0:1:0:0:
212,312,393021,1,0,0:0:0:0:
120,244,393256,1,2,0:1:0:0:
40,312,393491,2,0,P|16:256|32:184,1,134.999995880127
48,164,393959,5,0,0:0:0:0:
132,132,394194,1,0,0:0:0:0:
216,164,394428,1,0,0:0:0:0:
304,144,394662,1,0,0:0:0:0:
296,116,394779,2,0,L|300:60,2,44.999998626709,0|2|0,0:0|0:1|0:0,0:0:0:0:
304,144,395131,2,0,P|348:136|392:148,1,89.9999972534181
412,164,395483,1,2,0:1:0:0:
424,180,396303,5,2,0:1:0:0:
385,299,396537,1,2,0:1:0:0:
259,299,396772,1,0,0:0:0:0:
220,179,397006,1,2,0:1:0:0:
322,105,397241,1,2,0:0:0:0:
321,211,397475,5,4,0:0:0:0:
321,211,397709,1,0,0:0:0:0:
259,299,397943,2,0,P|216:312|172:304,1,89.9999972534181,8|0,0:2|0:0,0:0:0:0:
72,264,398412,1,0,0:0:0:0:
44,160,398647,1,0,0:0:0:0:
176,64,398881,2,0,L|180:16,2,44.999998626709,8|0|0,0:2|0:0|0:0,0:0:0:0:
192,80,399233,2,0,P|236:84|280:72,1,89.9999972534181
300,84,399584,2,0,P|344:88|388:76,2,89.9999972534181,0|8|0,0:0|0:2|0:0,0:0:0:0:
200,192,400287,2,0,P|180:232|184:280,1,89.9999972534181,2|0,0:1|0:0,0:0:0:0:
292,256,400756,5,8,0:2:0:0:
292,256,400991,2,0,B|348:248|348:248|384:284|444:276|464:256,1,179.999994506836,2|0,0:1|0:0,0:0:0:0:
488,124,401694,2,0,P|504:76|496:36,1,89.9999972534181,8|0,0:2|0:0,0:0:0:0:
376,100,402162,2,0,P|386:149|413:180,1,89.9999972534181
508,320,402631,2,0,P|468:340|420:336,1,89.9999972534181,8|0,0:2|0:0,0:0:0:0:
400,328,402983,1,0,0:0:0:0:
380,312,403100,1,0,0:0:0:0:
316,204,403334,2,0,P|272:188|224:196,1,89.9999972534181,0|8,0:0|0:2,0:0:0:0:
224,360,403803,2,0,P|254:324|262:276,1,89.9999972534181,2|0,0:1|0:0,0:0:0:0:
240,168,404272,1,2,0:1:0:0:
152,244,404506,1,8,0:2:0:0:
332,316,404740,6,10,B|380:312|380:312|420:284,2,89.9999972534181,2|0|0,0:1|0:0|0:0,0:0:0:0:
240,168,405444,2,0,P|192:156|152:164,1,89.9999972534181,8|0,0:2|0:0,0:0:0:0:
108,292,405912,2,0,P|156:304|196:296,1,89.9999972534181,2|2,0:1|0:1,0:0:0:0:
216,288,406264,1,0,0:0:0:0:
236,276,406381,1,8,0:2:0:0:
260,272,406498,1,0,0:0:0:0:
284,276,406616,1,2,0:1:0:0:
304,292,406732,2,2,P|348:308|396:296,1,89.9999972534181,0|0,0:0|0:0,0:0:0:0:
416,304,407084,2,0,P|411:252|400:208,2,89.9999972534181,0|8|0,0:0|0:2|0:0,0:0:0:0:
512,376,407787,2,2,P|512:288|520:192,1,179.999994506836,2|8,0:1|0:2,0:0:0:0:
464,40,408491,6,0,P|420:48|368:40,1,89.9999972534181,2|0,0:1|0:0,0:0:0:0:
256,52,408959,1,0,0:0:0:0:
160,124,409194,1,8,0:2:0:0:
280,160,409428,2,2,P|196:148|112:200,1,179.999994506836,2|0,0:1|0:0,0:0:0:0:
216,276,410131,1,8,0:2:0:0:
388,328,410366,1,0,0:0:0:0:
404,324,410483,1,0,0:0:0:0:
420,320,410600,6,2,P|428:280|416:228,1,89.9999972534181,0|0,0:0|0:0,0:0:0:0:
376,136,411069,1,8,0:2:0:0:
268,172,411303,2,2,P|292:212|330:239,1,89.9999972534181,2|0,0:1|0:0,0:0:0:0:
424,52,411772,2,2,B|396:28|332:28|296:76|296:76|256:76,1,179.999994506836,2|0,0:1|0:0,0:0:0:0:
128,48,412475,6,0,B|120:88|120:88|128:128|128:128|124:156,1,110.000003356934,6|0,0:0|0:0,0:0:0:0:
96,264,412944,1,10,0:0:0:0:
96,264,413178,1,2,0:0:0:0:
180,336,413412,2,0,P|240:320|304:332,1,110.000003356934,2|0,0:0|0:0,0:0:0:0:
388,368,413881,2,0,P|464:360|492:280,1,165.000005035401,10|2,0:0|0:0,0:0:0:0:
480,256,414350,6,0,P|468:200|480:148,1,110.000003356934,0|2,0:0|0:0,0:0:0:0:
416,296,414819,1,10,0:0:0:0:
308,312,415053,1,2,0:0:0:0:
204,276,415287,1,2,0:0:0:0:
216,260,415756,2,0,P|236:212|228:156,1,110.000003356934,8|0,0:0|0:0,0:0:0:0:
84,292,416225,5,2,0:0:0:0:
192,268,416459,1,2,0:0:0:0:
308,312,416694,1,10,0:0:0:0:
416,296,416928,1,2,0:0:0:0:
452,208,417162,2,0,B|392:188|348:228,1,110.000003356934,2|0,0:0|0:0,0:0:0:0:
224,372,417631,2,0,P|256:312|248:216,1,165.000005035401,10|2,0:0|0:0,0:0:0:0:
236,192,418100,6,0,P|224:140|244:88,1,110.000003356934,0|2,0:0|0:0,0:0:0:0:
336,156,418569,1,10,0:0:0:0:
236,192,418803,1,2,0:0:0:0:
88,176,419037,2,0,P|72:228|84:284,1,110.000003356934,2|0,0:0|0:0,0:0:0:0:
148,368,419506,1,10,0:0:0:0:
148,368,419741,1,2,0:0:0:0:
148,368,419975,2,2,P|232:340|312:364,1,165.000005035401,2|0,0:0|0:0,0:0:0:0:
328,376,420444,5,10,0:0:0:0:
440,332,420678,1,2,0:0:0:0:
276,256,420912,2,0,P|252:192|264:144,1,110.000003356934,2|0,0:0|0:0,0:0:0:0:
368,284,421381,2,0,P|284:352|220:336,1,165.000005035401,10|2,0:0|0:0,0:0:0:0:
216,328,421850,5,0,0:0:0:0:
200,208,422084,1,2,0:0:0:0:
296,320,422319,1,10,0:0:0:0:
132,244,422553,1,2,0:0:0:0:
304,216,422787,1,2,0:0:0:0:
320,208,423256,1,8,0:0:0:0:
336,200,423725,5,2,0:0:0:0:
456,232,423959,1,2,0:0:0:0:
380,112,424193,2,0,P|324:88|276:96,1,110.000003356934,10|2,0:0|0:0,0:0:0:0:
216,232,424662,2,0,P|184:276|132:288,1,110.000003356934,2|0,0:0|0:0,0:0:0:0:
128,160,425131,2,0,P|212:120|280:140,1,165.000005035401,10|2,0:0|0:0,0:0:0:0:
296,156,425600,6,0,P|352:176|400:156,1,110.000003356934,0|2,0:0|0:0,0:0:0:0:
296,56,426069,1,10,0:0:0:0:
192,20,426303,1,2,0:0:0:0:
80,64,426537,1,2,0:0:0:0:
80,64,427006,1,8,0:0:0:0:
80,64,427475,6,0,B|96:96|96:96|64:132|64:132|80:160,1,110.000003356934,2|0,0:0|0:0,0:0:0:0:
160,208,427944,2,0,B|180:248|180:248|152:292|152:292|176:336|176:336|152:336|164:328,2,165.000005035401,2|0|0,0:0|0:0|0:0,0:0:0:0:
192,68,428881,2,0,L|220:64,7,27.5000008392334,0|0|0|0|0|0|0|0,2:0|2:0|2:0|2:0|2:0|2:0|2:0|2:0,2:0:0:0:
244,64,429350,6,0,B|272:76|272:76|304:72|304:72|328:56|328:56|356:64,1,110.000003356934,2|0,0:0|0:0,0:0:0:0:
492,136,429819,2,0,B|516:176|516:176|508:244|508:244|468:260|468:260|464:244,2,165.000005035401,2|0|0,0:0|0:0|0:0,0:0:0:0:
344,116,430756,1,2,0:0:0:0:
224,168,430991,1,0,0:0:0:0:
224,168,431108,1,0,0:0:0:0:
224,168,431225,6,0,B|220:208|220:208|204:240|204:240|212:276,1,110.000003356934,2|0,0:0|0:0,0:0:0:0:
352,348,431694,2,0,B|376:340|404:344|404:344|412:364|412:364|432:376|432:376|460:384|460:384|496:376|488:356|488:356,2,165.000005035401
224,384,432631,1,0,0:0:0:0:
100,328,432866,2,0,P|80:308|68:284,1,55.0000016784668
84,264,433100,6,0,B|56:216|76:156,1,110.000003356934,2|0,0:0|0:0,0:0:0:0:
192,80,433569,2,0,B|224:76|240:84|240:84|264:96|312:84|312:84|344:88|344:88|344:76,2,165.000005035401,2|0|0,0:0|0:0|0:0,0:0:0:0:
204,192,434506,1,2,0:0:0:0:
340,240,434741,2,0,L|380:224,3,27.5000008392334
388,220,434975,5,2,0:0:0:0:
412,140,435209,1,2,0:0:0:0:
328,156,435444,1,2,0:0:0:0:
388,220,435678,1,2,0:0:0:0:
464,92,435912,2,2,P|416:68|356:96,1,119.999996337891
332,308,436381,2,2,P|292:344|228:340,1,119.999996337891
76,188,436850,6,2,P|52:136|64:72,1,119.999996337891
192,160,437319,2,2,P|196:217|163:273,1,119.999996337891
56,356,437787,2,2,L|176:364,1,119.999996337891
368,312,438256,2,2,P|308:300|248:316,1,119.999996337891
448,344,438725,6,0,L|468:284,3,59.9999981689454,2|0|0|0,0:0|0:0|0:0|0:0,0:0:0:0:
396,240,439193,2,0,L|416:180,3,59.9999981689454,2|0|0|0,0:0|0:0|0:0|0:0,0:0:0:0:
308,204,439662,6,0,L|289:147,3,59.9999981689454,2|0|2|0,0:0|0:0|0:0|0:0,0:0:0:0:
237,251,440131,2,0,L|256:308,3,59.9999981689454,0|0|2|0,0:0|0:0|0:0|0:0,0:0:0:0:
240,336,440600,1,2,0:0:0:0:
36,284,440834,1,2,0:0:0:0:
52,204,441069,6,0,P|116:272|88:344,2,179.999994506836,2|0|0,0:0|0:0|0:0,0:0:0:0:
0,120,442006,2,0,B|20:104|56:96|92:112|92:112|124:108,1,119.999996337891,4|0,0:1|0:0,0:0:0:0:
238,87,442475,6,2,B|275:106|316:103|316:103|347:114|347:114|379:88,1,150.000005722046,4|0,0:0|0:0,0:0:0:0:
336,36,443060,6,0,P|432:48|440:116,2,179.999994506836,8|8|8,0:3|0:3|0:3,0:0:0:0:
268,24,443881,2,0,P|208:24|168:76,1,119.999996337891,0|8,0:0|0:3,0:0:0:0:
204,228,444350,5,2,0:3:0:0:
184,152,444584,1,2,0:2:0:0:
396,188,444819,5,2,0:3:0:0:
352,252,445053,1,2,0:2:0:0:
224,300,445287,5,2,0:3:0:0:
256,372,445521,1,2,0:2:0:0:
300,308,445756,1,2,0:3:0:0:
316,180,445991,5,0,0:0:0:0:
316,180,446108,1,0,0:0:0:0:
316,180,446225,2,2,B|276:152|276:152|236:184|176:164,1,150.000005722046,4|0,0:0|0:0,0:0:0:0:
168,100,446810,6,8,P|112:168|176:232,2,179.999994506836,8|8|8,0:3|0:3|0:3,0:3:0:0:
200,92,447631,1,0,0:0:0:0:
336,112,447866,1,8,0:3:0:0:
488,72,448100,6,2,L|496:196,1,119.999996337891,2|0,0:0|0:0,0:0:0:0:
408,320,448569,2,2,P|384:268|400:204,1,119.999996337891,2|0,0:0|0:0,0:0:0:0:
414,32,449037,2,2,P|389:83|330:112,1,119.999996337891,2|0,0:0|0:0,0:0:0:0:
280,160,449389,2,0,B|228:124|164:144,1,119.999996337891,10|2,0:0|0:0,0:0:0:0:
148,156,449741,1,8,0:0:0:0:
32,116,449975,54,2,L|36:272,1,150.000005722046,4|0,0:0|0:0,0:0:0:0:
36,340,450561,6,0,P|92:360|156:344,1,119.999996337891,8|0,0:3|0:0,0:0:0:0:
220,312,450912,2,0,P|304:284|392:312,1,179.999994506836,8|8,2:3|0:3,0:0:0:0:
448,372,451381,2,0,P|472:320|456:256,1,119.999996337891,0|8,0:0|0:3,0:0:0:0:
420,160,451850,5,2,0:3:0:0:
312,168,452084,1,2,0:2:0:0:
208,68,452319,5,2,0:3:0:0:
316,72,452553,1,2,0:2:0:0:
200,164,452787,5,2,0:3:0:0:
92,152,453022,1,2,0:2:0:0:
312,168,453256,2,2,P|328:224|316:292,1,119.999996337891,2|0,0:2|0:0,0:0:0:0:
80,248,453725,54,2,P|56:168|80:104,1,150.000005722046,6|0,0:0|0:0,0:0:0:0:
132,40,454311,6,0,P|188:64|252:56,1,119.999996337891,8|0,0:3|0:0,0:0:0:0:
320,36,454662,2,8,P|400:56|360:144,1,179.999994506836,8|8,0:3|0:3,0:3:0:0:
360,128,455131,1,0,0:0:0:0:
360,128,455366,1,8,0:3:0:0:
184,128,455600,6,0,B|168:176|184:228,1,100,8|0,0:0|0:0,0:0:0:0:
224,292,455951,2,0,L|328:292,1,100,8|0,0:0|0:0,0:0:0:0:
364,200,456303,2,0,P|316:192|264:204,1,100,8|8,0:0|0:0,0:0:0:0:
152,244,456772,1,8,0:0:0:0:
48,164,457006,1,8,0:0:0:0:
56,152,457475,5,4,0:0:0:0:
256,192,457592,12,6,461225,0:2:0:0:
224,152,461576,6,0,L|212:100,1,44.999998626709,0|2,0:0|0:0,0:0:0:0:
306,184,461928,2,0,L|357:199,1,44.999998626709,0|2,0:0|0:0,0:0:0:0:
237,239,462280,2,0,L|198:276,1,44.999998626709,0|2,0:0|0:0,0:0:0:0:
72,248,462631,2,0,L|24:240,2,44.999998626709,0|2|0,0:0|0:0|0:0,0:0:0:0:
100,172,462983,2,0,L|148:164,2,44.999998626709,2|0|2,0:0|0:0|0:0,0:0:0:0:
32,64,463451,6,0,L|40:8,1,44.999998626709,0|2,0:0|0:0,0:0:0:0:
152,76,463803,2,0,L|160:20,1,44.999998626709,0|2,0:0|0:0,0:0:0:0:
272,88,464155,2,0,L|280:32,1,44.999998626709,0|2,0:0|0:0,0:0:0:0:
356,204,464506,2,0,L|364:248,2,44.999998626709,0|2|0,0:0|0:0|0:0,0:0:0:0:
400,124,464858,2,0,L|392:80,2,44.999998626709,2|0|2,0:0|0:0|0:0,0:0:0:0:
472,224,465326,5,0,0:0:0:0:
472,224,465443,2,0,P|468:272|440:300,1,89.9999972534181,2|0,0:0|0:0,0:0:0:0:
428,324,465795,2,0,P|384:304|340:312,1,89.9999972534181,2|0,0:0|0:0,0:0:0:0:
324,328,466147,2,0,P|280:348|236:344,1,89.9999972534181,2|0,0:0|0:0,0:0:0:0:
220,332,466498,1,2,0:0:0:0:
196,324,466616,1,0,0:0:0:0:
172,328,466733,1,2,0:0:0:0:
156,344,466850,1,0,0:0:0:0:
160,368,466967,1,2,0:0:0:0:
264,260,467201,5,0,0:0:0:0:
264,260,467319,1,2,0:0:0:0:
280,140,467553,1,0,0:0:0:0:
280,140,467670,1,2,0:0:0:0:
164,184,467905,1,0,0:0:0:0:
164,184,468022,1,2,0:0:0:0:
292,280,468256,2,0,L|348:264,4,44.999998626709,0|2|0|2|0,0:0|0:0|0:0|0:0|0:0,0:0:0:0:
276,300,468842,6,0,P|236:320|192:316,1,89.9999972534181,2|0,0:0|0:0,0:0:0:0:
168,324,469194,2,0,L|156:232,1,89.9999972534181,2|0,0:0|0:0,0:0:0:0:
132,228,469545,2,0,P|112:188|120:136,1,89.9999972534181,2|0,0:0|0:0,0:0:0:0:
128,124,469897,1,2,0:0:0:0:
256,48,470131,2,0,L|272:0,4,44.999998626709,0|2|0|2|0,0:0|0:0|0:0|0:0|0:0,0:0:0:0:
248,76,470717,6,0,P|284:100|332:96,1,89.9999972534181,2|0,0:0|0:0,0:0:0:0:
352,88,471068,2,0,P|396:88|428:120,1,89.9999972534181,2|0,0:0|0:0,0:0:0:0:
436,140,471420,2,0,B|420:180|420:180|428:228,1,89.9999972534181,2|0,0:0|0:0,0:0:0:0:
432,252,471772,1,2,0:0:0:0:
460,376,472006,2,0,L|508:372,4,44.999998626709,0|2|0|2|0,0:0|0:0|0:0|0:0|0:0,0:0:0:0:
436,368,472592,6,0,P|392:356|348:364,1,89.9999972534181,2|0,0:0|0:0,0:0:0:0:
320,368,472944,2,0,P|300:336|304:284,1,89.9999972534181,2|0,0:0|0:0,0:0:0:0:
312,264,473295,2,0,P|324:220|312:172,1,89.9999972534181,2|0,0:0|0:0,0:0:0:0:
304,156,473646,1,2,0:0:0:0:
156,92,473881,2,0,L|104:84,4,44.999998626709,0|2|0|2|0,0:0|0:0|0:0|0:0|0:0,0:0:0:0:
180,96,474467,6,0,B|184:144|184:144|168:184,1,89.9999972534181,2|0,0:0|0:0,0:0:0:0:
156,204,474819,2,0,L|168:296,1,89.9999972534181,2|0,0:0|0:0,0:0:0:0:
172,320,475170,2,0,P|132:344|88:336,1,89.9999972534181,2|0,0:0|0:0,0:0:0:0:
72,324,475522,1,2,0:0:0:0:
88,208,475756,1,0,0:0:0:0:
92,184,475873,1,2,0:0:0:0:
104,164,475991,1,0,0:0:0:0:
120,148,476108,1,2,0:0:0:0:
140,140,476225,1,0,0:0:0:0:
164,140,476342,6,0,P|208:152|252:140,1,89.9999972534181,2|0,0:0|0:0,0:0:0:0:
272,128,476694,1,2,0:0:0:0:
396,44,476928,2,0,P|428:40|452:44,1,44.999998626709,0|2,0:0|0:0,0:0:0:0:
408,220,477280,2,0,P|380:202|365:184,1,44.999998626709,0|2,0:0|0:0,0:0:0:0:
272,128,477631,1,0,0:0:0:0:
256,108,477748,1,2,0:0:0:0:
236,92,477866,1,0,0:0:0:0:
212,84,477983,1,2,0:0:0:0:
188,80,478100,1,0,0:0:0:0:
164,84,478217,1,2,0:0:0:0:
144,200,478451,6,0,L|192:176,1,44.999998626709,0|2,0:0|0:0,0:0:0:0:
408,220,478803,2,0,L|400:264,1,44.999998626709,0|2,0:0|0:0,0:0:0:0:
228,332,479155,2,0,L|240:284,1,44.999998626709,0|2,0:0|0:0,0:0:0:0:
292,140,479506,2,0,L|344:128,2,44.999998626709,0|2|0,0:0|0:0|0:0,0:0:0:0:
224,96,479858,2,0,L|172:108,2,44.999998626709,2|0|2,0:0|0:0|0:0,0:0:0:0:
144,200,480326,6,0,L|88:192,1,44.999998626709,0|2,0:0|0:0,0:0:0:0:
132,336,480678,2,0,L|156:292,1,44.999998626709,0|2,0:0|0:0,0:0:0:0:
128,56,481030,2,0,L|136:100,1,44.999998626709,0|2,0:0|0:0,0:0:0:0:
304,164,481381,1,0,0:0:0:0:
324,176,481498,1,2,0:0:0:0:
344,188,481616,1,0,0:0:0:0:
364,200,481733,1,2,0:0:0:0:
388,200,481850,1,0,0:0:0:0:
408,188,481967,6,0,P|424:144|416:100,1,89.9999972534181,2|0,0:0|0:0,0:0:0:0:
408,80,482319,2,0,P|360:68|324:40,1,89.9999972534181,2|0,0:0|0:0,0:0:0:0:
308,32,482670,1,2,0:0:0:0:
308,32,482905,5,0,0:0:0:0:
284,32,483022,1,2,0:0:0:0:
260,36,483139,1,0,0:0:0:0:
240,48,483256,2,0,P|244:92|236:140,1,89.9999972534181,2|2,0:0|0:0,0:0:0:0:
224,160,483608,1,2,0:0:0:0:
224,160,483725,6,0,P|296:200|360:188,1,150,0|0,1:0|0:0,0:0:0:0:
384,176,484194,2,0,P|424:160|480:168,1,100,8|0,1:2|0:0,0:0:0:0:
420,364,484662,1,0,1:0:0:0:
360,284,484897,1,0,0:0:0:0:
384,176,485131,2,0,P|336:128|256:136,1,150,0|0,3:0|0:0,0:0:0:0:
236,148,485600,2,0,P|188:168|140:160,1,100,0|0,1:0|0:0,0:0:0:0:
180,72,486069,1,8,1:2:0:0:
312,116,486303,1,0,0:0:0:0:
444,72,486537,5,0,1:0:0:0:
420,192,486772,1,0,0:0:0:0:
312,116,487006,2,0,P|288:192|312:264,1,150,0|0,3:0|0:0,0:0:0:0:
324,280,487475,2,0,L|432:272,1,100,0|0,1:0|0:0,0:0:0:0:
320,76,487944,2,0,L|212:84,1,100,8|0,1:2|0:0,0:0:0:0:
104,136,488412,5,0,1:0:0:0:
16,40,488647,1,0,0:0:0:0:
112,152,488881,2,0,P|132:216|108:296,1,150,0|0,3:0|0:0,0:0:0:0:
92,316,489350,2,0,P|136:340|192:332,1,100,0|0,1:0|0:0,0:0:0:0:
300,272,489818,1,8,1:2:0:0:
179,250,490053,1,0,0:0:0:0:
300,272,490287,5,0,1:0:0:0:
384,160,490522,1,8,2:1:0:0:
416,248,490756,2,0,P|372:276|324:272,1,100,8|8,2:1|0:0,0:0:0:0:
300,272,491108,1,8,0:0:0:0:
276,260,491225,2,0,B|232:232|176:252,1,100,8|0,0:0|0:0,0:0:0:0:
44,312,491693,6,0,P|24:268|28:208,1,100,8|0,1:2|0:0,0:0:0:0:
96,76,492162,2,0,P|135:104|161:158,1,100,0|0,1:0|0:0,0:0:0:0:
192,296,492631,2,0,P|260:328|332:312,1,150,0|0,3:0|0:0,0:0:0:0:
352,296,493100,2,0,P|400:276|452:288,1,100,0|0,1:0|0:0,0:0:0:0:
330,312,493569,1,8,1:2:0:0:
272,212,493803,5,0,0:0:0:0:
312,116,494037,1,0,1:0:0:0:
208,128,494272,1,0,0:0:0:0:
304,220,494506,2,0,P|340:160|328:80,1,150,0|0,3:0|0:0,0:0:0:0:
296,16,494975,6,0,L|144:16,1,150,2|0,1:3|0:0,0:0:0:0:
104,96,495444,2,0,L|256:96,1,150,2|0,1:3|0:0,0:0:0:0:
304,184,495912,2,0,L|152:184,1,150,2|0,1:3|0:0,0:0:0:0:
52,184,496381,6,0,P|40:236|52:284,1,100,2|0,1:3|0:0,0:0:0:0:
116,364,496850,1,8,0:0:0:0:
152,280,497084,1,0,0:3:0:0:
220,372,497319,1,8,0:0:0:0:
236,240,497553,1,0,0:3:0:0:
324,360,497787,5,8,0:3:0:0:
304,176,498022,1,8,0:3:0:0:
152,280,498256,1,8,0:0:0:0:
324,360,498491,1,8,0:3:0:0:
304,176,498725,1,12,0:3:0:0:
256,192,498842,12,4,502475,0:2:0:0:
216,128,502944,5,8,0:0:0:0:
308,88,503412,1,0,0:0:0:0:
296,188,503881,1,8,0:0:0:0:
152,184,504350,2,2,P|132:136|144:84,1,100,0|0,0:0|0:0,0:0:0:0:
312,176,504818,2,2,P|332:224|320:276,1,100,8|0,0:0|0:0,0:0:0:0:
280,360,505287,5,0,0:0:0:0:
152,340,505522,1,0,0:0:0:0:
175,212,505756,1,8,0:0:0:0:
302,238,505991,1,0,0:0:0:0:
226,287,506225,5,0,0:0:0:0:
212,188,506694,1,8,0:0:0:0:
132,248,507162,1,0,0:0:0:0:
226,287,507631,1,8,0:0:0:0:
352,184,508100,2,2,P|400:168|456:184,1,100,0|0,0:0|0:0,0:0:0:0:
312,296,508568,2,2,P|268:268|244:216,1,100,8|0,0:0|0:0,0:0:0:0:
284,116,509037,5,0,0:0:0:0:
352,184,509272,2,0,P|312:208|256:204,1,100,0|8,0:0|0:0,0:0:0:0:
128,164,509741,2,0,P|52:160|0:212,2,150,0|0|10,0:0|0:0|0:0,0:0:0:0:
148,156,510912,5,0,0:0:0:0:
244,188,511381,1,10,0:0:0:0:
336,148,511850,1,2,0:0:0:0:
416,208,512319,1,8,0:0:0:0:
380,352,512787,6,0,P|336:376|288:372,1,100
216,208,513256,2,0,P|262:226|296:268,1,100,8|2,0:0|0:0,0:0:0:0:
196,316,513725,1,0,0:0:0:0:
128,192,513959,2,2,P|192:120|284:148,1,200,2|0,0:0|0:0,0:0:0:0:
308,236,514662,2,2,P|376:164|340:72,1,200,2|8,0:0|0:0,0:0:0:0:
352,56,515600,5,8,0:0:0:0:
352,56,515834,1,8,0:0:0:0:
192,32,516069,1,8,0:0:0:0:
192,32,516303,1,8,0:0:0:0:
248,184,516537,1,10,0:0:0:0:
248,184,516772,1,8,0:0:0:0:
368,40,517006,2,2,P|416:92|412:168,1,150,8|0,1:0|1:0,1:0:0:0:
416,256,517475,6,2,P|364:272|308:264,1,110.000003356934,2|2,1:0|0:0,0:0:0:0:
328,124,517944,2,0,P|276:108|220:116,1,110.000003356934,10|0,0:1|0:0,0:0:0:0:
309,264,518412,2,0,P|257:280|201:272,1,110.000003356934,2|0,0:1|0:0,0:0:0:0:
221,115,518881,2,2,P|169:99|113:107,2,110.000003356934,10|0|2,1:1|0:0|1:1,1:0:0:0:
160,224,519584,1,0,0:0:0:0:
240,128,519819,6,0,P|292:108|348:116,1,110.000003356934,10|0,0:1|0:0,0:0:0:0:
392,212,520287,2,0,P|434:174|452:121,1,110.000003356934,2|0,0:1|0:0,0:0:0:0:
436,8,520756,5,10,0:1:0:0:
412,16,520873,1,0,0:0:0:0:
388,24,520991,1,0,0:0:0:0:
234,10,521225,2,0,P|214:62|222:118,1,110.000003356934,2|0,0:1|0:0,0:0:0:0:
356,120,521694,2,0,P|362:174|342:224,1,110.000003356934,10|0,0:1|0:0,0:0:0:0:
232,136,522162,2,0,P|212:188|220:244,1,110.000003356934,2|0,0:1|0:0,0:0:0:0:
332,240,522631,2,0,P|338:294|318:344,1,110.000003356934,10|0,0:1|0:0,0:0:0:0:
228,280,523100,5,2,0:1:0:0:
248,172,523334,1,2,0:1:0:0:
344,264,523569,2,2,P|404:268|452:240,1,110.000003356934,10|0,0:1|0:1,0:1:0:0:
380,168,524037,5,2,0:1:0:0:
272,144,524272,1,2,0:1:0:0:
136,252,524506,5,10,0:1:0:0:
244,228,524741,1,2,0:1:0:0:
344,72,524975,5,2,0:0:0:0:
344,72,525092,1,0,0:0:0:0:
344,72,525209,1,0,0:0:0:0:
232,40,525444,1,4,0:2:0:0:
380,168,525678,1,4,0:0:0:0:
272,144,525912,5,2,0:1:0:0:
272,144,526030,1,0,0:0:0:0:
272,144,526147,1,0,0:0:0:0:
380,168,526381,1,4,0:2:0:0:
176,204,526616,1,4,0:0:0:0:
48,72,526850,6,0,L|36:4,2,64.9999970245363,2|0|0,0:0|0:0|0:0,0:0:0:0:
20,200,527319,1,4,0:2:0:0:
56,328,527553,1,4,0:0:0:0:
260,296,527787,6,0,L|336:304,2,64.9999970245363,2|0|0,0:0|0:0|0:0,0:0:0:0:
144,228,528256,1,4,2:0:0:0:
56,328,528491,1,4,0:0:0:0:
166,95,528725,6,0,L|224:59,3,64.9999970245363
286,135,529194,2,0,L|321:193,3,64.9999970245363,8|0|0|0,0:2|0:0|0:0|0:0,0:0:0:0:
261,271,529662,2,0,L|202:306,3,64.9999970245363
144,228,530131,2,0,L|108:169,3,64.9999970245363,8|0|0|0,0:2|0:0|0:0|0:0,0:0:0:0:
4,60,530600,6,2,B|24:44|24:44|68:36|68:36|92:48,1,86.6666626993817,0|0,0:0|0:0,0:0:0:0:
100,60,530834,2,2,L|188:48,1,86.6666626993817,0|0,0:0|0:0,0:0:0:0:
204,64,531069,2,2,B|247:67|247:67|287:51,1,86.6666626993817,0|0,0:0|0:0,0:0:0:0:
308,40,531303,2,2,B|336:36|336:36|368:52|368:52|380:72,1,86.6666626993817,0|0,0:0|0:0,0:0:0:0:
388,96,531537,5,2,0:0:0:0:
272,284,531771,1,8,1:0:0:0:
360,372,532006,2,0,P|396:280|352:192,1,194.999991073609,8|0,2:1|2:0,0:0:0:0:
336,180,532475,5,4,0:2:0:0:
184,224,532944,1,8,0:0:0:0:
184,224,533061,1,0,0:0:0:0:
184,224,533178,1,2,0:2:0:0:
126,161,533412,1,0,0:0:0:0:
265,204,533647,1,0,0:0:0:0:
160,305,533881,1,8,0:0:0:0:
204,156,534116,5,0,0:0:0:0:
232,276,534350,1,0,0:0:0:0:
116,240,534584,1,0,0:0:0:0:
204,156,534819,1,8,0:0:0:0:
376,232,535053,1,0,0:0:0:0:
376,232,535170,1,2,0:2:0:0:
332,112,535405,1,2,0:2:0:0:
332,112,535522,1,0,0:0:0:0:
172,124,535756,1,8,0:0:0:0:
232,276,535991,1,0,0:0:0:0:
332,112,536225,1,0,0:0:0:0:
164,292,536694,5,8,0:0:0:0:
164,292,536811,1,0,0:0:0:0:
164,292,536928,1,2,0:2:0:0:
252,208,537162,1,0,0:0:0:0:
376,232,537397,1,0,0:0:0:0:
284,328,537631,1,8,0:0:0:0:
144,176,537866,1,0,0:0:0:0:
244,72,538100,5,0,0:0:0:0:
252,208,538334,1,2,0:3:0:0:
360,132,538569,1,2,0:3:0:0:
156,32,538803,1,2,0:3:0:0:
156,32,538920,1,2,0:3:0:0:
256,192,539037,12,4,539975,0:2:0:0:
328,160,540444,5,8,0:0:0:0:
328,160,540561,1,0,0:0:0:0:
328,160,540678,1,2,0:2:0:0:
385,222,540912,1,0,0:0:0:0:
270,97,541147,1,0,0:0:0:0:
409,140,541381,1,8,0:0:0:0:
304,241,541616,1,0,0:0:0:0:
352,78,541850,5,0,0:0:0:0:
246,179,542084,1,0,0:0:0:0:
212,36,542319,1,8,0:0:0:0:
136,152,542553,1,0,0:0:0:0:
136,152,542670,1,2,0:2:0:0:
208,288,542905,1,2,0:2:0:0:
208,288,543022,1,0,0:0:0:0:
364,232,543256,1,8,0:0:0:0:
212,36,543491,1,0,0:0:0:0:
208,288,543725,1,0,0:0:0:0:
352,78,543959,1,0,0:0:0:0:
120,288,544194,5,8,0:0:0:0:
120,288,544311,1,0,0:0:0:0:
120,288,544428,1,2,0:2:0:0:
240,208,544662,1,0,0:0:0:0:
364,232,544897,1,0,0:0:0:0:
272,328,545131,1,8,0:0:0:0:
144,176,545366,1,0,0:0:0:0:
232,72,545600,5,0,0:0:0:0:
348,132,545834,1,0,0:0:0:0:
240,208,546069,1,8,0:0:0:0:
144,32,546303,1,0,0:0:0:0:
144,32,546420,1,2,0:2:0:0:
364,232,546655,1,2,0:2:0:0:
364,232,546771,1,8,0:0:0:0:
64,232,547006,1,8,0:0:0:0:
64,232,547475,5,4,0:2:0:0:
256,192,547592,12,0,554975,2:0:0:0:
292,284,561537,6,0,P|332:300|380:292,2,82.5000025177003,2|2|0,0:0|0:0|0:0,0:0:0:0:
220,284,562475,2,0,P|172:300|112:280,1,110.000003356934,2|0,0:0|0:0,0:0:0:0:
168,204,563178,2,0,B|188:188|220:188|220:188|216:160|224:132|256:124|256:124|288:132|296:160|292:188|292:188|324:188|344:204,1,275.000008392334,2|0,0:0|0:0,0:0:0:0:
332,288,564584,5,0,0:0:0:0:
256,252,564818,1,2,0:0:0:0:
180,288,565053,1,0,0:0:0:0:
108,244,565287,2,0,P|72:220|56:180,2,82.5000025177003,2|2|0,0:0|0:0|0:0,0:0:0:0:
140,160,566225,1,2,0:0:0:0:
256,192,566342,12,2,568569,2:2:0:0:
152,192,569037,6,0,L|220:172,1,55.0000016784668,2|0,0:0|0:0,0:0:0:0:
104,264,569506,2,0,L|36:284,1,55.0000016784668,2|0,0:0|0:0,0:0:0:0:
188,268,569975,1,0,0:0:0:0:
276,240,570209,1,0,0:0:0:0:
364,268,570443,1,2,0:0:0:0:
448,224,570678,6,0,P|464:288|456:352,1,129.999994049073,2|0,0:0|0:0,0:0:0:0:
472,192,571381,1,2,0:0:0:0:
472,192,571615,2,0,P|412:168|344:180,1,129.999994049073,2|0,0:0|0:0,0:0:0:0:
232,296,572318,1,2,0:0:0:0:
232,296,572553,2,0,P|168:312|112:288,1,129.999994049073,2|0,0:0|0:0,0:0:0:0:
32,184,573256,2,0,B|24:256,1,64.9999970245363,2|0,0:0|0:0,0:0:0:0:
84,104,573725,6,0,B|92:32,1,64.9999970245363,2|0,0:0|0:0,0:0:0:0:
188,88,574193,1,2,0:0:0:0:
188,88,574428,2,0,L|176:224,1,129.999994049073,2|0,0:0|0:0,0:0:0:0:
200,300,575131,1,2,0:0:0:0:
200,300,575365,2,0,P|256:328|312:300,1,129.999994049073,2|0,0:0|0:0,0:0:0:0:
336,217,576068,1,2,0:0:0:0:
335,217,576303,2,0,L|324:88,1,129.999994049073,2|0,0:0|0:0,0:0:0:0:
204,96,577006,2,0,L|212:168,1,64.9999970245363,2|0,0:0|0:0,0:0:0:0:
168,312,577475,6,0,L|92:320,2,75.0000028610231,2|0|2,0:0|0:0|0:0,0:0:0:0:
316,340,578178,2,0,P|356:284|344:204,1,150.000005722046,2|0,0:0|0:0,0:0:0:0:
220,112,578881,1,2,0:0:0:0:
220,112,579115,2,0,L|260:264,1,150.000005722046,2|0,0:0|0:0,0:0:0:0:
312,88,579819,1,2,0:0:0:0:
312,88,580053,2,0,P|272:32|188:24,1,150.000005722046,2|0,0:0|0:0,0:0:0:0:
220,112,580756,1,2,0:0:0:0:
288,40,580990,1,0,0:0:0:0:
100,56,581225,5,2,0:0:0:0:
100,56,581459,2,0,L|92:132,1,75.0000028610231,0|2,0:0|0:0,0:0:0:0:
136,272,581928,2,0,P|204:296|280:272,1,150.000005722046,2|0,0:0|0:0,0:0:0:0:
484,172,582631,1,2,0:0:0:0:
484,172,582865,2,0,P|420:160|340:196,1,150.000005722046
416,332,583569,1,2,0:0:0:0:
416,332,583803,2,0,P|432:296|428:260,2,75.0000028610231,2|0|2,0:0|0:0|0:0,0:0:0:0:
352,284,584506,1,2,0:0:0:0:
240,244,584740,1,2,0:0:0:0:
108,304,584975,5,4,0:0:0:0:
108,304,585209,1,0,0:0:0:0:
16,252,585444,1,0,1:0:0:0:
16,252,585678,2,0,L|4:172,1,75.0000028610231,2|0,0:0|0:0,0:0:0:0:
60,56,586146,1,0,0:0:0:0:
60,56,586381,1,0,1:0:0:0:
60,56,586615,2,0,P|144:64|208:44,1,150.000005722046,2|0,0:0|0:0,0:0:0:0:
316,20,587318,2,0,P|356:8|392:12,2,75.0000028610231,0|0|0,1:0|0:0|0:0,0:0:0:0:
328,200,588021,6,0,P|296:216|256:220,1,75.0000028610231,0|0,0:0|1:0,0:0:0:0:
312,120,588490,2,0,P|384:140|408:208,1,150.000005722046,2|0,0:0|0:0,0:0:0:0:
304,324,589194,1,0,1:0:0:0:
192,336,589428,1,2,0:0:0:0:
88,292,589662,2,0,L|4:288,1,75.0000028610231
156,232,590131,2,0,L|240:236,1,75.0000028610231,0|0,1:0|0:0,0:0:0:0:
352,288,590600,5,2,0:0:0:0:
352,288,590834,1,0,0:0:0:0:
480,272,591069,1,0,1:0:0:0:
480,272,591303,1,2,0:0:0:0:
416,120,591537,2,0,P|408:84|412:36,1,75.0000028610231,2|0,0:0|0:0,0:0:0:0:
504,136,592006,2,0,P|488:171|453:202,1,75.0000028610231,0|0,1:0|0:0,0:0:0:0:
388,340,592475,2,0,P|356:276|368:196,1,150.000005722046,2|0,0:0|1:0,0:0:0:0:
404,108,593412,5,2,0:0:0:0:
404,108,593881,1,0,1:0:0:0:
328,60,594116,1,2,0:0:0:0:
240,72,594350,1,2,0:0:0:0:
240,72,594819,1,0,1:0:0:0:
240,72,595287,5,2,0:0:0:0:
240,72,595756,1,0,1:0:0:0:
248,180,595991,1,2,0:0:0:0:
164,248,596225,1,2,0:0:0:0:
164,248,596694,1,0,1:0:0:0:
164,248,597162,5,2,0:0:0:0:
164,248,597631,1,0,1:0:0:0:
276,340,597866,1,2,0:0:0:0:
420,336,598100,1,2,0:0:0:0:
420,336,598569,1,0,1:0:0:0:
420,336,599037,5,2,0:0:0:0:
420,336,599506,1,0,1:0:0:0:
388,220,599741,1,2,0:0:0:0:
296,296,599975,2,0,B|233:303|194:259|194:259|136:267|93:222,1,225.000008583069,4|0,2:0|0:0,0:0:0:0:
176,148,600912,5,2,0:0:0:0:
232,328,601381,1,2,0:0:0:0:
112,352,601616,1,2,0:0:0:0:
120,144,601850,2,0,P|212:104|204:196,1,225.000008583069
93,222,602787,5,2,0:0:0:0:
268,68,603256,1,2,0:0:0:0:
324,180,603491,1,2,0:0:0:0:
236,284,603725,2,0,P|344:312|444:252,1,225.000008583069
464,124,604662,5,2,0:0:0:0:
464,124,605131,1,2,0:0:0:0:
372,72,605365,1,2,0:0:0:0:
272,104,605600,1,2,0:0:0:0:
260,116,606080,1,2,0:0:0:0:
248,132,606560,6,0,P|256:184|240:232,1,100,2|0,0:0|0:0,0:0:0:0:
100,272,607040,2,0,P|92:220|108:172,1,100,2|0,0:0|0:0,0:0:0:0:
356,108,607520,6,0,P|364:212|332:284,1,179.999994506836,2|0,0:0|2:0,0:0:0:0:
208,56,608563,5,2,0:0:0:0:
208,56,609085,1,2,0:0:0:0:
136,124,609346,1,2,0:0:0:0:
208,56,609606,2,0,P|316:44|408:112,1,225.000008583069,2|0,0:0|0:0,0:0:0:0:
448,208,610696,5,2,0:0:0:0:
448,208,611267,1,2,0:0:0:0:
492,284,611553,1,2,0:0:0:0:
448,208,611838,2,0,P|352:156|244:184,1,225.000008583069,2|0,0:0|0:0,0:0:0:0:
164,264,613026,5,2,0:0:0:0:
164,264,613657,1,2,0:0:0:0:
112,328,613973,1,2,0:0:0:0:
164,264,614289,2,0,P|196:248|236:248,1,75.0000028610231,2|0,0:0|0:0,0:0:0:0:
344,276,614955,2,0,P|380:284|420:280,1,75.0000028610231,2|2,0:0|0:0,0:0:0:0:
507,230,615622,5,2,0:0:0:0:
397,182,615987,1,2,0:0:0:0:
317,271,616353,1,2,0:0:0:0:
377,375,616719,1,2,0:0:0:0:
494,350,617085,1,4,0:3:0:0:
