osu file format v14

[General]
AudioFilename: Dzeko Torres 2014 In 10 Minutes.mp3
AudioLeadIn: 0
PreviewTime: 590745
Countdown: 0
SampleSet: Soft
StackLeniency: 0.7
Mode: 0
LetterboxInBreaks: 0
WidescreenStoryboard: 0

[Editor]
Bookmarks: 16997,31997,46997,61997,76997,91997,95747,110747,125747,140747,155747,174497,189497,204497,219497,234497,241997,256997,271997,286997,301997,328247,343247,358247,373247,388247,406997,421997,436997,451997,466997,481997,496997,515747,530747,545747,560747,575747,590747
DistanceSpacing: 1.1
BeatDivisor: 4
GridSize: 4
TimelineZoom: 2.499999

[Metadata]
Title:2014 in 10 Minutes
TitleUnicode:2014 in 10 Minutes
Artist:Dzeko & Torres
ArtistUnicode:Dzeko & Torres
Creator:Leader
Version:Marathon
Source:
Tags:Porter Robinson Tritonal Paris Blohm Zhu Vicetone Duke Dumont Michael Brun MakJ M35 Kryder Tom Staar David Guetta Showtek Vassy Martin Garrix MOTi Sam Martin John Christian Calvin Harris Ummet Ozcan The Chainsmokers Sander Van Doorn Firebeatz Jat Hardway R3hab NERVO Tiesto Oliver Heldens Alesso Don Diablo Dansson Marlon Hoffstadt Kiesza Axwell Ingrosso Bassjackers Ansolo Bingo Players Hardwell Deorro J-Trick KSHMR Dally Wood The Prick Robin Schulz DVBBS Aleesia Blasterjaxx Miley Cyrus Moguai VINAI TJR ROUTE 94 Jess Glynne W&W Steve Angello Vangelis Wyman Mercer Snake Armin Van Buuren Joey Dale Luciana Dimitri Vegas Like Mike Diplo Fatboy Slim Bonde Do Role Pin Gregor Salto Wiwek Borgeous Disclosure Sam Smith John Legend Dannic TV Noise Zedd Matthew Koma John Martin Imagine Dragons Arty Nicky Romero Original Mix Instrumental Edit Remix Acapella Dubstep House EDM
BeatmapID:748505
BeatmapSetID:338329

[Difficulty]
HPDrainRate:6
CircleSize:4
OverallDifficulty:7
ApproachRate:8.5
SliderMultiplier:1.6
SliderTickRate:1

[Events]
//Background and Video events
0,0,"abstract_circles_2-wallpaper-1366x768.jpg",0,0
//Break Periods
2,92195,95070
2,234695,241320
2,392231,406320
2,500945,515070
//Storyboard Layer 0 (Background)
//Storyboard Layer 1 (Fail)
//Storyboard Layer 2 (Pass)
//Storyboard Layer 3 (Foreground)
//Storyboard Sound Samples

[TimingPoints]
1995,468.75,4,2,1,30,1,0
46995,-100,4,1,0,60,0,0
76995,-100,4,1,0,60,0,1
82620,-100,4,1,0,50,0,0
84495,-100,4,1,0,60,0,1
91995,-100,4,1,0,60,0,0
95745,-100,4,2,0,60,0,0
110745,-100,4,1,0,60,0,0
140276,-66.6666666666667,4,1,0,60,0,0
140745,-100,4,1,0,60,0,1
155745,-100,4,1,0,60,0,0
159026,-100,4,1,0,5,0,0
159495,-100,4,2,0,30,0,0
187854,-100,4,2,0,60,0,0
189495,-100,4,1,0,60,0,0
219495,-100,4,1,0,60,0,1
232620,-100,4,3,0,60,0,1
234495,-100,4,1,0,60,0,0
241995,-100,4,2,0,60,0,0
256995,-100,4,1,0,60,0,0
270120,-100,4,3,0,60,0,0
271995,-100,4,1,0,60,0,0
286995,-100,4,1,0,60,0,1
294495,-83.3333333333333,4,1,0,60,0,1
301995,-100,4,1,0,60,0,0
305745,-133.333333333333,4,2,1,30,0,0
328245,-100,4,1,0,60,0,0
373245,-100,4,1,0,60,0,1
380745,-83.3333333333333,4,1,0,60,0,1
388245,-100,4,1,0,60,0,0
388362,-100,4,1,0,40,0,0
433245,-100,4,3,0,60,0,0
436995,-100,4,2,1,60,0,0
451995,-100,4,1,0,40,0,0
459495,-100,4,3,0,60,0,0
466995,-100,4,1,0,60,0,1
481995,-100,4,1,0,60,0,0
515745,-100,4,2,1,60,0,0
564495,-200,4,2,1,60,0,0
567307,-100,4,2,1,60,0,0
573870,-100,4,1,0,40,0,0
590745,-83.3333333333333,4,1,1,60,0,1
590862,-83.3333333333333,4,1,0,60,0,1
603870,-100,4,1,0,30,0,0

[Colours]
Combo1 : 136,227,216
Combo2 : 209,131,209
Combo3 : 255,111,121
Combo4 : 215,176,227

[HitObjects]
32,316,16995,6,0,L|120:316,1,80,4|0,0:0|0:0,0:0:0:0:
184,264,17463,2,0,P|248:248|332:304,1,160,2|0,0:0|0:0,0:0:0:0:
404,348,18166,1,0,0:0:0:0:
432,256,18401,2,0,P|432:216|440:172,1,80,2|0,0:0|0:0,0:0:0:0:
508,84,18870,6,0,P|436:68|324:112,1,160,2|0,0:0|0:0,0:0:0:0:
275,135,19573,2,0,P|203:151|91:107,1,160,2|0,0:0|0:0,0:0:0:0:
42,94,20276,1,2,0:0:0:0:
112,36,20510,1,2,0:0:0:0:
122,130,20745,6,0,P|130:166|122:210,1,80,2|0,0:0|0:0,0:0:0:0:
84,288,21213,2,0,L|0:304,2,80,2|2|0,0:0|0:0|0:0,0:0:0:0:
164,340,21916,1,0,0:0:0:0:
211,260,22151,2,0,L|224:176,1,80,2|0,0:0|0:0,0:0:0:0:
288,76,22620,5,2,0:0:0:0:
288,76,22737,1,2,0:0:0:0:
288,76,22854,1,2,0:0:0:0:
364,120,23088,1,0,0:0:0:0:
296,164,23323,1,2,0:0:0:0:
296,164,23440,2,0,L|308:288,1,120,2|0,0:0|0:0,0:0:0:0:
408,348,24026,2,0,L|416:260,1,80,2|0,0:0|0:0,0:0:0:0:
468,196,24495,6,0,P|488:132|460:44,2,160,2|2|2,0:0|0:0|0:0,0:0:0:0:
336,312,25901,1,0,0:0:0:0:
264,260,26135,1,0,0:0:0:0:
248,348,26370,6,0,L|164:356,1,80,2|0,0:0|0:0,0:0:0:0:
56,244,26838,2,0,L|135:251,1,80,2|2,0:0|0:0,0:0:0:0:
152,240,27190,2,0,P|168:184|144:112,1,120,2|0,0:0|0:0,0:0:0:0:
92,56,27776,1,2,0:0:0:0:
64,144,28010,1,2,0:0:0:0:
153,125,28245,6,0,P|192:116|249:117,1,80,2|0,0:0|0:0,0:0:0:0:
328,244,28713,2,0,P|288:242|249:233,1,80,2|0,0:0|0:0,0:0:0:0:
392,315,29182,2,0,P|419:242|389:170,1,160,2|0,0:0|0:0,0:0:0:0:
328,244,29885,5,2,0:0:0:0:
480,104,30120,1,2,0:0:0:0:
480,104,30237,1,0,0:0:0:0:
480,104,30354,1,0,0:0:0:0:
364,44,30588,1,0,0:0:0:0:
240,104,30823,2,0,P|180:116|88:72,2,160,2|2|2,0:0|0:0|0:0,0:0:0:0:
324,40,31995,5,2,0:0:0:0:
324,40,32463,2,0,L|334:120,1,80,2|0,0:0|0:0,0:0:0:0:
288,368,32932,2,0,L|298:288,1,80,2|0,0:0|0:0,0:0:0:0:
392,232,33401,2,0,P|432:220|488:224,1,80,2|0,0:0|0:0,0:0:0:0:
204,336,33870,6,0,B|152:316|96:328|96:328|136:292,1,160,2|2,0:0|0:0,0:0:0:0:
192,224,34573,2,0,P|212:176|164:76,1,160,2|0,0:0|0:0,0:0:0:0:
92,44,35276,1,2,0:0:0:0:
44,120,35510,1,0,0:0:0:0:
96,264,35745,6,0,L|112:168,1,80,2|0,0:0|0:0,0:0:0:0:
16,344,36213,2,0,L|2:265,1,80,2|0,0:0|0:0,0:0:0:0:
120,360,36682,2,0,L|240:348,1,120,2|0,0:0|0:0,0:0:0:0:
252,332,37151,1,2,0:0:0:0:
188,272,37385,1,2,0:0:0:0:
260,124,37620,5,2,0:0:0:0:
260,124,37737,1,2,0:0:0:0:
260,124,37854,2,0,L|344:112,1,80,2|2,0:0|0:0,0:0:0:0:
204,192,38323,2,0,P|176:148|208:48,1,160,2|0,0:0|0:0,0:0:0:0:
296,16,39026,1,2,0:0:0:0:
296,16,39260,1,0,0:0:0:0:
448,168,39495,6,0,P|456:128|448:80,1,80,2|0,0:0|0:0,0:0:0:0:
368,208,39963,1,2,0:0:0:0:
452,256,40198,1,2,0:0:0:0:
440,272,40315,2,0,L|456:360,2,80,2|0|0,0:0|0:0|0:0,0:0:0:0:
452,256,40901,5,2,0:0:0:0:
368,208,41135,1,2,0:0:0:0:
288,332,41370,2,0,B|232:324|232:324|184:340|184:340|128:332,1,160,2|2,0:0|0:0,0:0:0:0:
68,272,42073,2,0,P|40:212|88:124,1,160,2|0,0:0|0:0,0:0:0:0:
156,88,42776,1,2,0:0:0:0:
80,40,43010,1,2,0:0:0:0:
236,144,43245,6,0,P|248:96|240:48,1,80,2|0,0:0|0:0,0:0:0:0:
188,232,43713,2,0,P|186:271|197:309,1,80,2|0,0:0|0:0,0:0:0:0:
304,356,44182,2,0,L|384:344,1,80,2|0,0:0|0:0,0:0:0:0:
512,320,44651,1,2,0:0:0:0:
432,248,44885,1,0,0:0:0:0:
488,132,45120,5,0,3:2:0:0:
450,117,45237,1,0,3:2:0:0:
410,117,45354,1,0,3:2:0:0:
373,130,45471,1,0,3:2:0:0:
340,152,45588,5,0,3:2:0:0:
302,166,45705,1,0,3:2:0:0:
262,166,45822,1,0,3:2:0:0:
225,153,45939,1,0,3:2:0:0:
194,128,46057,6,0,P|160:120|136:124,1,40,8|0,0:0|3:2,0:0:0:0:
108,224,46291,2,0,P|127:222|146:216,1,40,8|0,0:0|3:2,0:0:0:0:
28,172,46526,1,4,1:3:0:0:
28,172,46995,6,0,L|44:312,1,120,4|0,1:3|2:0,0:0:0:0:
32,312,47463,1,2,0:0:0:0:
112,360,47698,1,2,0:0:0:0:
176,296,47932,2,0,P|220:280|276:328,1,120,2|0,0:0|0:0,0:0:0:0:
280,340,48401,1,2,0:0:0:0:
396,348,48635,6,0,L|488:332,1,80,2|0,0:3|0:0,0:0:0:0:
360,208,48987,2,0,L|327:295,1,80,2|0,0:3|0:0,0:0:0:0:
504,252,49338,2,0,L|453:191,1,80,2|0,0:3|0:0,0:0:0:0:
453,191,49690,1,2,0:3:0:0:
453,191,49807,1,0,0:3:0:0:
300,352,50041,1,0,0:0:0:0:
200,356,50276,1,2,0:0:0:0:
120,296,50510,1,2,0:0:0:0:
200,356,50745,6,0,P|220:308|192:228,1,120,2|0,0:0|0:0,0:0:0:0:
192,224,51213,1,2,0:0:0:0:
112,184,51448,1,2,0:0:0:0:
28,324,51682,2,0,L|16:204,1,120,2|0,0:0|0:0,0:0:0:0:
24,184,52151,1,2,0:0:0:0:
106,110,52385,6,0,L|117:31,1,80,2|0,0:3|0:0,0:0:0:0:
185,141,52737,2,0,L|196:61,1,80,2|0,0:3|0:0,0:0:0:0:
264,168,53088,2,0,L|275:88,1,80,2|0,0:3|0:0,0:0:0:0:
275,88,53440,1,2,0:3:0:0:
275,88,53557,1,0,0:0:0:0:
392,160,53791,1,0,0:0:0:0:
480,144,54026,1,2,0:0:0:0:
424,80,54260,1,2,0:0:0:0:
392,160,54495,6,0,P|380:228|404:280,1,120,2|0,0:0|0:0,0:0:0:0:
412,292,54963,2,0,L|500:280,1,80,2|2,0:0|0:0,0:0:0:0:
312,368,55432,2,0,L|296:248,1,120,2|0,0:0|0:0,0:0:0:0:
304,232,55901,1,2,0:0:0:0:
208,288,56135,6,0,L|196:204,1,80,2|0,0:3|0:0,0:0:0:0:
136,328,56487,2,0,L|96:256,1,80,2|0,0:3|0:0,0:0:0:0:
75,379,56838,2,0,L|6:339,1,80,2|0,0:3|0:0,0:0:0:0:
6,339,57190,1,2,0:3:0:0:
6,339,57307,1,0,0:0:0:0:
116,200,57541,1,0,0:0:0:0:
28,184,57776,1,2,0:0:0:0:
60,268,58010,1,2,0:0:0:0:
116,200,58245,6,0,P|172:168|232:192,1,120,2|0,0:0|0:0,0:0:0:0:
240,192,58713,1,2,0:0:0:0:
304,120,58948,1,2,0:0:0:0:
380,244,59182,2,0,L|392:108,1,120,2|0,0:0|0:0,0:0:0:0:
404,108,59651,1,2,0:0:0:0:
480,164,59885,5,2,0:3:0:0:
440,304,60120,1,0,0:0:0:0:
428,320,60237,2,0,L|344:332,1,80,2|0,0:3|0:0,0:0:0:0:
275,375,60588,2,0,L|196:364,1,80,2|0,0:3|0:0,0:0:0:0:
128,320,60940,2,0,L|44:332,1,80,2|0,0:3|0:0,0:0:0:0:
32,320,61291,1,2,0:3:0:0:
80,232,61526,1,0,0:0:0:0:
216,288,61760,5,0,0:3:0:0:
216,288,61877,1,0,0:3:0:0:
216,288,61995,2,0,P|260:288|300:304,1,80,4|0,0:0|0:0,0:0:0:0:
312,312,62346,1,0,0:0:0:0:
328,324,62463,2,0,P|365:336|405:336,1,80,8|0,0:3|0:0,0:0:0:0:
428,332,62815,1,0,0:0:0:0:
448,320,62932,2,0,L|456:240,1,80
344,140,63401,2,0,L|352:220,1,80,8|0,0:3|0:0,0:0:0:0:
404,80,63870,6,0,P|364:60|316:56,1,80,4|0,0:0|0:0,0:0:0:0:
252,92,64338,2,0,P|204:100|152:52,1,120,8|0,0:3|0:0,0:0:0:0:
140,40,64807,2,0,P|104:36|60:56,1,80
24,132,65276,1,8,0:3:0:0:
24,132,65510,1,0,0:0:0:0:
120,268,65745,6,0,P|158:260|204:268,1,80,4|0,0:0|0:0,0:0:0:0:
216,276,66096,1,0,0:0:0:0:
232,284,66213,2,0,P|271:289|310:282,1,80,8|0,0:3|0:0,0:0:0:0:
424,360,66682,2,0,P|404:312|432:232,1,120
432,232,67151,2,0,L|420:148,1,80,8|0,0:3|0:0,0:0:0:0:
444,68,67620,6,0,P|396:68|356:88,1,80,4|0,0:0|0:0,0:0:0:0:
276,140,68088,2,0,L|152:128,1,120,8|0,0:3|0:0,0:0:0:0:
144,112,68557,1,0,0:0:0:0:
64,152,68791,1,0,0:0:0:0:
136,280,69026,2,0,L|128:200,1,80,8|0,0:3|0:0,0:0:0:0:
72,348,69495,6,0,P|120:368|228:312,1,160,4|8,0:0|0:3,0:0:0:0:
136,280,70198,1,0,0:0:0:0:
284,376,70432,2,0,L|424:364,1,120
416,348,70901,1,8,0:3:0:0:
416,348,71135,1,0,0:0:0:0:
352,264,71370,6,0,P|344:224|352:180,1,80,4|0,0:0|0:0,0:0:0:0:
464,108,71838,2,0,P|472:148|464:192,1,80,8|0,0:3|0:0,0:0:0:0:
320,356,72307,2,0,L|236:364,1,80
76,280,72776,2,0,L|160:288,1,80,8|0,0:3|0:0,0:0:0:0:
264,240,73245,6,0,B|280:160|280:160|232:184,1,120,4|0,0:0|0:0,0:0:0:0:
228,184,73713,2,0,L|148:176,1,80,8|0,0:3|0:0,0:0:0:0:
104,96,74182,2,0,L|150:30,1,80
264,48,74651,2,0,L|297:121,1,80,8|0,0:3|0:0,0:0:0:0:
464,256,75120,2,0,P|432:216|376:240,1,120,0|0,0:3|2:0,0:0:0:0:
360,256,75588,2,0,L|272:244,1,80,0|0,2:0|2:0,0:0:0:0:
416,332,76057,5,4,1:2:0:0:
416,332,76526,1,4,1:2:0:0:
416,332,76995,6,0,B|380:352|380:352|288:352,1,120,4|0,0:0|0:0,0:0:0:0:
284,340,77463,1,4,0:3:0:0:
132,280,77698,2,0,P|88:276|48:288,1,80,0|4,0:0|0:3,0:0:0:0:
60,368,78049,2,0,P|104:372|144:360,1,80
208,316,78401,2,0,P|212:264|200:224,1,80,4|0,0:3|0:0,0:0:0:0:
196,220,78752,1,0,0:0:0:0:
184,204,78870,6,0,L|100:196,1,80,4|0,0:3|0:0,0:0:0:0:
36,96,79338,1,4,0:3:0:0:
52,108,79455,2,0,P|96:112|144:88,1,80
148,88,79807,2,0,P|185:75|224:79,1,80,4|0,0:3|0:0,0:0:0:0:
332,112,80276,2,0,L|416:104,1,80,4|0,0:3|0:0,0:0:0:0:
484,188,80745,6,0,P|504:244|488:304,1,120,4|0,0:3|0:0,0:0:0:0:
480,320,81213,1,4,0:3:0:0:
392,368,81448,2,0,L|308:360,1,80,0|4,0:0|0:3,0:0:0:0:
292,352,81799,2,0,P|284:316|296:268,1,80
304,256,82151,2,0,P|312:220|300:172,1,80,4|0,0:3|0:0,0:0:0:0:
240,84,82620,6,0,L|156:76,1,80,4|0,0:0|0:0,0:0:0:0:
84,40,82971,2,0,L|40:48,2,40
156,0,83323,1,8,2:0:0:0:
64,128,83557,1,0,0:0:0:0:
64,128,83791,1,8,2:0:0:0:
136,188,84026,2,0,P|144:224|136:272,1,80,0|4,0:0|2:0,0:0:0:0:
84,368,84495,6,0,P|124:380|176:372,1,80,4|0,0:3|0:0,0:0:0:0:
232,356,84846,1,0,0:0:0:0:
252,348,84963,2,0,P|292:336|344:344,1,80,4|0,0:3|0:0,0:0:0:0:
404,360,85315,1,0,0:0:0:0:
424,364,85432,2,0,B|444:280|444:280|404:288,1,120,4|0,0:3|0:0,0:0:0:0:
329,339,85901,1,4,0:3:0:0:
204,224,86135,1,0,0:0:0:0:
312,108,86370,6,0,P|352:100|396:100,1,80,4|0,0:3|0:0,0:0:0:0:
448,176,86721,1,0,0:0:0:0:
436,192,86838,2,0,P|396:184|352:184,1,80,4|0,0:3|0:0,0:0:0:0:
284,200,87190,1,0,0:0:0:0:
268,212,87307,2,0,L|180:200,1,80,4|0,0:3|0:0,0:0:0:0:
292,332,87776,2,0,L|209:365,1,80,4|0,0:3|0:0,0:0:0:0:
218,363,88127,1,0,0:0:0:0:
218,363,88245,6,0,L|128:348,1,80,4|0,0:3|0:0,0:0:0:0:
80,296,88596,1,0,0:0:0:0:
92,280,88713,2,0,P|100:232|92:184,1,80,4|0,0:3|0:0,0:0:0:0:
16,76,89182,1,0,0:0:0:0:
12,96,89299,2,0,P|9:135|16:174,1,80,4|0,0:3|0:0,0:0:0:0:
96,201,89651,2,0,L|192:189,1,80,4|0,0:3|0:0,0:0:0:0:
276,200,90002,5,2,0:2:0:0:
276,200,90120,1,2,0:2:0:0:
276,200,90237,1,2,0:2:0:0:
276,200,90354,2,0,L|272:240,1,40,2|0,0:2|0:0,0:0:0:0:
340,292,90588,1,2,0:2:0:0:
340,292,90705,1,2,0:2:0:0:
340,292,90823,2,0,L|344:332,1,40,2|0,0:2|0:0,0:0:0:0:
268,360,91057,6,0,P|224:360|184:372,1,80,4|0,0:3|0:3,0:3:0:0:
189,369,91409,1,0,0:0:0:0:
189,369,91526,2,0,L|101:361,1,80,4|0,0:3|0:0,0:0:0:0:
16,284,91995,5,4,0:0:0:0:
328,348,95745,6,0,B|416:344|416:344|396:308,1,120,2|0,0:0|0:0,0:0:0:0:
388,296,96213,2,0,P|380:260|388:212,1,80,2|0,0:0|0:0,0:0:0:0:
464,172,96682,2,0,L|496:200,2,40,2|0|0,0:0|0:0|0:0,0:0:0:0:
436,148,97034,2,0,L|424:60,1,80,2|2,0:0|0:0,0:0:0:0:
436,48,97385,1,0,0:0:0:0:
252,76,97620,6,0,L|164:68,2,80,2|0|2,0:0|0:0|0:0,0:0:0:0:
312,148,98323,1,2,0:0:0:0:
312,148,98440,1,2,0:0:0:0:
312,148,99495,6,0,P|300:212|324:272,1,120,2|0,0:0|0:0,0:0:0:0:
332,276,99963,2,0,L|320:360,1,80,2|0,0:0|0:0,0:0:0:0:
224,360,100432,1,2,0:0:0:0:
212,376,100549,2,0,L|200:296,2,80,2|0|2,0:0|0:0|0:0,0:0:0:0:
88,336,101370,5,2,0:0:0:0:
68,252,101604,1,0,0:0:0:0:
4,312,101838,1,2,0:0:0:0:
152,272,102073,1,2,0:0:0:0:
152,272,102190,1,2,0:0:0:0:
320,368,102541,2,0,L|404:360,2,80,2|0|0,0:0|0:0|0:0,0:0:0:0:
240,292,103245,6,0,L|224:208,1,80,2|0,0:0|0:0,0:0:0:0:
316,136,103713,2,0,P|328:180|328:224,1,80,2|0,0:0|0:0,0:0:0:0:
216,168,104182,1,2,0:0:0:0:
212,148,104299,2,0,P|213:108|224:69,1,80,2|2,0:0|0:0,0:0:0:0:
316,32,104768,2,0,L|404:24,1,80
408,8,105120,5,2,0:0:0:0:
372,112,105354,1,0,0:0:0:0:
476,96,105588,1,2,0:0:0:0:
436,192,105823,1,2,0:0:0:0:
436,192,105940,1,2,0:0:0:0:
372,352,106291,2,0,P|360:304|364:264,2,80,2|0|0,0:0|0:0|0:0,0:0:0:0:
436,192,106995,6,0,P|384:164|324:168,1,120,2|0,0:0|0:0,0:0:0:0:
308,180,107463,2,0,L|220:168,1,80,2|0,0:0|0:0,0:0:0:0:
132,140,107932,1,2,0:0:0:0:
124,120,108049,2,0,P|116:84|128:28,2,80,2|0|2,0:0|0:0|0:0,0:0:0:0:
176,280,108870,6,0,P|184:316|172:372,1,80,2|0,0:0|0:0,0:0:0:0:
104,240,109338,2,0,P|131:215|185:197,1,80,2|0,0:0|0:0,0:0:0:0:
192,200,109690,2,0,P|252:208|308:172,1,120,2|0,0:0|0:0,0:0:0:0:
120,152,110276,1,2,0:0:0:0:
120,152,110745,6,0,L|108:240,1,80,4|0,0:0|0:0,0:0:0:0:
12,208,111213,2,0,L|22:287,1,80,8|0,2:0|0:0,0:0:0:0:
96,340,111682,1,0,0:0:0:0:
112,356,111799,2,0,P|152:360|192:348,1,80
208,340,112151,1,8,2:0:0:0:
228,332,112268,2,0,P|268:328|308:340,1,80
324,352,112620,5,0,0:0:0:0:
480,312,112854,1,0,0:0:0:0:
348,200,113088,1,8,2:0:0:0:
396,288,113323,1,0,0:0:0:0:
396,288,113440,1,0,0:0:0:0:
396,288,113557,1,0,0:0:0:0:
442,215,113791,2,0,L|450:135,2,80,0|8|0,0:0|2:0|0:0,0:0:0:0:
512,76,114495,6,0,P|472:56|392:72,1,120
380,76,114963,2,0,L|300:68,1,80,8|0,2:0|0:0,0:0:0:0:
204,112,115432,1,0,0:0:0:0:
196,92,115549,1,0,0:0:0:0:
96,96,115784,1,0,0:0:0:0:
96,96,115901,1,8,2:0:0:0:
96,96,116018,2,0,P|88:148|100:188,1,80
104,192,116370,5,0,0:0:0:0:
36,272,116604,1,0,0:0:0:0:
284,236,116838,1,8,2:0:0:0:
192,184,117073,1,0,0:0:0:0:
192,184,117190,1,0,0:0:0:0:
192,184,117307,1,0,0:0:0:0:
296,344,117541,2,0,L|384:332,2,80,0|8|0,0:0|2:0|0:0,0:0:0:0:
452,384,118245,6,0,P|460:328|424:256,1,120
424,256,118713,2,0,L|432:176,1,80,8|0,2:0|0:0,0:0:0:0:
344,116,119182,1,0,0:0:0:0:
328,132,119299,2,0,L|336:212,2,80
264,40,120002,5,0,0:0:0:0:
264,40,120120,1,0,0:0:0:0:
212,112,120354,1,0,0:0:0:0:
128,76,120588,1,8,2:0:0:0:
76,152,120823,1,0,0:0:0:0:
76,152,120941,1,0,0:0:0:0:
76,152,121057,1,0,0:0:0:0:
164,192,121291,2,0,L|248:200,2,80,0|8|0,0:0|2:0|0:0,0:0:0:0:
324,248,121995,6,0,L|328:156,1,80,4|0,0:0|0:0,0:0:0:0:
96,228,122463,2,0,L|92:320,1,80,8|0,2:0|0:0,0:0:0:0:
200,356,122932,2,0,L|292:360,1,80
220,128,123400,2,0,L|128:124,1,80,8|0,2:0|0:0,0:0:0:0:
256,192,123870,12,4,125276,0:3:0:0:
124,136,125510,5,0,0:0:0:0:
124,136,125745,2,0,B|336:180|388:8|256:-64|132:8|175:178|400:136,1,560,4|0,0:0|0:0,0:0:0:0:
480,264,127620,2,0,B|440:252|400:264|400:264|360:276|320:264|320:264|276:248|264:216|264:216|280:260|304:296|256:364|212:380|156:360|120:320|124:280|136:240|204:248|204:264|200:276,1,560
384,360,129495,6,0,L|484:348,1,80,4|0,0:0|0:0,0:0:0:0:
420,168,129963,2,0,L|320:180,1,80
504,200,130432,2,0,P|504:152|488:104,1,80
232,168,130901,2,0,P|232:216|248:264,1,80
292,108,131370,6,0,P|256:88|200:84,1,80,4|0,0:0|0:0,0:0:0:0:
92,264,131838,2,0,P|131:257|165:238,1,80
4,240,132307,2,0,L|16:328,1,80
240,320,132776,2,0,L|228:264,1,40
316,356,133010,5,0,0:0:0:0:
316,356,133127,1,0,0:0:0:0:
316,356,133245,1,4,0:0:0:0:
404,380,133479,1,0,0:0:0:0:
360,204,133713,5,4,0:0:0:0:
296,264,133948,1,0,0:0:0:0:
472,320,134182,5,4,0:0:0:0:
444,232,134416,1,0,0:0:0:0:
316,356,134651,5,4,0:0:0:0:
404,380,134885,1,0,0:0:0:0:
436,144,135120,5,4,0:0:0:0:
348,112,135354,1,0,0:0:0:0:
200,236,135588,5,4,0:0:0:0:
288,204,135822,1,0,0:0:0:0:
160,148,136057,5,4,0:0:0:0:
72,116,136291,1,0,0:0:0:0:
0,264,136526,5,4,0:0:0:0:
92,240,136760,1,0,0:0:0:0:
184,360,136995,5,8,0:3:0:0:
184,360,137112,1,8,0:3:0:0:
184,360,137229,1,8,0:3:0:0:
184,360,137346,1,8,0:3:0:0:
184,360,137463,5,8,0:3:0:0:
184,360,137580,1,8,0:3:0:0:
184,360,137698,1,8,0:3:0:0:
184,360,137815,1,8,0:3:0:0:
184,360,137932,5,8,0:3:0:0:
184,360,138049,1,8,0:3:0:0:
184,360,138166,2,0,L|264:352,2,80
260,268,138870,5,4,0:3:0:0:
296,253,138987,1,4,0:3:0:0:
336,254,139104,1,4,0:3:0:0:
372,271,139221,1,4,0:3:0:0:
396,300,139338,5,4,0:3:0:0:
381,263,139455,1,4,0:3:0:0:
375,224,139572,1,4,0:3:0:0:
382,184,139689,1,4,0:3:0:0:
399,148,139806,1,4,1:0:0:0:
399,148,140276,6,0,L|392:80,1,60.0000022888184,4|0,2:0|0:0,0:0:0:0:
484,32,140510,2,0,L|492:96,1,60.0000022888184,4|0,2:0|0:0,0:0:0:0:
500,180,140745,5,4,0:0:0:0:
468,324,140979,1,2,0:2:0:0:
468,324,141096,1,2,0:2:0:0:
468,324,141213,1,4,0:0:0:0:
304,296,141448,1,2,0:2:0:0:
304,296,141565,1,2,0:2:0:0:
304,296,141682,1,4,0:0:0:0:
172,360,141916,1,0,0:0:0:0:
24,296,142151,1,4,0:0:0:0:
176,208,142385,5,0,0:0:0:0:
184,184,142502,1,0,0:0:0:0:
192,160,142620,2,0,P|192:124|180:80,1,80,4|0,0:0|0:0,0:0:0:0:
28,136,143088,1,4,0:0:0:0:
24,296,143323,1,0,0:0:0:0:
36,320,143440,1,0,0:0:0:0:
48,344,143557,1,4,0:0:0:0:
200,380,143791,2,0,L|232:384,2,26.6666666666667
180,360,144026,2,0,P|172:328|184:268,1,80,4|4,1:2|1:2,1:2:0:0:
272,192,144495,1,4,0:0:0:0:
392,268,144729,5,2,0:2:0:0:
396,240,144847,1,2,0:2:0:0:
400,212,144964,1,4,0:0:0:0:
472,80,145198,1,2,0:2:0:0:
476,108,145315,1,2,0:2:0:0:
480,136,145433,1,4,0:0:0:0:
364,24,145666,1,0,0:0:0:0:
276,96,145901,2,0,P|236:100|188:80,1,80,4|0,0:0|0:0,0:0:0:0:
180,80,146252,1,0,0:0:0:0:
160,76,146370,6,0,P|124:72|100:76,1,40,2|0,3:0|0:0,0:0:0:0:
24,188,146604,2,0,P|43:187|63:184,1,40,2|0,0:3|0:0,0:0:0:0:
188,196,146838,2,0,P|200:224|192:280,1,80,2|0,0:3|0:0,0:0:0:0:
188,292,147190,1,0,0:0:0:0:
180,312,147307,2,0,L|100:316,1,80,2|0,0:3|0:0,0:0:0:0:
312,376,147776,2,0,P|296:320|320:256,1,120,4|0,0:0|0:0,0:0:0:0:
328,244,148245,1,4,0:0:0:0:
392,300,148479,5,2,0:2:0:0:
424,296,148596,1,2,0:2:0:0:
456,292,148713,1,4,0:0:0:0:
492,188,148948,1,2,0:2:0:0:
496,156,149065,1,2,0:2:0:0:
500,124,149182,1,4,0:0:0:0:
408,40,149416,1,0,0:0:0:0:
332,136,149651,1,4,0:0:0:0:
140,84,149885,5,0,0:0:0:0:
160,72,150002,1,0,0:0:0:0:
180,64,150120,2,0,P|208:56|272:60,1,80,4|0,0:0|0:0,0:0:0:0:
140,192,150588,2,0,P|100:194|61:184,1,80,4|0,0:0|0:0,0:0:0:0:
44,172,150940,1,0,0:0:0:0:
28,160,151057,1,4,0:0:0:0:
24,312,151291,2,0,L|15:275,2,26.6666666666667
24,312,151526,2,0,L|120:300,2,80,8|4|4,0:0|1:2|0:0,0:0:0:0:
208,336,152229,5,2,0:2:0:0:
248,332,152346,1,2,0:2:0:0:
288,344,152463,1,4,0:0:0:0:
468,248,152698,1,2,0:2:0:0:
428,260,152815,1,2,0:2:0:0:
388,256,152932,1,4,0:0:0:0:
268,144,153166,1,0,0:0:0:0:
384,152,153401,1,4,0:0:0:0:
204,240,153635,5,0,0:0:0:0:
184,228,153752,1,0,0:0:0:0:
164,216,153870,2,0,P|156:172|168:124,1,80,6|2,0:3|0:3,0:0:0:0:
256,44,154338,1,2,0:3:0:0:
364,108,154573,1,0,0:0:0:0:
376,128,154690,1,2,0:3:0:0:
388,148,154807,2,0,L|384:192,1,40
384,212,155041,6,0,L|468:200,2,80,2|0|2,0:0|0:0|0:0,0:0:0:0:
160,240,155745,1,4,0:0:0:0:
256,192,155862,12,0,159026,2:0:0:0:
96,220,159495,6,0,L|84:128,1,80,2|0,0:0|0:0,0:0:0:0:
248,128,159963,2,0,L|260:220,1,80,2|0,0:0|0:0,0:0:0:0:
36,80,160432,2,0,P|68:68|120:68,1,80,2|0,0:0|0:0,0:0:0:0:
276,208,160901,2,0,P|236:207|198:194,1,80,2|0,0:0|0:0,0:0:0:0:
368,160,161370,5,2,0:0:0:0:
368,160,161604,1,0,0:0:0:0:
416,252,161838,1,2,0:0:0:0:
416,252,162073,1,0,0:0:0:0:
496,184,162307,1,2,0:0:0:0:
496,184,162541,1,0,0:0:0:0:
476,344,162776,2,0,P|428:356|324:304,1,160,2|0,0:0|0:0,0:0:0:0:
330,312,163713,6,0,P|274:312|238:324,1,80,2|0,0:0|0:0,0:0:0:0:
168,352,164182,2,0,L|84:344,2,80,2|2|0,0:0|0:0|0:0,0:0:0:0:
228,272,164885,2,0,B|260:188|192:188|232:88,2,160,2|0|0,0:0|0:0|0:0,0:0:0:0:
168,352,166057,1,2,0:0:0:0:
80,308,166291,2,0,P|40:308|-8:328,2,80,2|0|0,0:0|0:0|0:0,0:0:0:0:
328,352,166995,6,0,L|416:340,1,80,6|0,0:0|0:0,0:0:0:0:
376,160,167463,2,0,L|288:172,1,80,2|0,0:0|0:0,0:0:0:0:
472,280,167932,2,0,L|460:192,1,80,2|0,0:0|0:0,0:0:0:0:
228,232,168400,2,0,L|240:320,1,80,2|0,0:0|0:0,0:0:0:0:
268,152,168870,6,0,P|224:144|180:152,1,80,2|0,0:0|0:0,0:0:0:0:
168,156,169221,1,2,0:0:0:0:
148,164,169338,1,2,0:0:0:0:
128,176,169455,2,0,L|44:168,1,80,2|0,0:0|0:0,0:0:0:0:
220,60,170041,2,0,L|308:52,2,80,2|0|4,0:0|0:0|0:0,0:0:0:0:
384,16,170745,6,0,P|392:56|380:108,1,80,4|0,0:0|0:0,0:0:0:0:
376,116,171096,1,2,0:0:0:0:
368,136,171213,1,2,0:0:0:0:
360,156,171330,2,0,P|352:196|364:248,1,80,2|0,0:0|0:0,0:0:0:0:
476,336,171916,2,0,L|484:252,2,80,2|0|2,0:0|0:0|0:0,0:0:0:0:
364,336,172620,6,0,P|320:332|284:340,1,80,2|0,0:0|0:0,0:0:0:0:
264,348,172971,1,2,0:0:0:0:
244,356,173088,1,2,0:0:0:0:
224,368,173205,2,0,P|180:372|144:364,1,80,2|0,0:0|0:0,0:0:0:0:
24,248,173791,2,0,L|16:168,2,80,2|0|4,0:0|0:0|0:0,0:0:0:0:
96,96,174495,6,0,P|152:80|224:84,2,120,4|0|0,0:0|0:0|0:0,0:0:0:0:
288,152,175432,2,0,P|304:208|300:280,2,120,2|0|0,0:0|0:0|0:0,0:0:0:0:
236,352,176370,2,0,P|180:368|108:364,2,120,2|0|0,0:0|0:0|0:0,0:0:0:0:
40,296,177307,2,0,P|24:240|28:168,2,120,2|0|0,0:0|0:0|0:0,0:0:0:0:
132,340,178245,6,0,B|216:316|220:372|316:332,2,160,2|0|2,0:0|0:0|0:0,0:0:0:0:
292,260,179416,2,0,P|340:276|368:304,2,80,0|2|0,0:0|0:0|0:0,0:0:0:0:
368,380,180120,6,0,P|404:364|432:248,2,160,2|0|2,0:0|0:0|0:0,0:0:0:0:
368,200,181291,2,0,P|400:180|452:172,2,80,0|2|0,0:0|0:0|0:0,0:0:0:0:
236,360,181995,6,0,P|220:320|248:232,1,120,2|0,0:0|0:0,0:0:0:0:
248,228,182463,2,0,L|236:144,1,80,2|0,0:0|0:0,0:0:0:0:
292,80,182932,6,0,P|252:64|164:92,1,120,2|0,0:0|0:0,0:0:0:0:
160,92,183400,2,0,L|76:80,1,80,2|0,0:0|0:0,0:0:0:0:
20,160,183870,6,0,P|8:216|40:292,1,120,2|0,0:0|0:0,0:0:0:0:
40,292,184338,2,0,L|128:280,1,80,2|0,0:0|0:0,0:0:0:0:
236,328,184807,6,0,P|272:304|340:352,1,120,2|0,0:0|0:0,0:0:0:0:
348,352,185276,2,0,L|436:344,1,80,2|0,0:0|0:0,0:0:0:0:
472,260,185745,6,0,B|496:184|440:184|480:72,2,160,2|2|0,0:0|0:0|0:0,0:0:0:0:
408,40,186916,2,0,P|448:20|488:16,2,80
328,96,187620,1,0,0:0:0:0:
240,148,187854,5,2,0:0:0:0:
32,64,188088,1,2,0:0:0:0:
115,24,188322,1,2,0:0:0:0:
112,116,188557,2,0,L|100:196,1,80,2|0,0:0|0:0,0:0:0:0:
20,332,189026,2,0,P|52:304|136:352,1,120,4|0,2:0|0:0,0:0:0:0:
140,336,189495,6,0,P|176:333|224:352,1,80,4|0,0:0|0:0,0:0:0:0:
368,372,189963,2,0,L|372:316,1,40
296,288,190198,2,0,L|292:232,1,40
372,212,190432,2,0,L|380:120,1,80
280,56,190784,1,0,0:0:0:0:
292,72,190901,2,0,L|298:151,1,80
296,288,191370,5,2,0:0:0:0:
372,212,191604,1,2,0:0:0:0:
496,332,191838,1,2,0:0:0:0:
396,312,192073,1,2,0:0:0:0:
464,236,192307,2,0,P|469:191|460:144,1,80,2|0,0:0|0:0,0:0:0:0:
456,136,192659,2,0,L|472:44,2,80,2|0|0,0:0|0:0|0:0,0:0:0:0:
440,148,193245,6,0,P|392:128|332:164,1,120,2|0,0:0|0:0,0:0:0:0:
324,176,193713,2,0,L|236:164,1,80,2|0,0:0|0:0,0:0:0:0:
160,240,194182,2,0,L|144:328,1,80,2|0,0:0|0:0,0:0:0:0:
132,336,194534,2,0,P|92:336|48:352,2,80,2|0|0,0:0|0:0|0:0,0:0:0:0:
152,344,195120,5,2,0:0:0:0:
240,368,195354,1,2,0:0:0:0:
368,248,195588,5,2,0:0:0:0:
280,272,195822,1,2,0:0:0:0:
464,372,196057,6,0,P|456:328|468:280,1,80,2|0,0:0|0:0,0:0:0:0:
472,276,196409,2,0,L|464:184,1,80,2|0,0:0|0:0,0:0:0:0:
448,72,196877,1,0,0:0:0:0:
440,52,196995,6,0,P|404:24|332:48,1,120,2|0,0:0|0:0,0:0:0:0:
320,56,197463,2,0,L|232:48,1,80,2|0,0:0|0:0,0:0:0:0:
112,288,197932,2,0,L|200:280,1,80,2|0,0:0|0:0,0:0:0:0:
208,268,198284,2,0,P|208:232|192:176,2,80,2|0|0,0:0|0:0|0:0,0:0:0:0:
204,288,198870,5,2,0:0:0:0:
284,344,199104,1,2,0:0:0:0:
24,356,199338,5,2,0:0:0:0:
112,288,199572,1,2,0:0:0:0:
24,220,199807,6,0,L|16:136,1,80,2|0,0:0|0:0,0:0:0:0:
28,124,200159,2,0,P|60:108|112:100,2,80,2|0|0,0:0|0:0|0:0,0:0:0:0:
16,140,200745,6,0,L|24:220,1,80,2|0,0:0|0:0,0:0:0:0:
164,280,201213,2,0,L|156:200,1,80,2|0,0:0|0:0,0:0:0:0:
136,360,201682,2,0,P|184:360|228:336,1,80,2|0,0:0|0:0,0:0:0:0:
232,336,202034,2,0,P|269:321|308:323,2,80,2|0|0,0:0|0:0|0:0,0:0:0:0:
212,347,202620,5,2,0:0:0:0:
48,268,202854,1,2,0:0:0:0:
200,176,203088,5,2,0:0:0:0:
160,268,203322,1,2,0:0:0:0:
104,184,203557,6,0,L|100:92,1,80,2|0,0:0|0:0,0:0:0:0:
120,76,203909,1,0,0:0:0:0:
152,53,204026,1,4,0:2:0:0:
191,44,204143,1,0,0:0:0:0:
230,50,204260,1,0,0:0:0:0:
265,69,204377,1,0,0:0:0:0:
292,96,204495,6,0,L|384:88,1,80,4|0,0:0|0:0,0:0:0:0:
212,184,204963,2,0,L|120:176,1,80,4|0,0:0|0:0,0:0:0:0:
308,240,205432,2,0,L|400:232,1,80,4|0,0:0|0:0,0:0:0:0:
228,328,205900,2,0,L|136:320,1,80,4|0,0:0|0:0,0:0:0:0:
84,240,206370,6,0,L|72:156,1,80,4|0,0:0|0:0,0:0:0:0:
428,144,206838,2,0,L|440:228,1,80,4|0,0:0|0:0,0:0:0:0:
196,48,207307,2,0,L|280:36,1,80,4|0,0:0|0:0,0:0:0:0:
304,344,207775,2,0,L|220:356,1,80,4|0,0:0|0:0,0:0:0:0:
8,284,208245,6,0,P|40:256|124:276,1,120,4|0,0:0|0:0,0:0:0:0:
132,276,208713,2,0,L|228:264,1,80
224,248,209065,1,0,0:0:0:0:
232,228,209182,2,0,P|236:188|220:132,1,80
168,32,209651,1,4,0:0:0:0:
168,32,209768,1,0,0:0:0:0:
168,32,209885,1,0,0:0:0:0:
328,88,210120,6,0,P|384:96|444:68,1,120,4|0,0:0|0:0,0:0:0:0:
460,56,210588,2,0,P|452:100|460:144,1,80
464,156,210940,1,0,0:0:0:0:
472,176,211057,2,0,P|480:220|472:264,1,80
396,344,211526,2,0,L|308:332,1,80,4|0,0:0|0:0,0:0:0:0:
184,304,211995,5,4,0:0:0:0:
184,304,212229,1,4,0:0:0:0:
264,244,212463,1,4,0:0:0:0:
264,244,212698,1,4,0:0:0:0:
316,333,212932,1,4,0:0:0:0:
316,333,213166,1,4,0:0:0:0:
236,384,213401,1,4,0:0:0:0:
236,384,213635,1,4,0:0:0:0:
32,208,213870,5,4,0:0:0:0:
148,92,214104,1,4,0:0:0:0:
120,180,214338,5,4,0:0:0:0:
52,120,214573,1,4,0:0:0:0:
208,156,214807,5,4,0:0:0:0:
76,28,215041,1,4,0:0:0:0:
32,208,215276,5,4,0:0:0:0:
208,156,215510,1,4,0:0:0:0:
368,28,215745,5,0,3:2:0:0:
385,63,215862,1,0,3:2:0:0:
392,103,215979,1,0,3:2:0:0:
387,142,216096,1,0,3:2:0:0:
372,180,216213,5,0,3:2:0:0:
354,215,216330,1,0,3:2:0:0:
347,255,216447,1,0,3:2:0:0:
352,294,216564,1,0,3:2:0:0:
368,331,216682,5,0,3:2:0:0:
330,317,216799,1,0,3:2:0:0:
290,316,216916,1,0,3:2:0:0:
252,328,217033,1,0,3:2:0:0:
220,352,217151,5,0,3:2:0:0:
182,364,217268,1,0,3:2:0:0:
142,365,217385,1,0,3:2:0:0:
104,353,217502,1,0,3:2:0:0:
72,330,217620,6,0,L|64:240,1,80,0|0,3:2|0:0,0:0:0:0:
104,152,218088,1,0,0:0:0:0:
104,152,218557,1,0,0:0:0:0:
104,152,219026,1,0,3:0:0:0:
192,200,219260,1,8,3:0:0:0:
72,330,219495,6,0,L|64:250,1,80,6|0,0:0|0:0,0:0:0:0:
199,120,219963,2,0,L|191:200,1,80,2|0,0:0|0:0,0:0:0:0:
144,52,220354,1,2,0:0:0:0:
168,44,220432,2,0,P|212:44|252:56,1,80
376,48,220901,2,0,L|380:20,1,26.6666666666667
424,116,221057,2,0,L|427:142,1,26.6666666666667,2|2,0:0|0:0,0:0:0:0:
288,168,221370,6,0,P|284:207|296:260,1,80,2|0,0:0|0:0,0:0:0:0:
416,278,221760,2,0,L|496:274,1,80,2|0,0:0|0:0,0:0:0:0:
496,198,222073,2,0,L|416:202,1,80,2|0,0:0|0:0,0:0:0:0:
292,247,222463,2,0,P|288:286|300:339,1,80,2|0,0:0|0:0,0:0:0:0:
369,365,222776,2,0,L|453:361,1,80,2|0,0:0|0:0,0:0:0:0:
296,326,223245,6,0,P|240:318|188:338,1,106.666666666667,2|0,0:0|0:0,0:0:0:0:
96,380,223713,2,0,L|4:370,1,80,2|0,0:0|0:0,0:0:0:0:
8,264,224104,1,2,0:0:0:0:
0,244,224182,2,0,P|-4:212|8:148,1,80,0|2,0:0|0:0,0:0:0:0:
64,60,224651,2,0,L|60:24,1,26.6666666666667
112,128,224807,2,0,L|116:160,1,26.6666666666667,2|2,0:0|0:0,0:0:0:0:
188,252,225120,5,0,0:0:0:0:
196,232,225237,2,0,P|200:192|188:144,1,80,2|2,0:0|0:0,0:0:0:0:
112,128,225588,2,0,P|96:128|72:132,1,40,0|2,0:0|0:0,0:0:0:0:
8,264,225823,2,0,P|27:267|47:267,1,40
160,372,226057,2,0,P|188:372|220:380,2,40,2|2|0,0:0|0:0|0:0,0:0:0:0:
344,348,226526,1,6,0:2:0:0:
344,348,226995,5,2,0:0:0:0:
432,372,227229,1,0,0:0:0:0:
484,296,227463,2,0,L|492:212,1,80,2|0,0:0|0:0,0:0:0:0:
360,240,227854,1,2,0:0:0:0:
357,218,227932,2,0,L|349:134,1,80,0|2,0:0|0:0,0:0:0:0:
456,32,228401,2,0,L|462:-2,1,26.6666666666667
488,111,228557,2,0,L|492:138,1,26.6666666666667,2|2,0:0|0:0,0:0:0:0:
312,40,228870,6,0,P|264:36|228:52,1,80,2|0,0:0|0:0,0:0:0:0:
132,104,229260,2,0,L|48:100,1,80,2|0,0:0|0:0,0:0:0:0:
48,184,229573,2,0,L|132:188,1,80,2|0,0:0|0:0,0:0:0:0:
267,228,229963,2,0,P|275:264|267:316,1,80,2|0,0:0|0:0,0:0:0:0:
203,352,230276,2,0,L|111:348,1,80,2|0,0:0|0:0,0:0:0:0:
20,232,230745,6,0,P|12:192|24:140,1,80,2|0,0:0|0:0,0:0:0:0:
80,32,231213,2,0,L|160:24,1,80,2|0,0:0|0:0,0:0:0:0:
253,80,231604,1,2,0:0:0:0:
275,83,231682,2,0,L|355:91,1,80,0|2,0:0|0:0,0:0:0:0:
492,192,232151,2,0,L|500:228,1,26.6666666666667
448,124,232307,2,0,L|453:97,1,26.6666666666667,2|2,0:0|0:0,0:0:0:0:
328,192,232620,5,0,0:0:0:0:
312,228,232737,1,0,0:0:0:0:
307,268,232854,1,0,0:0:0:0:
314,307,232971,1,0,0:0:0:0:
332,340,233088,2,0,P|338:361|340:392,3,40
240,324,233557,5,0,0:0:0:0:
203,309,233674,1,0,0:0:0:0:
163,308,233791,1,0,0:0:0:0:
125,321,233908,1,0,0:0:0:0:
88,336,234026,2,0,P|63:347|52:356,2,40,4|0|0,0:2|0:0|0:0,0:0:0:0:
256,192,234495,5,4,0:0:0:0:
348,336,241995,5,2,0:0:0:0:
268,384,242229,2,0,L|188:376,2,80,0|2|0,0:0|0:0|0:0,0:0:0:0:
348,336,242932,2,0,P|364:284|328:208,1,120,2|0,0:0|0:0,0:0:0:0:
332,208,243401,2,0,L|340:128,2,80,2|0|2,0:0|0:0|0:0,0:0:0:0:
216,188,244104,6,0,L|208:108,2,80,0|2|0,0:0|0:0|0:0,0:0:0:0:
256,40,244807,2,0,P|200:28|132:64,1,120,2|0,0:0|0:0,0:0:0:0:
128,68,245276,2,0,L|44:60,2,80,2|0|2,0:0|0:0|0:0,0:0:0:0:
212,128,245979,5,0,0:0:0:0:
136,168,246213,2,0,P|128:212|140:256,1,80,2|0,0:0|0:0,0:0:0:0:
200,312,246682,2,0,L|332:300,2,120,2|0|2,0:0|0:0|0:0,0:0:0:0:
120,356,247620,5,2,0:0:0:0:
120,356,247854,2,0,P|108:308|120:256,2,80,2|0|0,0:0|0:0|0:0,0:0:0:0:
184,232,248557,2,0,P|140:200|68:204,2,120,2|0|0,0:0|0:0|0:0,0:0:0:0:
232,312,249495,5,2,0:0:0:0:
308,368,249729,2,0,L|468:360,1,160,2|0,0:0|0:0,0:0:0:0:
500,220,250432,1,2,0:0:0:0:
418,195,250666,2,0,P|417:234|432:272,1,80,2|0,0:0|0:0,0:0:0:0:
456,120,251135,6,0,B|372:92|372:148|288:116,2,160,2|2|2,0:0|0:0|0:0,0:0:0:0:
512,40,252307,1,2,0:0:0:0:
408,16,252541,1,0,0:0:0:0:
216,124,252776,2,0,P|168:96|108:120,1,120,2|0,0:0|0:0,0:0:0:0:
96,132,253245,5,2,0:0:0:0:
48,208,253479,2,0,L|60:288,1,80,0|2,0:0|0:0,0:0:0:0:
136,352,253948,1,0,0:0:0:0:
220,296,254182,2,0,P|260:292|308:308,2,80,2|0|2,0:0|0:0|0:0,0:0:0:0:
360,368,254885,6,0,P|380:332|336:216,1,160
156,184,255588,1,0,0:0:0:0:
192,264,255823,1,0,0:0:0:0:
256,200,256057,1,0,3:0:0:0:
256,160,256174,1,0,3:0:0:0:
256,120,256291,1,0,3:0:0:0:
256,80,256408,1,0,3:0:0:0:
255,40,256525,1,4,2:0:0:0:
251,35,256995,6,2,P|207:35|167:47,1,80
52,152,257463,2,2,P|90:162|130:161,1,80,6|2,0:0|0:0,0:0:0:0:
213,174,257815,2,0,L|201:222,1,40
280,256,258049,2,2,L|296:344,1,80
368,372,258401,2,0,P|408:376|460:356,1,80,6|0,0:0|0:0,0:0:0:0:
492,252,258870,5,6,0:0:0:0:
416,208,259104,1,0,0:0:0:0:
272,356,259338,2,0,L|184:348,1,80,6|0,0:0|0:0,0:0:0:0:
132,308,259690,1,2,0:0:0:0:
120,292,259807,2,0,P|112:256|124:196,1,80,6|0,0:0|0:0,0:0:0:0:
160,144,260159,1,0,0:0:0:0:
176,132,260276,2,0,P|204:128|236:128,1,40,4|0,0:2|0:0,0:0:0:0:
296,236,260510,2,0,P|276:234|256:231,1,40,4|0,0:2|0:0,0:0:0:0:
380,192,260745,6,2,P|388:232|384:284,1,80,6|2,0:0|0:0,0:0:0:0:
304,116,261213,2,2,P|302:76|310:36,1,80,6|2,0:0|0:0,0:0:0:0:
388,8,261565,2,0,P|412:4|436:4,1,40,2|4,0:0|0:0,0:0:0:0:
464,88,261799,2,2,P|412:88|368:104,1,80
304,116,262151,2,0,P|252:116|208:100,1,80,6|0,0:0|0:0,0:0:0:0:
60,64,262620,5,6,0:0:0:0:
140,28,262854,1,0,0:0:0:0:
260,216,263088,1,6,0:0:0:0:
164,200,263323,1,0,0:0:0:0:
160,220,263440,1,2,0:0:0:0:
216,364,263674,1,2,0:0:0:0:
84,320,263909,1,2,0:0:0:0:
72,304,264026,2,0,P|60:268|64:208,1,80,4|0,0:2|0:2,0:0:0:0:
216,364,264495,6,2,L|296:356,1,80,6|2,0:0|0:0,0:0:0:0:
412,236,264963,2,2,L|332:228,1,80,6|2,0:0|0:0,0:0:0:0:
272,180,265315,1,2,0:0:0:0:
264,160,265432,1,4,0:0:0:0:
256,140,265549,2,2,P|252:104|264:56,1,80
332,32,265901,2,0,L|412:24,1,80,6|0,0:0|0:0,0:0:0:0:
500,96,266370,5,6,0:0:0:0:
413,131,266604,1,0,0:0:0:0:
484,192,266838,1,6,0:0:0:0:
324,152,267073,1,0,0:0:0:0:
332,172,267190,1,2,0:0:0:0:
400,224,267424,1,0,0:0:0:0:
392,244,267541,1,2,0:0:0:0:
384,264,267659,2,0,P|384:304|404:352,1,80
408,360,268010,1,2,0:0:0:0:
484,192,268245,6,0,L|476:112,1,80,6|0,0:0|0:0,0:0:0:0:
272,24,268713,2,2,L|280:104,1,80,6|0,0:0|0:0,0:0:0:0:
296,184,269065,1,0,0:0:0:0:
300,204,269182,1,2,0:0:0:0:
304,224,269299,2,2,L|296:304,1,80,0|2,0:0|0:0,0:0:0:0:
228,360,269651,2,0,P|184:364|144:352,1,80,6|2,0:0|0:0,0:0:0:0:
16,240,270120,5,0,0:0:0:0:
49,218,270237,1,0,0:0:0:0:
88,208,270354,1,0,0:0:0:0:
127,209,270471,1,0,0:0:0:0:
165,222,270588,5,0,0:0:0:0:
200,240,270705,1,0,0:0:0:0:
237,253,270822,1,0,0:0:0:0:
277,254,270939,1,0,0:0:0:0:
315,244,271057,6,0,P|341:237|368:236,3,40
416,180,271526,2,0,P|420:148|416:116,1,40,8|0,2:0|0:0,0:0:0:0:
320,104,271760,2,0,P|320:123|323:143,1,40,8|0,2:0|0:0,0:0:0:0:
368,36,271995,6,0,P|320:24|284:28,1,80,4|0,0:0|0:0,0:0:0:0:
144,168,272463,2,0,P|183:169|222:158,1,80,4|0,0:0|0:0,0:0:0:0:
48,136,272932,2,0,L|56:220,1,80,4|0,0:0|0:0,0:0:0:0:
272,340,273401,2,0,L|264:256,1,80,4|0,0:0|0:0,0:0:0:0:
188,112,273870,6,0,P|148:104|96:104,1,80,4|0,0:0|0:0,0:0:0:0:
340,148,274338,2,0,P|379:146|419:138,1,80,4|0,0:0|0:0,0:0:0:0:
255,177,274807,2,0,P|256:216|264:256,1,80,4|0,0:0|0:0,0:0:0:0:
280,80,275276,2,0,P|288:40|288:-12,1,80,4|4,0:0|0:0,0:0:0:0:
188,112,275745,5,4,0:0:0:0:
340,148,275979,1,2,0:0:0:0:
340,148,276096,1,2,0:0:0:0:
176,208,276330,1,2,0:0:0:0:
328,236,276565,1,2,0:0:0:0:
212,292,276799,1,2,0:0:0:0:
304,336,277034,1,2,0:0:0:0:
228,380,277268,5,2,0:0:0:0:
228,380,277385,2,4,L|144:372,1,80,6|4,0:0|0:0,0:0:0:0:
56,296,277854,2,0,P|48:252|52:212,1,80,0|4,0:0|0:0,0:0:0:0:
268,148,278323,2,0,P|276:192|272:232,1,80,0|4,0:0|0:0,0:0:0:0:
204,88,278791,2,0,P|244:68|292:64,2,80,0|4|0,0:0|0:0|0:0,0:0:0:0:
32,176,279495,5,4,0:0:0:0:
96,116,279729,1,0,0:0:0:0:
96,116,279846,1,0,0:0:0:0:
96,116,279963,1,4,0:0:0:0:
232,228,280198,5,0,0:0:0:0:
192,140,280432,1,0,0:0:0:0:
128,208,280666,1,0,0:0:0:0:
164,300,280901,1,0,0:0:0:0:
64,280,281135,2,0,P|28:284|-16:300,2,80,2|4|2,0:0|0:0|0:0,0:0:0:0:
356,328,281838,5,4,0:0:0:0:
288,252,282073,1,0,0:0:0:0:
392,232,282307,1,4,0:0:0:0:
260,348,282542,5,0,0:0:0:0:
452,312,282776,1,4,0:0:0:0:
328,160,283010,1,0,0:0:0:0:
188,280,283245,5,0,3:0:0:0:
148,272,283362,1,0,3:0:0:0:
109,279,283479,1,0,3:0:0:0:
74,298,283596,1,0,3:0:0:0:
48,327,283713,5,0,3:0:0:0:
61,290,283830,1,0,3:0:0:0:
64,250,283947,1,0,3:0:0:0:
57,211,284064,1,0,3:0:0:0:
40,174,284182,5,0,3:0:0:0:
33,135,284299,1,0,3:0:0:0:
44,97,284416,1,0,3:0:0:0:
70,68,284533,1,0,3:0:0:0:
107,52,284650,5,0,3:0:0:0:
147,54,284767,1,0,3:0:0:0:
181,73,284885,1,0,3:0:0:0:
212,100,285002,1,0,3:0:0:0:
224,128,286760,5,8,2:0:0:0:
304,172,286995,2,0,L|388:164,1,80,4|0,0:0|0:0,0:0:0:0:
416,356,287463,2,0,L|332:364,1,80,4|0,0:0|0:0,0:0:0:0:
234,306,287932,1,4,0:0:0:0:
227,287,288049,1,0,0:0:0:0:
219,267,288166,2,0,P|219:235|227:215,1,40
231,207,288401,2,0,L|223:127,1,80,4|0,0:0|0:0,0:0:0:0:
172,48,288870,6,0,P|212:36|264:40,1,80,4|0,0:0|0:0,0:0:0:0:
404,180,289338,2,0,P|364:180|326:168,1,80,4|0,0:0|0:0,0:0:0:0:
476,132,289807,2,0,P|488:180|484:228,1,80,4|0,0:0|0:0,0:0:0:0:
264,376,290276,2,0,P|248:328|276:240,1,120,4|0,0:0|0:0,0:0:0:0:
272,240,290745,6,0,L|280:156,1,80
300,84,291096,1,0,0:0:0:0:
312,68,291213,2,0,P|352:56|400:56,1,80
496,236,291682,2,0,P|456:234|417:222,1,80,4|0,0:0|0:0,0:0:0:0:
472,144,292151,1,4,0:0:0:0:
472,144,292385,1,0,0:0:0:0:
496,340,292620,5,8,0:0:0:0:
372,240,292854,2,0,L|368:264,3,13.3333333333333
308,328,293205,2,0,L|240:324,1,66.6666666666667
200,240,293558,2,0,L|204:156,2,53.3333333333333
244,104,294026,2,0,P|300:88|352:120,1,120,12|0,2:0|0:0,0:0:0:0:
364,140,294495,6,0,L|384:24,1,95.9999970703126,4|0,0:0|0:0,0:0:0:0:
388,236,294963,2,0,L|404:330,1,95.9999970703126,4|0,0:0|0:0,0:0:0:0:
455,164,295432,2,0,P|407:144|355:140,1,95.9999970703126,4|0,0:0|0:0,0:0:0:0:
164,272,295901,2,0,P|211:266|255:247,1,95.9999970703126,4|0,0:0|0:0,0:0:0:0:
64,232,296370,5,4,0:0:0:0:
8,312,296604,1,0,0:0:0:0:
8,312,296721,1,0,0:0:0:0:
8,312,296838,1,4,0:0:0:0:
264,256,297073,1,0,0:0:0:0:
160,208,297307,1,4,0:0:0:0:
220,356,297541,2,0,P|264:344|328:344,2,95.9999970703126,0|4|0,0:0|0:0|0:0,0:0:0:0:
84,264,298245,6,0,P|72:212|80:152,1,95.9999970703126,4|0,0:0|0:0,0:0:0:0:
104,96,298596,1,0,0:0:0:0:
124,108,298713,2,0,P|176:104|220:88,1,95.9999970703126,4|0,0:0|0:0,0:0:0:0:
292,120,299065,1,0,0:0:0:0:
280,140,299182,2,0,P|284:192|300:236,1,95.9999970703126,4|0,0:0|0:0,0:0:0:0:
296,324,299534,1,0,0:0:0:0:
276,312,299651,2,0,P|224:316|180:332,1,95.9999970703126,4|0,0:0|0:0,0:0:0:0:
72,372,300120,5,4,0:0:0:0:
256,192,300237,12,4,301526,2:0:0:0:
104,176,301760,6,0,L|100:128,1,47.9999985351563,8|0,2:0|0:0,0:0:0:0:
68,248,301995,1,4,0:0:0:0:
256,192,302112,12,0,305510,2:0:0:0:
404,228,305745,5,2,0:0:0:0:
404,228,306448,2,0,P|440:224|472:228,2,60.0000022888184,0|2|0,0:0|0:0|0:0,0:0:0:0:
260,240,307151,1,2,0:0:0:0:
340,316,307385,1,0,0:0:0:0:
232,340,307620,5,2,0:0:0:0:
232,340,308323,2,0,L|156:336,2,60.0000022888184,0|2|0,0:0|0:0|0:0,0:0:0:0:
340,308,309026,2,0,L|408:300,1,60.0000022888184,2|0,0:0|0:0,0:0:0:0:
472,232,309495,6,0,P|480:184|456:112,1,120.000004577637,2|0,0:0|0:0,0:0:0:0:
380,80,310198,2,0,P|404:52|432:32,2,60.0000022888184,0|2|0,0:0|0:0|0:0,0:0:0:0:
340,160,310901,1,2,0:0:0:0:
340,160,311370,6,0,L|208:152,1,120.000004577637,2|0,0:0|0:0,0:0:0:0:
172,76,312073,2,0,P|168:48|172:0,2,60.0000022888184,0|2|0,0:0|0:0|0:0,0:0:0:0:
220,152,312776,2,0,P|224:180|220:228,1,60.0000022888184,2|0,0:0|0:0,0:0:0:0:
200,304,313245,5,2,0:0:0:0:
200,304,313948,2,0,L|132:312,2,60.0000022888184,0|2|0,0:0|0:0|0:0,0:0:0:0:
288,352,314651,2,0,L|356:360,1,60.0000022888184,2|0,0:0|0:0,0:0:0:0:
440,320,315120,6,0,P|456:272|436:196,1,120.000004577637,2|0,0:0|0:0,0:0:0:0:
376,144,315823,2,0,L|384:72,1,60.0000022888184,0|2,0:0|0:0,0:0:0:0:
464,28,316291,1,0,0:0:0:0:
296,72,316526,2,0,P|264:72|216:48,1,60.0000022888184,2|0,0:0|0:0,0:0:0:0:
44,152,316995,6,0,P|92:140|160:168,1,120.000004577637,2|0,0:0|0:0,0:0:0:0:
200,248,317698,2,0,P|208:280|208:316,2,60.0000022888184,0|2|0,0:0|0:0|0:0,0:0:0:0:
76,328,318401,2,0,P|99:305|130:287,1,60.0000022888184,2|0,0:0|0:0,0:0:0:0:
308,336,318870,6,0,P|360:348|424:316,1,120.000004577637,2|0,0:0|0:0,0:0:0:0:
220,308,319573,2,0,L|208:376,2,60.0000022888184,0|2|0,0:0|0:0|0:0,0:0:0:0:
308,200,320276,2,0,L|320:268,1,60.0000022888184,2|0,0:0|0:0,0:0:0:0:
236,140,320745,6,0,P|288:112|360:124,1,120.000004577637,2|0,0:0|0:0,0:0:0:0:
448,104,321448,2,0,P|448:68|440:36,2,60.0000022888184,0|2|0,0:0|0:0|0:0,0:0:0:0:
416,192,322151,2,0,P|410:221|410:251,1,60.0000022888184,2|0,0:0|0:0,0:0:0:0:
448,336,322620,5,2,0:0:0:0:
448,336,323323,2,0,L|512:328,2,60.0000022888184,0|2|0,0:0|0:0|0:0,0:0:0:0:
344,324,324026,2,0,P|308:328|284:336,1,60.0000022888184,2|0,0:0|0:0,0:0:0:0:
188,368,324495,6,0,P|144:376|80:328,1,120.000004577637,2|0,0:0|0:0,0:0:0:0:
256,312,325198,2,0,P|272:348|276:388,2,60.0000022888184,0|2|0,0:0|0:0|0:0,0:0:0:0:
188,240,325901,2,0,P|194:210|208:184,1,60.0000022888184,2|0,0:0|0:0,0:0:0:0:
296,124,326370,6,0,L|368:116,1,60.0000022888184,2|0,0:0|0:0,0:0:0:0:
388,288,326838,2,0,L|316:296,1,60.0000022888184,2|0,0:0|0:0,0:0:0:0:
228,172,327307,2,0,P|216:136|216:92,1,60.0000022888184,2|0,0:0|0:0,0:0:0:0:
480,280,327776,2,0,P|476:309|466:337,1,60.0000022888184,2|0,0:0|0:0,0:0:0:0:
364,384,328245,6,0,L|280:376,1,80,4|0,0:0|0:0,0:0:0:0:
184,268,328713,2,0,L|104:276,2,80,0|0|4,0:0|0:0|0:3,0:0:0:0:
328,220,329416,2,0,L|408:228,2,80
220,144,330120,6,0,L|208:96,1,40,4|0,0:3|0:0,0:0:0:0:
200,76,330354,2,0,P|148:76|104:92,2,80
388,116,331057,1,4,0:3:0:0:
296,84,331291,1,0,0:0:0:0:
64,192,331526,1,0,0:0:0:0:
156,172,331760,1,0,0:0:0:0:
120,288,331995,5,8,2:0:0:0:
212,268,332229,1,0,0:0:0:0:
288,328,332463,2,0,L|372:320,1,80,8|0,2:0|0:0,0:0:0:0:
504,280,332932,1,8,2:0:0:0:
460,360,333166,1,0,0:0:0:0:
420,240,333401,2,0,P|416:200|432:148,1,80,8|0,2:0|0:0,0:0:0:0:
476,72,333870,1,8,2:0:0:0:
328,152,334104,5,0,0:0:0:0:
328,152,334338,2,0,P|288:148|240:116,1,80,8|0,2:0|0:0,0:0:0:0:
176,40,334807,1,8,2:0:0:0:
252,8,335041,1,0,0:0:0:0:
160,144,335276,2,0,L|72:136,1,80,8|0,2:0|0:0,0:0:0:0:
24,304,335745,5,4,0:3:0:0:
108,272,335979,2,0,P|144:268|196:276,2,80
256,328,336682,1,4,0:3:0:0:
340,360,336916,2,0,P|376:364|428:356,2,80
256,328,337620,1,4,0:3:0:0:
196,256,337854,6,0,L|116:248,2,80
256,328,338557,1,4,0:3:0:0:
316,256,338791,2,0,L|396:248,2,80
248,176,339495,6,0,P|244:144|252:96,1,80,8|0,2:0|0:0,0:0:0:0:
332,52,339963,2,0,P|280:64|188:12,1,160,8|8,2:0|2:0,0:0:0:0:
408,4,340666,2,0,P|420:56|416:100,2,80,0|8|0,0:0|2:0|0:0,0:0:0:0:
400,156,341370,5,8,2:0:0:0:
372,232,341604,2,0,P|360:284|364:328,2,80,0|8|0,0:0|2:0|0:0,0:0:0:0:
400,156,342307,2,0,L|404:64,1,80,8|0,2:0|0:0,0:0:0:0:
352,4,342776,2,0,P|312:0|268:4,1,80,8|0,2:0|0:0,0:0:0:0:
48,24,343245,6,0,P|117:61|194:48,1,160,4|8,0:3|2:0,0:0:0:0:
48,24,344182,2,0,L|58:103,1,80,8|0,2:0|0:0,0:0:0:0:
68,208,344651,2,0,L|57:289,1,80,8|0,2:0|0:0,0:0:0:0:
156,348,345120,6,0,B|232:320|232:376|332:340,1,160,8|8,2:0|2:0,0:0:0:0:
313,346,346057,2,0,L|320:264,1,80,8|0,2:0|0:0,0:0:0:0:
420,220,346526,2,0,L|426:299,1,80,8|0,2:0|0:0,0:0:0:0:
487,155,346995,6,0,P|413:131|342:164,1,160,8|8,2:0|2:0,0:0:0:0:
342,164,347932,2,0,L|262:156,1,80,8|0,2:0|0:0,0:0:0:0:
120,136,348401,1,8,2:0:0:0:
180,216,348635,1,0,0:0:0:0:
44,360,348870,6,0,P|24:304|64:200,1,160,8|8,2:0|2:0,0:0:0:0:
53,211,349807,2,0,P|53:163|41:123,1,80,8|0,2:0|0:0,0:0:0:0:
12,60,350276,1,8,2:0:0:0:
12,60,350510,1,0,0:0:0:0:
120,96,350745,6,0,P|184:104|268:48,1,160,8|0,2:0|0:0,0:0:0:0:
432,232,351682,2,0,P|368:240|284:184,1,160,8|0,2:0|0:0,0:0:0:0:
180,344,352620,6,0,P|104:352|44:300,1,160,8|0,2:0|0:0,0:0:0:0:
332,344,353557,2,0,P|408:352|468:300,1,160,8|0,2:0|0:0,0:0:0:0:
332,344,354495,6,0,L|340:256,1,80,8|0,2:0|0:0,0:0:0:0:
176,128,354963,2,0,L|168:216,1,80,8|0,2:0|0:0,0:0:0:0:
236,64,355432,2,0,P|196:48|156:44,1,80,8|0,2:0|0:0,0:0:0:0:
108,316,355901,2,0,P|147:311|184:295,1,80,8|0,2:0|0:0,0:0:0:0:
44,248,356370,5,8,2:0:0:0:
16,336,356604,1,0,0:0:0:0:
200,292,356838,1,8,2:0:0:0:
200,292,356955,1,8,2:0:0:0:
296,324,357190,5,8,2:0:0:0:
296,324,357307,1,8,2:0:0:0:
392,304,357541,1,4,0:2:0:0:
488,284,357776,1,12,2:2:0:0:
464,368,358010,1,0,0:0:0:0:
392,304,358245,6,0,L|384:248,1,40,4|0,0:0|0:0,0:0:0:0:
464,208,358479,2,0,L|472:152,1,40
428,96,358713,2,0,P|448:88|488:84,1,40
368,168,358948,2,0,P|348:163|329:156,1,40
248,88,359182,6,0,L|240:40,1,40
336,52,359416,2,0,L|342:12,1,40
216,168,359651,2,0,P|248:176|264:176,1,40
466,87,359885,2,0,P|447:89|428:96,1,40
368,168,360120,5,8,2:0:0:0:
368,336,360354,1,0,0:0:0:0:
220,256,360589,1,8,2:0:0:0:
296,296,360823,5,0,0:0:0:0:
372,256,361057,1,8,2:0:0:0:
296,212,361292,1,0,0:0:0:0:
296,380,361526,1,8,2:0:0:0:
448,304,361760,1,0,0:0:0:0:
448,304,361877,1,0,0:0:0:0:
448,304,361995,6,0,L|456:260,1,40
408,188,362229,2,0,L|400:148,1,40
472,96,362463,2,0,P|484:124|488:148,1,40
388,48,362698,2,0,P|393:28|402:10,1,40
312,104,362932,6,0,P|272:100|260:96,1,40
176,28,363166,2,0,P|195:24|215:24,1,40
96,80,363401,2,0,L|88:40,1,40
176,156,363635,2,0,L|184:116,1,40
96,200,363870,5,8,2:0:0:0:
184,240,364104,1,0,0:0:0:0:
104,292,364338,1,8,2:0:0:0:
20,248,364573,5,0,0:0:0:0:
176,156,364807,1,8,2:0:0:0:
188,328,365041,1,0,0:0:0:0:
348,332,365276,1,4,0:0:0:0:
348,332,365745,5,0,3:0:0:0:
388,324,365862,1,0,3:0:0:0:
427,331,365979,1,0,3:0:0:0:
462,350,366096,1,0,3:0:0:0:
488,379,366213,5,0,3:0:0:0:
475,342,366330,1,0,3:0:0:0:
472,302,366447,1,0,3:0:0:0:
479,263,366564,1,0,3:0:0:0:
496,226,366682,5,0,3:0:0:0:
503,187,366799,1,0,3:0:0:0:
492,149,366916,1,0,3:0:0:0:
466,120,367033,1,0,3:0:0:0:
429,104,367150,5,0,3:0:0:0:
389,106,367267,1,0,3:0:0:0:
355,125,367385,1,0,3:0:0:0:
324,152,367502,1,0,3:0:0:0:
292,176,367620,5,0,3:0:0:0:
254,187,367737,1,0,3:0:0:0:
214,184,367854,1,0,3:0:0:0:
178,166,367971,1,0,3:0:0:0:
152,136,368088,5,0,3:0:0:0:
135,101,368205,1,0,3:0:0:0:
138,61,368322,1,0,3:0:0:0:
163,31,368439,1,0,3:0:0:0:
200,16,368557,5,0,3:0:0:0:
163,31,368674,1,0,3:0:0:0:
123,32,368791,1,0,3:0:0:0:
86,18,368908,1,0,3:0:0:0:
52,0,369026,5,0,3:0:0:0:
36,36,369143,1,0,3:0:0:0:
30,76,369260,1,0,3:0:0:0:
34,115,369377,1,0,3:0:0:0:
49,152,369495,6,0,L|56:172,15,20,2|0|0|0|0|0|0|0|0|0|0|0|0|0|0|0,0:0|0:0|0:0|0:0|0:0|0:0|0:0|0:0|0:0|0:0|0:0|0:0|0:0|0:0|0:0|0:0,0:0:0:0:
40,244,370432,2,0,L|33:263,7,20,2|0|0|0|0|0|0|0,0:0|0:0|0:0|0:0|0:0|0:0|0:0|0:0,0:0:0:0:
24,340,370901,2,0,L|30:359,7,20,2|0|0|0|0|0|0|0,0:0|0:0|0:0|0:0|0:0|0:0|0:0|0:0,0:0:0:0:
104,304,371370,5,8,2:0:0:0:
104,304,371838,1,8,2:0:0:0:
104,304,372307,1,8,2:0:0:0:
104,304,372776,2,0,P|160:288|212:320,1,120,4|0,2:0|0:0,0:0:0:0:
220,336,373245,6,0,L|312:328,1,80,4|0,0:0|0:0,0:0:0:0:
464,152,373713,2,0,L|372:144,1,80,4|0,0:0|0:0,0:0:0:0:
296,32,374182,2,0,P|252:32|216:44,1,80,4|0,0:0|0:0,0:0:0:0:
136,96,374573,1,0,0:0:0:0:
116,108,374651,2,0,P|72:108|36:96,1,80,4|0,0:0|0:0,0:0:0:0:
8,232,375120,6,0,P|52:232|88:244,1,80,4|0,0:0|0:0,0:0:0:0:
256,372,375588,2,0,P|217:383|178:382,1,80,4|0,0:0|0:0,0:0:0:0:
152,208,376057,2,0,P|190:197|230:198,1,80,4|0,0:0|0:0,0:0:0:0:
416,304,376526,2,0,P|376:304|337:294,1,80,4|0,0:0|0:0,0:0:0:0:
496,264,376995,6,0,P|504:304|496:348,1,80,4|0,0:0|0:0,0:0:0:0:
272,244,377463,2,0,P|264:204|272:160,1,80,4|0,0:0|0:0,0:0:0:0:
384,12,377932,2,0,P|340:8|292:24,1,80,4|0,0:0|0:0,0:0:0:0:
234,54,378323,1,0,0:0:0:0:
212,52,378401,2,0,L|120:44,1,80,4|0,0:0|0:0,0:0:0:0:
43,112,378870,5,4,0:0:0:0:
43,112,378987,2,0,L|47:151,2,40,2|0|0,2:0|0:0|0:0,0:0:0:0:
28,240,379338,1,4,0:0:0:0:
28,240,379455,2,0,L|23:279,2,40,2|0|0,2:0|0:0|0:0,0:0:0:0:
104,343,379807,1,4,0:0:0:0:
104,343,379924,2,0,P|127:337|144:336,2,40,2|0|0,2:0|0:0|0:0,0:0:0:0:
120,255,380276,1,4,0:0:0:0:
120,255,380393,2,0,P|143:249|160:248,2,40,2|0|0,2:0|0:0|0:0,0:0:0:0:
240,280,380745,6,0,P|289:281|340:260,1,95.9999970703126,4|0,2:0|0:0,0:0:0:0:
395,169,381213,2,0,L|407:69,1,95.9999970703126,4|0,0:0|0:0,0:0:0:0:
456,244,381682,2,0,L|468:344,1,95.9999970703126,4|0,0:0|0:0,0:0:0:0:
512,172,382073,1,0,0:0:0:0:
488,160,382151,2,0,P|432:156|384:176,1,95.9999970703126,4|0,0:0|0:0,0:0:0:0:
244,236,382620,6,0,P|198:250|151:245,1,95.9999970703126,4|0,0:0|0:0,0:0:0:0:
128,48,383088,2,0,P|173:33|220:38,1,95.9999970703126,4|0,0:0|0:0,0:0:0:0:
336,132,383557,2,0,L|432:124,1,95.9999970703126,4|0,0:0|0:0,0:0:0:0:
488,292,383948,1,0,0:0:0:0:
468,308,384026,2,0,L|366:315,1,95.9999970703126,4|0,0:0|0:0,0:0:0:0:
120,216,384495,6,0,P|72:212|24:188,1,95.9999970703126,4|0,0:0|0:0,0:0:0:0:
252,232,384963,2,0,P|300:236|348:260,1,95.9999970703126,4|0,0:0|0:0,0:0:0:0:
192,160,385432,2,0,P|196:112|220:64,1,95.9999970703126,4|0,0:0|0:0,0:0:0:0:
392,16,385823,1,0,0:0:0:0:
380,44,385901,2,0,L|392:108,1,63.9999980468751
460,208,386135,6,0,L|484:216,3,23.9999992675781
432,200,386370,2,0,P|380:200|328:216,1,95.9999970703126,4|0,0:3|0:0,0:0:0:0:
228,240,386838,1,4,0:0:0:0:
348,304,387073,5,0,0:0:0:0:
348,304,387190,1,0,0:0:0:0:
348,304,387307,1,0,0:0:0:0:
248,348,387541,1,0,0:0:0:0:
228,336,387659,1,0,0:0:0:0:
204,328,387776,2,0,P|156:328|100:344,1,95.9999970703126,4|0,0:0|0:0,0:0:0:0:
8,360,388245,5,4,0:0:0:0:
256,192,388362,12,4,391995,2:0:0:0:
332,340,406995,6,0,L|416:332,1,80,8|0,2:0|0:0,0:0:0:0:
376,160,407463,2,0,L|292:168,1,80,8|0,2:0|0:0,0:0:0:0:
144,192,407932,2,0,P|104:192|56:176,1,80,8|0,2:0|0:0,0:0:0:0:
92,16,408401,2,0,P|132:16|180:32,1,80,8|0,2:0|0:0,0:0:0:0:
296,76,408870,6,0,P|348:84|440:28,1,160,4|8,0:3|2:0,0:0:0:0:
348,0,409573,1,0,0:0:0:0:
224,40,409807,2,0,P|216:80|220:120,1,80,8|0,2:0|0:0,0:0:0:0:
404,264,410276,2,0,P|412:224|408:184,1,80,8|0,2:0|0:0,0:0:0:0:
375,87,410745,6,0,L|291:75,1,80,8|0,2:0|0:0,0:0:0:0:
168,188,411213,2,0,L|252:176,1,80,8|0,2:0|0:0,0:0:0:0:
96,240,411682,2,0,P|84:200|84:156,1,80,8|0,2:0|0:0,0:0:0:0:
204,276,412151,2,0,P|202:315|191:353,1,80,8|0,2:0|0:0,0:0:0:0:
191,353,412620,6,0,L|27:339,1,160,0|8,0:0|2:0,0:0:0:0:
32,176,413323,1,0,0:0:0:0:
16,264,413557,2,0,P|64:256|100:236,1,80,8|0,2:0|0:0,0:0:0:0:
248,136,414026,2,0,P|211:119|172:114,1,80,8|0,2:0|0:0,0:0:0:0:
300,216,414495,6,0,P|328:172|308:68,1,160,4|8,0:3|2:0,0:0:0:0:
310,70,415198,1,0,0:0:0:0:
104,99,415432,2,0,P|169:142|247:136,1,160,0|8,0:0|2:0,0:0:0:0:
480,80,416135,1,0,0:0:0:0:
424,172,416370,6,0,P|412:216|412:256,1,80
312,364,416838,2,0,P|310:324|299:285,1,80,8|0,2:0|0:0,0:0:0:0:
208,216,417307,2,0,L|128:208,1,80
48,348,417776,2,0,L|128:340,1,80,8|0,2:0|0:0,0:0:0:0:
292,252,418245,6,0,P|296:204|284:160,2,80,4|0|8,0:3|0:0|2:0,0:0:0:0:
208,216,418948,1,0,0:0:0:0:
208,128,419182,2,0,P|252:96|356:112,1,160,0|8,0:0|2:0,0:0:0:0:
351,108,419885,1,0,0:0:0:0:
464,164,420120,6,0,P|468:120|464:80,1,80
368,288,420588,2,0,P|364:327|368:367,1,80,8|0,2:0|0:0,0:0:0:0:
424,228,421057,2,0,P|384:212|340:208,1,80
168,332,421526,2,0,P|207:326|244:311,1,80,8|0,2:0|0:0,0:0:0:0:
48,360,421995,6,0,B|20:308|40:240|40:240|84:264,1,160,4|0,0:3|0:0,0:0:0:0:
168,332,422698,1,0,0:0:0:0:
272,368,422932,2,0,P|348:376|424:332,1,160,2|0,0:0|0:0,0:0:0:0:
418,339,423870,6,0,L|434:171,1,160,2|0,0:0|0:0,0:0:0:0:
480,84,424573,1,0,0:0:0:0:
364,120,424807,2,0,P|292:128|220:68,1,160,2|0,0:0|0:0,0:0:0:0:
316,36,425510,1,0,0:0:0:0:
200,188,425745,6,0,B|148:180|148:180|96:192|96:192|36:184,1,160,2|0,0:0|0:0,0:0:0:0:
42,184,426448,1,0,0:0:0:0:
264,256,426682,2,0,P|284:196|224:84,1,160,2|0,0:0|0:0,0:0:0:0:
164,48,427385,1,0,0:0:0:0:
253,107,427620,6,0,P|296:104|336:92,1,80,2|0,0:0|0:0,0:0:0:0:
416,232,428088,2,0,P|373:229|333:217,1,80,2|0,0:0|0:0,0:0:0:0:
492,272,428557,2,0,L|476:364,1,80,2|0,0:0|0:0,0:0:0:0:
484,176,429026,2,0,L|470:97,1,80,2|0,0:0|0:0,0:0:0:0:
372,24,429495,6,0,P|328:24|284:40,1,80,2|0,0:0|0:0,0:0:0:0:
216,88,429963,1,2,0:0:0:0:
216,88,430198,1,0,0:0:0:0:
128,104,430432,2,0,P|84:104|40:88,1,80,2|0,0:0|0:0,0:0:0:0:
24,244,430901,2,0,P|62:232|102:233,1,80,2|0,0:0|0:0,0:0:0:0:
340,296,431370,5,2,0:0:0:0:
272,244,431604,1,0,0:0:0:0:
120,328,431838,5,2,0:0:0:0:
180,256,432073,1,0,0:0:0:0:
472,316,432307,5,2,0:0:0:0:
472,316,432541,1,0,0:0:0:0:
396,376,432776,1,2,0:0:0:0:
396,376,433010,1,0,0:0:0:0:
384,196,433245,2,0,P|384:172|388:144,3,40,4|0|0|0,0:0|0:0|0:0|0:0,0:0:0:0:
408,80,433713,5,0,0:0:0:0:
371,96,433830,1,0,0:0:0:0:
332,99,433947,1,0,0:0:0:0:
294,87,434064,1,0,0:0:0:0:
258,65,434182,5,0,0:0:0:0:
226,40,434299,1,0,0:0:0:0:
188,29,434416,1,0,0:0:0:0:
148,32,434533,1,0,0:0:0:0:
112,48,434651,5,0,0:0:0:0:
86,78,434768,1,0,0:0:0:0:
77,117,434885,1,0,0:0:0:0:
84,155,435002,1,0,0:0:0:0:
104,192,435120,6,0,P|108:229|104:253,2,53.3333333333333
100,324,435588,2,0,P|96:361|100:385,2,53.3333333333333
192,376,436057,2,0,L|256:368,2,53.3333333333333
308,312,436526,2,0,P|352:312|396:324,1,80,4|0,0:3|0:0,0:0:0:0:
488,120,436995,6,0,B|416:120|384:160|384:160|336:144|312:120|312:120|288:96|256:168|256:168|224:96|200:120|200:120|176:144|128:160|128:160|96:120|16:120,1,560,4|0,0:0|0:0,0:0:0:0:
4,208,438870,2,0,P|16:248|20:292,1,80,2|0,2:0|0:0,0:0:0:0:
132,356,439338,2,0,P|136:316|147:278,1,80,2|0,2:0|0:0,0:0:0:0:
256,268,439807,2,0,P|304:272|368:244,2,120,0|2|2,2:0|2:0|2:0,0:0:0:0:
164,216,440745,6,0,L|152:132,1,80,4|0,0:0|0:0,0:0:0:0:
288,52,441213,2,0,L|300:136,1,80,2|0,2:0|0:0,0:0:0:0:
192,304,441682,2,0,P|144:304|76:252,2,120,2|2|2,2:0|2:0|2:0,0:0:0:0:
336,272,442620,5,2,0:0:0:0:
392,356,442854,2,0,L|444:364,2,40,0|0|2,0:0|0:0|0:0,0:0:0:0:
284,352,443323,1,0,0:0:0:0:
192,304,443557,2,0,P|144:304|76:356,2,120,2|2|2,2:0|2:0|2:0,0:0:0:0:
432,360,444495,6,0,L|444:272,1,80,4|0,0:0|0:0,0:0:0:0:
308,152,444963,2,0,L|318:231,1,80,2|0,0:0|0:0,0:0:0:0:
372,88,445432,2,0,P|324:68|252:80,1,120,2|2,0:0|0:0,0:0:0:0:
236,84,445901,2,0,L|152:76,1,80,0|2,0:0|0:0,0:0:0:0:
20,64,446370,5,2,0:0:0:0:
96,16,446604,1,0,0:0:0:0:
200,184,446838,1,2,0:0:0:0:
124,148,447073,1,0,0:0:0:0:
32,320,447307,2,0,P|20:268|36:192,2,120,2|2|2,0:0|0:0|0:0,0:0:0:0:
144,356,448245,6,0,P|192:344|232:344,1,80,4|0,0:0|0:0,0:0:0:0:
420,332,448713,2,0,P|380:329|341:319,1,80,2|0,0:0|0:0,0:0:0:0:
276,232,449182,2,0,L|260:88,2,120,2|2|2,0:0|0:0|0:0,0:0:0:0:
312,316,450120,5,2,0:0:0:0:
184,200,450354,1,0,0:0:0:0:
348,152,450588,1,2,0:0:0:0:
276,232,450823,1,0,0:0:0:0:
208,308,451057,2,0,P|160:308|84:264,2,120,2|2|2,0:0|0:0|0:0,0:0:0:0:
312,308,451995,6,0,P|351:301|432:328,1,120,4|0,0:0|0:0,0:0:0:0:
444,336,452463,2,0,L|456:252,1,80,8|0,2:0|0:0,0:0:0:0:
184,176,452932,2,0,P|144:169|64:196,1,120,4|0,0:0|0:0,0:0:0:0:
52,204,453400,2,0,L|40:120,1,80,8|0,2:0|0:0,0:0:0:0:
160,48,453870,6,0,P|216:32|272:64,1,120,4|0,0:2|0:0,0:0:0:0:
284,72,454338,2,0,L|368:64,1,80,8|0,2:0|0:0,0:0:0:0:
336,296,454807,6,0,P|280:280|224:312,1,120,4|0,0:2|0:0,0:0:0:0:
212,320,455275,2,0,L|128:312,1,80,8|0,2:0|0:0,0:0:0:0:
32,248,455745,6,0,P|24:200|32:152,1,80,4|0,0:2|0:0,0:0:0:0:
32,148,456096,1,0,0:0:0:0:
40,128,456213,1,8,2:0:0:0:
136,88,456448,1,0,0:0:0:0:
320,224,456682,5,8,2:0:0:0:
224,184,456917,1,0,0:0:0:0:
364,116,457151,5,8,2:0:0:0:
460,76,457386,1,0,0:0:0:0:
452,184,457620,6,0,L|468:280,1,80,4|0,0:2|0:0,0:0:0:0:
468,284,457971,1,0,0:0:0:0:
472,304,458088,1,8,2:0:0:0:
384,348,458323,1,0,0:0:0:0:
304,224,458557,5,8,2:0:0:0:
304,308,458791,1,0,0:0:0:0:
224,264,459026,5,8,2:0:0:0:
384,268,459260,1,0,0:0:0:0:
224,352,459495,5,4,0:2:0:0:
186,363,459612,1,0,0:0:0:0:
146,360,459729,1,0,0:0:0:0:
110,342,459846,1,0,0:0:0:0:
84,312,459963,5,0,0:0:0:0:
69,275,460080,1,0,0:0:0:0:
69,236,460197,1,0,0:0:0:0:
84,199,460314,1,0,0:0:0:0:
112,170,460432,5,4,0:2:0:0:
148,153,460549,1,0,0:0:0:0:
188,151,460666,1,0,0:0:0:0:
225,163,460783,1,0,0:0:0:0:
256,188,460900,5,0,0:0:0:0:
286,213,461018,1,0,0:0:0:0:
324,225,461135,1,0,0:0:0:0:
364,222,461252,1,0,0:0:0:0:
400,205,461370,5,4,0:2:0:0:
381,240,461487,1,0,0:0:0:0:
376,279,461604,1,0,0:0:0:0:
384,318,461721,1,0,0:0:0:0:
404,352,461838,5,0,0:0:0:0:
367,338,461955,1,0,0:0:0:0:
328,337,462072,1,0,0:0:0:0:
290,349,462189,1,0,0:0:0:0:
256,368,462307,5,4,0:2:0:0:
218,382,462424,1,0,0:0:0:0:
179,383,462541,1,0,0:0:0:0:
141,371,462658,1,0,0:0:0:0:
109,347,462775,5,0,0:0:0:0:
89,312,462893,1,0,0:0:0:0:
82,273,463010,1,0,0:0:0:0:
90,234,463127,1,0,0:0:0:0:
116,200,463245,6,0,L|144:196,7,20,4|0|0|0|0|0|0|0,0:2|0:0|0:0|0:0|0:0|0:0|0:0|0:0,0:0:0:0:
220,224,463713,2,0,L|244:228,7,20,4|0|0|0|0|0|0|0,0:2|0:0|0:0|0:0|0:0|0:0|0:0|0:0,0:0:0:0:
316,184,464182,2,0,L|352:180,7,20,4|0|0|0|0|0|0|0,0:2|0:0|0:0|0:0|0:0|0:0|0:0|0:0,0:0:0:0:
412,224,464650,2,0,L|444:232,7,20,4|0|0|0|0|0|0|0,0:2|0:0|0:0|0:0|0:0|0:0|0:0|0:0,0:0:0:0:
496,168,465120,5,4,1:0:0:0:
496,168,465588,1,8,2:0:0:0:
488,140,465705,1,0,0:0:0:0:
480,112,465822,1,0,0:0:0:0:
276,160,466057,1,8,2:0:0:0:
276,160,466526,2,0,B|256:116|268:76|268:76|316:84,1,120
384,96,466995,5,4,3:0:0:0:
384,96,467463,2,0,L|388:156,2,60,2|0|0,3:0|0:0|0:0,0:0:0:0:
484,228,467932,2,0,L|488:168,2,60,2|0|0,3:0|0:0|0:0,0:0:0:0:
388,280,468401,2,0,P|328:276|264:304,1,120,2|0,3:0|0:0,0:0:0:0:
160,340,468870,6,0,L|156:280,2,60,2|0|0,3:0|0:0|0:0,0:0:0:0:
40,288,469338,2,0,L|43:228,2,60,2|0|0,3:0|0:0|0:0,0:0:0:0:
124,176,469807,2,0,L|116:116,2,60,2|0|0,3:0|0:0|0:0,0:0:0:0:
224,240,470276,2,0,P|232:192|208:120,1,120,2|0,3:0|0:0,0:0:0:0:
172,52,470745,5,0,0:0:0:0:
172,52,471213,2,0,L|108:60,2,60,2|0|0,3:0|0:0|0:0,0:0:0:0:
368,168,471682,2,0,L|432:176,2,60,2|0|0,3:0|0:0|0:0,0:0:0:0:
204,360,472151,2,0,P|184:316|204:236,1,120,2|0,3:0|0:0,0:0:0:0:
264,184,472620,6,0,B|252:100|252:100|296:120,1,120
360,144,473088,2,0,P|400:144|444:136,1,80
420,8,473557,2,0,P|380:8|336:16,1,80
188,124,474026,2,0,P|116:132|44:72,1,160
49,81,474963,6,0,L|52:140,2,60,2|0|0,3:0|0:0|0:0,0:0:0:0:
157,239,475432,2,0,L|160:180,2,60,2|0|0,3:0|0:0|0:0,0:0:0:0:
80,340,475901,2,0,P|136:328|204:344,1,120,2|0,3:0|0:0,0:0:0:0:
280,368,476370,6,0,P|336:380|404:364,1,120
464,280,476838,2,0,L|468:216,2,60,2|0|0,3:0|0:0|0:0,0:0:0:0:
344,128,477307,2,0,L|347:187,2,60,2|0|0,3:0|0:0|0:0,0:0:0:0:
240,72,477776,2,0,P|184:64|116:88,1,120,2|0,3:0|0:0,0:0:0:0:
64,136,478245,6,0,P|48:88|68:20,1,106.666666666667
168,176,478713,2,0,L|160:244,2,60,2|0|0,3:0|0:0|0:0,0:0:0:0:
56,268,479182,2,0,L|64:336,2,60,2|0|0,3:0|0:0|0:0,0:0:0:0:
192,344,479651,2,0,P|248:324|312:336,1,120
400,348,480120,2,0,B|412:264|412:264|372:276,1,120,2|0,3:0|0:0,0:0:0:0:
288,232,480588,6,0,L|228:224,2,60,2|0|0,3:0|0:0|0:0,0:0:0:0:
400,348,481057,2,0,L|460:340,2,60,2|0|0,3:0|0:0|0:0,0:0:0:0:
236,328,481526,2,0,P|180:312|124:356,1,120,4|0,2:0|0:0,0:0:0:0:
116,360,481995,6,0,L|28:352,1,80,4|0,2:0|0:0,0:0:0:0:
8,232,482463,2,0,L|96:224,1,80
208,156,482932,2,0,P|212:108|200:60,1,80
36,28,483401,2,0,P|32:76|44:124,1,80
168,296,483870,6,0,P|208:268|284:304,1,120
288,300,484338,1,8,2:0:0:0:
368,344,484573,2,0,L|380:252,1,80
380,176,485041,1,0,0:0:0:0:
364,88,485276,2,0,L|352:-4,1,80
240,56,485745,6,0,P|184:40|128:76,1,120
120,88,486213,1,8,2:0:0:0:
36,144,486448,2,0,P|28:100|32:60,1,80
112,192,486916,1,0,0:0:0:0:
148,280,487151,2,0,P|150:319|142:358,1,80
112,192,487619,5,2,3:0:0:0:
128,176,487737,2,0,P|168:168|224:192,1,80,2|0,3:0|0:0,0:0:0:0:
224,188,488088,1,2,3:0:0:0:
312,224,488323,2,0,L|400:216,1,80,2|0,3:0|0:0,0:0:0:0:
464,152,488791,1,2,3:0:0:0:
440,344,489026,2,0,L|352:336,1,80,2|0,3:0|0:0,0:0:0:0:
244,292,489495,6,0,P|188:268|132:312,1,120,4|0,0:0|0:0,0:0:0:0:
128,312,489963,1,8,2:0:0:0:
96,212,490198,2,0,P|96:160|88:124,1,80
40,56,490666,1,0,0:0:0:0:
176,92,490901,2,0,P|224:88|268:72,1,80
404,40,491370,6,0,P|396:84|400:128,1,80
404,140,491721,1,0,0:0:0:0:
412,160,491838,2,0,P|420:204|416:248,1,80,8|0,2:0|0:0,0:0:0:0:
260,348,492307,2,0,P|252:304|256:260,1,80
296,136,492776,1,0,0:0:0:0:
296,136,493010,1,0,0:0:0:0:
212,184,493245,6,0,P|168:196|100:156,1,120
96,144,493713,2,0,L|88:64,1,80,8|0,2:0|0:0,0:0:0:0:
80,264,494182,2,0,L|72:344,1,80
12,212,494651,2,0,P|52:184|92:176,1,80
212,184,495120,6,0,P|260:192|304:176,1,80,2|0,3:0|0:0,0:0:0:0:
312,176,495471,1,2,3:0:0:0:
332,168,495588,2,0,P|380:160|424:176,1,80,2|0,3:0|0:0,0:0:0:0:
488,248,496057,5,0,0:0:0:0:
488,248,496174,1,0,0:0:0:0:
488,248,496291,1,0,0:0:0:0:
488,248,496409,1,0,0:0:0:0:
488,248,496526,1,8,2:0:0:0:
408,328,496760,1,0,0:0:0:0:
300,348,496995,5,4,0:3:0:0:
256,192,497112,12,2,500745,2:0:0:0:
148,316,515745,6,0,B|224:308|256:356|256:356|280:308|388:320,1,240,2|0,0:0|0:0,0:0:0:0:
440,148,516682,1,0,0:0:0:0:
496,216,516916,1,0,0:0:0:0:
394,224,517151,6,0,B|175:266|132:96|256:24|388:96|336:268|124:224,1,560,2|0,0:0|0:0,0:0:0:0:
136,120,519026,2,0,P|256:32|380:136,1,320,2|0,0:0|0:0,0:0:0:0:
456,172,520198,2,0,P|464:128|460:80,2,80
412,252,520901,2,0,P|410:291|418:331,1,80
339,360,521370,6,0,B|183:308|187:404|19:348,3,320,2|0|2|0,0:0|0:0|0:0|0:0,0:0:0:0:
25,350,525120,6,0,L|16:264,1,80,2|0,0:0|0:0,0:0:0:0:
152,240,525588,2,0,L|161:154,1,80,2|0,0:0|0:0,0:0:0:0:
96,60,526057,2,0,P|136:44|188:40,1,80,2|0,0:0|0:0,0:0:0:0:
340,188,526526,2,0,P|300:182|263:167,1,80,2|0,0:0|0:0,0:0:0:0:
436,132,526995,5,2,0:0:0:0:
256,192,527112,12,0,530510,0:0:0:0:
192,352,530745,6,0,L|96:344,1,80
112,172,531213,2,0,L|208:180,1,80,8|0,3:0|0:0,0:0:0:0:
340,196,531682,2,0,P|384:196|432:180,1,80
388,52,532151,2,0,P|344:52|296:68,1,80,8|0,3:0|0:0,0:0:0:0:
216,96,532620,1,0,0:0:0:0:
120,72,532854,6,0,L|32:64,2,80,0|8|0,0:0|3:0|0:0,0:0:0:0:
236,184,533557,2,0,L|324:176,2,80,0|0|8,0:0|0:0|3:0,0:0:0:0:
128,296,534260,2,0,L|40:288,1,80
180,372,534729,1,0,0:0:0:0:
180,372,534963,2,0,P|216:308|188:220,2,160,8|0|8,3:0|0:0|3:0,0:0:0:0:
308,312,536135,6,0,P|304:264|288:220,1,80
216,160,536604,2,0,L|136:152,2,80,0|8|0,0:0|3:0|0:0,0:0:0:0:
304,96,537307,2,0,L|384:88,2,80,0|0|8,0:0|0:0|3:0,0:0:0:0:
216,32,538010,1,0,0:0:0:0:
320,200,538245,6,0,P|372:216|436:168,1,120
440,168,538713,2,0,L|432:248,1,80,8|0,3:0|0:0,0:0:0:0:
360,336,539182,2,0,P|316:340|272:328,1,80
112,240,539651,2,0,P|150:231|190:236,1,80,8|0,3:0|0:0,0:0:0:0:
44,304,540120,6,0,P|24:264|52:176,1,120
48,172,540588,2,0,L|36:88,1,80,8|0,3:0|0:0,0:0:0:0:
24,12,541057,1,0,0:0:0:0:
24,12,541291,1,0,0:0:0:0:
112,48,541526,2,0,P|160:44|204:24,1,80,8|0,3:0|0:0,0:0:0:0:
288,92,541995,6,0,P|352:108|440:48,1,160,2|0,0:0|0:0,0:0:0:0:
348,20,542698,2,0,L|380:184,1,160,2|0,0:0|0:0,0:0:0:0:
468,236,543401,2,0,L|472:156,1,80,2|0,0:0|0:0,0:0:0:0:
408,320,543870,6,0,P|360:328|312:316,1,80,8|0,3:0|0:0,0:0:0:0:
248,180,544338,2,0,P|296:172|344:184,1,80,8|0,3:0|0:0,0:0:0:0:
224,336,544807,2,0,P|176:344|128:332,1,80,8|0,3:0|0:0,0:0:0:0:
64,196,545275,2,0,P|112:188|160:200,1,80,8|0,3:0|0:0,0:0:0:0:
300,264,545745,6,0,P|380:280|448:236,1,160,0|8,0:0|0:0,0:0:0:0:
500,304,546330,2,0,L|492:344,1,40
452,160,546682,2,0,L|464:68,1,80
360,176,547151,2,0,L|324:90,1,80,8|0,0:0|0:0,0:0:0:0:
236,104,547620,6,0,P|180:116|92:56,1,160,0|8,0:0|0:0,0:0:0:0:
16,56,548205,2,0,L|24:108,1,40
32,216,548557,2,0,L|24:308,1,80
128,208,549026,2,0,L|167:291,1,80,8|0,0:0|0:0,0:0:0:0:
260,332,549495,6,0,B|340:312|344:364|440:332,1,160,0|8,0:0|0:0,0:0:0:0:
504,304,550198,1,0,0:0:0:0:
424,240,550432,2,0,P|416:200|424:152,2,80,0|0|8,0:0|0:0|0:0,0:0:0:0:
480,104,551135,2,0,P|444:84|404:76,2,80
324,132,551838,1,8,0:0:0:0:
236,80,552073,1,0,0:0:0:0:
236,80,552190,1,0,0:0:0:0:
236,80,552307,2,0,P|184:80|144:96,1,80
180,252,552776,2,0,P|232:252|272:236,1,80,8|0,0:0|0:0,0:0:0:0:
460,296,553245,6,0,P|408:280|312:328,1,160,0|8,0:0|0:0,0:0:0:0:
244,376,553948,1,0,0:0:0:0:
160,332,554182,2,0,L|76:324,1,80
96,172,554651,2,0,L|180:180,1,80,8|0,0:0|0:0,0:0:0:0:
320,164,555120,6,0,P|340:120|288:12,1,160,0|8,0:0|0:0,0:0:0:0:
248,100,555823,1,0,0:0:0:0:
432,208,556057,2,0,L|440:120,1,80
320,352,556526,2,0,L|312:264,1,80,8|0,0:0|0:0,0:0:0:0:
200,196,556995,6,0,L|144:188,3,40,2|0|0|0,0:0|0:0|0:0|0:0,0:0:0:0:
104,264,557463,2,0,L|64:269,3,40,2|0|0|0,0:0|0:0|0:0|0:0,0:0:0:0:
20,184,557932,2,0,P|16:152|24:116,3,40,2|0|0|0,0:0|0:0|0:0|0:0,0:0:0:0:
88,80,558401,2,0,P|92:48|84:12,3,40,2|0|0|0,0:0|0:0|0:0|0:0,0:0:0:0:
188,156,558870,6,0,P|244:160|316:116,1,120,4|0,2:0|0:0,0:0:0:0:
276,56,559338,2,0,P|220:52|148:96,1,120,4|0,2:0|0:0,0:0:0:0:
107,152,559807,6,0,B|80:136|80:136|88:224,1,120,4|0,2:0|0:0,0:0:0:0:
204,316,560276,2,0,B|212:228|212:228|184:244,1,120,4|0,2:0|0:0,0:0:0:0:
100,352,560745,6,0,B|264:304|264:396|416:340,3,320,2|2|2|2,0:0|0:0|0:0|0:0,0:0:0:0:
484,188,564026,1,0,0:0:0:0:
392,76,564495,6,0,P|256:16|104:84,1,320,2|2,0:0|0:0,0:0:0:0:
107,80,567307,2,0,P|119:128|123:168,1,80
24,350,567776,2,0,P|29:310|40:272,1,80
122,158,568245,6,0,P|150:146|202:134,1,80,2|0,0:0|0:0,0:0:0:0:
152,276,568713,2,0,P|182:279|233:295,1,80,2|0,0:0|0:0,0:0:0:0:
320,360,569182,2,0,L|368:356,3,40,2|0|0|0,0:0|0:0|0:0|0:0,0:0:0:0:
420,292,569650,2,0,L|468:288,3,40,2|0|0|0,0:0|0:0|0:0|0:0,0:0:0:0:
488,208,570120,6,0,P|488:176|480:140,3,40,2|0|0|0,0:0|0:0|0:0|0:0,0:0:0:0:
392,136,570588,2,0,P|392:104|400:68,3,40,2|0|0|0,0:0|0:0|0:0|0:0,0:0:0:0:
440,28,571057,2,0,P|408:16|368:12,3,40,2|0|0|0,0:0|0:0|0:0|0:0,0:0:0:0:
304,52,571526,2,0,P|285:59|266:65,3,40,2|0|0|0,0:0|0:0|0:0|0:0,0:0:0:0:
176,104,571995,6,0,L|84:92,1,80
324,212,572463,2,0,L|416:200,1,80,8|0,2:0|0:0,0:0:0:0:
176,252,572932,2,0,L|84:240,1,80
332,356,573400,2,0,L|424:344,1,80,8|0,2:0|0:0,0:0:0:0:
492,280,573870,5,4,0:0:0:0:
324,212,574104,1,0,0:0:0:0:
404,248,574338,1,4,0:0:0:0:
400,160,574573,1,0,0:0:0:0:
480,192,574807,5,4,0:0:0:0:
484,168,574924,2,0,P|480:124|456:76,1,80,4|0,0:0|0:0,0:0:0:0:
344,24,575393,1,0,0:0:0:0:
344,24,575510,2,0,L|352:44,4,20
264,96,575979,6,0,P|216:92|180:76,2,80
368,136,576682,2,0,L|380:228,1,80,8|0,2:0|0:0,0:0:0:0:
376,236,577034,2,0,L|364:328,1,80
268,344,577502,1,0,0:0:0:0:
272,364,577620,1,8,2:0:0:0:
160,324,577854,6,0,P|116:324|76:336,2,80
220,252,578557,1,8,2:0:0:0:
224,232,578675,1,0,0:0:0:0:
160,144,578909,2,0,P|120:144|72:160,2,80
184,152,579495,1,8,2:0:0:0:
296,64,579729,6,0,P|336:64|384:80,2,80
188,60,580432,1,8,2:0:0:0:
184,40,580550,1,0,0:0:0:0:
80,128,580784,2,0,P|68:80|68:28,1,80
164,180,581252,1,0,0:0:0:0:
160,200,581370,1,8,2:0:0:0:
92,272,581604,6,0,L|8:264,2,80
200,308,582307,1,8,2:0:0:0:
212,324,582424,2,0,L|304:320,2,80
368,352,583127,5,0,0:0:0:0:
376,308,583245,1,8,2:0:0:0:
364,264,583362,1,0,3:0:0:0:
352,220,583479,5,0,3:0:0:0:
333,184,583596,1,0,3:0:0:0:
327,145,583713,1,0,3:0:0:0:
335,106,583830,1,0,3:0:0:0:
356,72,583948,5,0,3:0:0:0:
319,86,584065,1,0,3:0:0:0:
279,85,584182,1,0,3:0:0:0:
242,70,584299,1,0,3:0:0:0:
212,44,584416,5,0,3:0:0:0:
174,29,584533,1,0,3:0:0:0:
135,30,584650,1,0,3:0:0:0:
98,45,584767,1,0,3:0:0:0:
70,73,584885,5,0,3:0:0:0:
47,105,585002,1,0,3:0:0:0:
38,144,585119,1,0,3:0:0:0:
44,184,585236,1,0,3:0:0:0:
63,218,585354,5,0,3:0:0:0:
85,250,585471,1,0,3:0:0:0:
94,289,585588,1,0,3:0:0:0:
88,329,585705,1,0,3:0:0:0:
69,363,585823,5,0,3:0:0:0:
102,341,585940,1,0,3:0:0:0:
141,332,586057,1,0,3:0:0:0:
181,335,586174,1,0,3:0:0:0:
220,352,586291,5,0,3:0:0:0:
253,373,586408,1,0,3:0:0:0:
292,382,586525,1,0,3:0:0:0:
332,379,586642,1,0,3:0:0:0:
368,364,586760,1,0,0:0:0:0:
388,328,586877,1,0,0:0:0:0:
384,284,586995,6,0,L|380:248,7,20,2|0|0|0|0|0|0|0,0:0|0:0|0:0|0:0|0:0|0:0|0:0|0:0,0:0:0:0:
448,216,587463,2,0,L|452:180,7,20,2|0|0|0|0|0|0|0,0:0|0:0|0:0|0:0|0:0|0:0|0:0|0:0,0:0:0:0:
376,152,587932,2,0,L|372:116,7,20,2|0|0|0|0|0|0|0,0:0|0:0|0:0|0:0|0:0|0:0|0:0|0:0,0:0:0:0:
448,80,588401,2,0,L|452:44,7,20,2|0|0|0|0|0|0|0,0:0|0:0|0:0|0:0|0:0|0:0|0:0|0:0,0:0:0:0:
368,32,588870,5,0,0:0:0:0:
256,192,589104,12,4,590276,3:0:0:0:
288,96,590745,5,4,0:0:0:0:
200,144,590979,2,0,P|136:144|96:152,2,95.9999970703126,2|4|2,0:0|0:0|0:0,0:0:0:0:
284,216,591682,2,0,P|292:260|280:316,1,95.9999970703126,4|2,0:0|0:0,0:0:0:0:
224,360,592034,2,0,L|128:356,1,95.9999970703126,2|2,0:0|0:0,0:0:0:0:
32,240,592502,1,6,0:0:0:0:
40,264,592620,1,0,0:0:0:0:
104,144,592854,6,0,P|152:132|200:136,2,95.9999970703126,2|4|2,0:0|0:0|0:0,0:0:0:0:
320,44,593557,2,0,L|364:20,2,47.9999985351563,4|0|0,0:0|0:0|0:0,0:0:0:0:
240,60,593909,2,0,L|144:48,1,95.9999970703126,2|2,0:0|0:0,0:0:0:0:
28,16,594377,1,2,0:0:0:0:
36,40,594495,1,4,0:0:0:0:
104,184,594729,6,0,L|208:172,2,95.9999970703126,2|4|2,0:0|0:0|0:0,0:0:0:0:
28,332,595432,2,0,P|80:324|152:356,1,95.9999970703126,4|0,0:0|0:0,0:0:0:0:
192,368,595784,2,0,L|244:364,1,47.9999985351563,2|4,0:0|0:0,0:0:0:0:
308,324,596018,1,2,0:0:0:0:
420,368,596252,1,2,0:0:0:0:
424,340,596370,1,4,0:0:0:0:
388,224,596604,6,0,P|436:220|488:236,2,95.9999970703126,2|4|2,0:0|0:0|0:0,0:0:0:0:
268,256,597307,1,4,0:0:0:0:
240,252,597425,1,2,0:0:0:0:
132,360,597659,2,0,L|72:352,1,47.9999985351563,2|4,0:0|0:0,0:0:0:0:
28,300,597893,2,0,P|20:252|32:188,1,95.9999970703126,2|2,0:0|0:0,0:0:0:0:
56,132,598245,1,4,0:0:0:0:
192,152,598479,6,0,P|244:152|284:132,2,95.9999970703126,2|4|2,0:0|0:0|0:0,0:0:0:0:
252,44,599182,2,0,P|308:48|360:76,1,95.9999970703126,4|0,0:0|0:0,0:0:0:0:
400,120,599534,1,2,0:0:0:0:
312,340,599768,2,0,P|308:292|324:236,1,95.9999970703126,2|2,0:0|0:0,0:0:0:0:
356,184,600120,1,4,0:0:0:0:
412,360,600354,6,0,L|512:348,2,95.9999970703126,2|4|2,0:0|0:0|0:0,0:0:0:0:
232,312,601057,1,4,0:0:0:0:
236,284,601174,1,2,0:0:0:0:
152,180,601409,2,0,L|52:168,2,95.9999970703126,2|2|2,0:0|0:0|0:0,0:0:0:0:
244,156,601995,2,0,L|296:148,1,47.9999985351563,4|0,0:0|0:0,0:0:0:0:
368,96,602229,6,0,P|416:92|464:100,2,95.9999970703126,2|4|2,0:0|0:0|0:0,0:0:0:0:
152,180,602932,1,4,0:0:0:0:
312,272,603166,1,0,0:0:0:0:
312,272,603284,2,0,P|312:300|304:336,1,47.9999985351563,2|4,0:0|0:0,0:0:0:0:
240,368,603518,2,0,L|144:360,1,95.9999970703126,2|2,0:0|0:0,0:0:0:0:
76,312,603870,5,6,0:0:0:0:
36,76,604104,5,2,0:0:0:0:
124,97,604338,1,2,0:0:0:0:
212,120,604573,1,2,0:0:0:0:
291,77,604807,5,2,0:0:0:0:
291,77,604924,1,2,0:0:0:0:
380,56,605159,1,2,0:0:0:0:
468,36,605393,1,2,0:0:0:0:
444,128,605627,5,2,0:0:0:0:
