osu file format v14

[General]
AudioFilename: dzeko & torres - 2013 in 10 minutes.mp3
AudioLeadIn: 0
PreviewTime: 75075
Countdown: 0
SampleSet: Normal
StackLeniency: 0.7
Mode: 0
LetterboxInBreaks: 1
EpilepsyWarning: 1
WidescreenStoryboard: 1

[Editor]
DistanceSpacing: 1.5
BeatDivisor: 4
GridSize: 4
TimelineZoom: 1.4

[Metadata]
Title:2013 In 10 Minutes
TitleUnicode:2013 In 10 Minutes
Artist:Dzeko & Torres
ArtistUnicode:Dzeko & Torres
Creator:BoatKrab
Version:Marathon
Source:
Tags:House Trance Electro Progressive Remix Acapella Instrumental Calvin Harris Ellie Goulding Need Love Nicky Romero Alesso One Republic Lose Myself Lana Del Rey Young Beautiful Kaskade Symphonica Burn Tiesto Steve Angello Matisse Sadko SLVR Sebjak Marcus Schossow Liceu Krewella Legacy Arno Cost Chasing R3hab Quintino Atmosphere Moguai Dimitri Vegas Like Mike Mammoth Hard Rock Sofa Rasputin Summertime Sadness David Guetta GLOWINTHEDARK Fatboy Slim Eat Sleep Rave Repeat Thomas Newson New World Sound Flute Knife LRAD Tommy Trash Aston Shuffle Sunrise GTA Henrix Digital Lab Hit It Showtek Get Loose Martik Garrix Animals Zedd Lucky Date Fall Into The Sky Alive Dannic Clobber Wakanda Deorro Yee TJR Suckaz Don Diablo Matt Nash Starlight Chuckie Down This W&W Ummet Ozcan Code Hardwell MakJ Countdown DVBBS Borgeous Tsunami Avicii Aloe Blacc Wake Party Axwell Center Universe Capital Cities Safe Booyah Armin Van Buuren Trevore Guthrie What Feels Dyro Paradise Apollo Clarity Alvaro Mercer Lil Jon
BeatmapID:465744
BeatmapSetID:196338

[Difficulty]
HPDrainRate:7
CircleSize:4
OverallDifficulty:7.5
ApproachRate:8.5
SliderMultiplier:1.2
SliderTickRate:2

[Events]
//Background and Video events
0,0,"88349.jpg",0,0
//Break Periods
2,109926,116493
2,162019,168586
2,206671,212052
2,251322,265331
2,403880,410912
2,563880,574843
//Storyboard Layer 0 (Background)
//Storyboard Layer 1 (Fail)
//Storyboard Layer 2 (Pass)
//Storyboard Layer 3 (Foreground)
//Storyboard Sound Samples

[TimingPoints]
1820,465.116279069767,4,2,0,30,1,0
46474,-100,4,2,1,45,0,0
61354,-100,4,2,2,45,0,0
73447,-50,4,2,2,45,0,0
74378,-133.333333333333,4,2,2,45,0,0
76238,-66.6666666666667,4,1,1,45,0,1
76703,-100,4,1,1,45,0,1
82750,-100,4,2,1,45,0,0
83680,-100,4,1,1,45,0,1
91122,-100,4,2,0,45,0,0
139494,-66.6666666666667,4,2,0,55,0,0
146471,-66.6666666666667,4,1,0,55,0,0
146936,-66.6666666666667,4,1,0,45,0,1
161819,-100,4,2,0,45,0,0
169261,-100,4,2,0,15,0,0
172982,-100,4,2,0,25,0,0
175773,-100,4,2,0,35,0,0
176238,-80,4,1,1,45,0,0
176703,-100,4,1,0,45,0,0
230192,-100,4,2,0,40,0,0
230424,-100,4,1,0,45,0,0
234378,-100,4,1,0,20,0,0
236238,-100,4,2,0,45,0,0
266006,-100,4,1,0,45,0,0
276703,-66.6666666666667,4,1,0,45,0,0
277168,-100,4,1,0,45,0,0
280889,-100,4,3,0,60,0,0
284145,-50,4,3,0,60,0,0
284378,-100,4,3,0,60,0,0
299494,-100,4,2,0,45,0,0
308794,-100,4,2,0,20,0,0
310192,-66.6666666666667,4,2,0,50,0,0
311122,-100,4,1,0,45,0,1
317633,-100,4,1,0,45,0,0
318099,-100,4,1,0,45,0,1
325308,-100,4,2,0,45,0,0
325540,-100,4,2,0,45,0,1
329261,-100,4,2,0,45,0,0
362052,-66.6666666666667,4,2,0,45,0,0
362750,-100,4,2,0,45,0,0
373913,-100,4,1,0,25,0,0
389261,-100,4,1,0,45,0,0
411587,-100,4,2,0,45,0,0
440424,-66.6666666666667,4,2,0,45,0,0
440889,-100,4,2,0,45,0,0
447866,-66.6666666666667,4,2,0,45,0,0
448331,-100,4,2,0,55,0,0
461354,-100,4,2,0,45,0,0
462750,-66.6666666666667,4,2,0,45,0,0
463215,-100,4,2,0,45,0,0
469959,-66.6666666666667,4,2,0,45,0,0
470657,-100,4,1,0,45,0,1
473913,-66.6666666666667,4,1,0,45,0,1
474378,-100,4,1,0,45,0,1
476238,-66.6666666666667,4,1,0,45,0,1
477750,-50,4,1,0,45,0,1
478099,-100,4,2,0,45,0,0
478564,-100,4,2,0,40,0,0
479029,-100,4,2,0,35,0,0
479494,-100,4,2,0,30,0,0
479959,-100,4,2,0,25,0,0
480424,-100,4,2,0,20,0,0
496703,-100,4,1,0,25,0,0
510889,-100,4,1,0,50,0,0
511587,-100,4,1,1,65,0,1
512517,-100,4,1,1,65,0,0
513215,-100,4,1,1,65,0,1
518564,-100,4,1,1,65,0,0
519029,-100,4,1,1,65,0,1
520424,-100,4,1,1,65,0,0
520657,-100,4,1,1,65,0,1
526006,-100,4,1,1,65,0,0
526471,-100,4,1,1,65,0,1
526703,-100,4,1,1,45,0,0
541354,-66.6666666666667,4,1,1,45,0,1
546936,-100,4,1,1,45,0,0
548796,-100,4,1,1,45,0,1
554378,-100,4,1,1,45,0,0
556238,-100,4,1,1,45,0,1
556354,-100,4,2,1,45,0,1
558099,-100,4,2,1,45,0,0
593447,-100,4,2,1,30,0,0
593564,-100,4,2,1,45,0,0
596238,-100,4,1,1,25,0,0
607866,-50,4,1,1,45,0,0
608331,-100,4,1,1,45,0,0
621354,-100,4,1,1,25,0,0
623215,-100,4,1,1,65,0,1
630192,-100,4,1,1,45,0,0
630657,-100,4,1,1,65,0,1
636238,-100,4,1,1,65,0,0
638099,-100,4,1,1,45,0,1
641819,-100,4,2,1,45,0,0

[Colours]
Combo1 : 136,136,0
Combo2 : 1,166,254
Combo3 : 27,67,228
Combo4 : 192,192,192

[HitObjects]
184,264,1820,5,4,0:0:0:0:
184,264,2285,2,0,P|132:292|108:360,2,120,0|0|0,0:0|0:0|0:0,0:0:0:0:
328,264,3680,1,4,0:0:0:0:
328,264,4145,2,0,P|356:316|424:340,2,120,0|0|0,0:0|0:0|0:0,0:0:0:0:
328,120,5540,1,4,0:0:0:0:
328,120,6006,2,0,P|380:92|404:24,2,120,0|0|0,0:0|0:0|0:0,0:0:0:0:
184,120,7401,2,4,P|156:68|48:92,2,180,4|4|4,0:0|0:0|0:0,0:0:0:0:
112,128,9261,1,0,0:0:0:0:
112,128,9726,6,0,L|92:200,1,60,2|0,0:0|0:0,0:0:0:0:
152,232,10192,2,0,L|168:304,1,60,0|0,0:0|0:0,0:0:0:0:
104,332,10657,1,0,0:0:0:0:
394,308,11122,2,0,L|336:320,1,60,2|0,0:0|0:0,0:0:0:0:
440,252,11587,2,0,L|458:195,1,60,0|0,0:0|0:0,0:0:0:0:
380,316,12052,2,0,L|321:327,1,60,2|0,0:0|0:0,0:0:0:0:
428,236,12517,2,0,L|446:179,1,60,0|0,0:0|0:0,0:0:0:0:
336,236,12982,1,0,0:0:0:0:
336,236,13447,6,0,P|300:240|264:236,1,60,2|0,0:0|0:0,0:0:0:0:
176,148,13913,2,0,P|212:144|248:148,1,60,0|0,0:0|0:0,0:0:0:0:
336,236,14378,1,0,0:0:0:0:
336,236,14843,6,0,L|368:96,1,120,4|0,0:0|0:0,0:0:0:0:
264,28,15541,2,0,L|232:168,1,120,4|0,0:0|0:0,0:0:0:0:
336,236,16238,1,0,0:0:0:0:
237,144,16471,1,0,0:0:0:0:
176,212,16703,6,0,P|112:224|60:196,1,120,2|0,0:0|0:0,0:0:0:0:
336,236,17401,1,0,0:0:0:0:
336,235,17633,2,0,P|393:223|447:247,1,120,2|0,0:0|0:0,0:0:0:0:
296,316,18331,1,0,0:0:0:0:
296,316,18564,2,0,L|104:332,1,180,2|0,0:0|0:0,0:0:0:0:
72,252,19494,2,0,P|64:216|72:188,1,60,2|0,0:0|0:0,0:0:0:0:
144,144,19959,2,0,L|216:136,1,60
320,68,20424,5,0,0:0:0:0:
360,196,20657,1,0,0:0:0:0:
436,84,20889,1,0,0:0:0:0:
292,240,21122,2,0,P|336:276|400:268,2,120,2|0|0,0:0|0:0|0:0,0:0:0:0:
232,308,22285,1,2,0:0:0:0:
192,132,22517,1,0,0:0:0:0:
148,208,22750,1,2,0:0:0:0:
292,240,22983,1,0,0:0:0:0:
292,240,23447,6,0,L|304:172,1,60
148,208,23913,1,0,0:0:0:0:
147,208,24145,2,0,P|90:221|34:201,1,120,2|0,0:0|0:0,0:0:0:0:
240,172,24843,2,0,P|297:158|352:180,1,120,2|2,0:0|0:0,0:0:0:0:
292,240,25540,1,0,0:0:0:0:
432,312,25773,1,0,0:0:0:0:
468,180,26006,2,0,L|480:48,1,120,2|0,0:0|0:0,0:0:0:0:
292,240,26703,2,0,P|232:256|160:224,1,120,2|2,0:0|0:0,0:0:0:0:
108,280,27401,1,0,0:0:0:0:
236,180,27633,1,2,0:0:0:0:
156,88,27866,6,0,L|36:96,1,120,2|0,0:0|0:0,0:0:0:0:
248,292,28564,2,0,P|261:234|238:181,1,120,2|2,0:0|0:0,0:0:0:0:
188,344,29261,1,0,0:0:0:0:
188,344,29494,1,0,0:0:0:0:
156,156,29726,2,0,P|196:108|264:104,1,120,2|0,0:0|0:0,0:0:0:0:
360,156,30424,2,0,L|376:280,1,120,2|2,0:0|0:0,0:0:0:0:
188,344,31122,1,0,0:0:0:0:
260,264,31354,1,2,0:0:0:0:
100,272,31587,6,0,P|84:212|112:148,1,120,2|0,0:0|0:0,0:0:0:0:
196,92,32285,1,0,0:0:0:0:
196,92,32517,2,0,B|248:96|264:136|264:136|296:116,1,120,2|0,0:0|0:0,0:0:0:0:
392,176,33215,1,0,0:0:0:0:
392,176,33447,2,0,L|404:248,2,60,2|0|0,0:0|0:0|0:0,0:0:0:0:
324,332,34145,1,0,0:0:0:0:
324,332,34378,2,0,L|236:344,1,60,2|0,0:0|0:0,0:0:0:0:
160,300,34843,2,0,P|130:296|100:297,1,60,2|0,0:0|0:0,0:0:0:0:
252,236,35308,6,0,P|276:180|256:128,1,120,2|0,0:0|0:0,0:0:0:0:
352,68,36006,1,0,0:0:0:0:
352,68,36238,2,0,B|408:80|440:28|440:28|472:100,1,180,2|0,0:0|0:0,0:0:0:0:
396,184,37168,1,2,0:0:0:0:
300,248,37401,1,0,0:0:0:0:
188,256,37633,1,0,0:0:0:0:
312,260,37866,1,2,0:0:0:0:
168,244,38099,6,0,L|160:176,1,60,2|0,0:0|0:0,0:0:0:0:
312,260,38564,2,0,P|320:296|312:328,1,60
98,125,39029,2,0,P|151:100|208:116,1,120,2|0,0:0|0:0,0:0:0:0:
312,260,39726,1,0,0:0:0:0:
311,259,39959,2,0,P|368:275|421:250,1,120,2|0,0:0|0:0,0:0:0:0:
232,220,40657,1,0,0:0:0:0:
232,220,40889,2,0,L|152:236,2,60,2|0|0,0:0|0:0|0:0,0:0:0:0:
232,220,41819,1,2,0:0:0:0:
232,220,42285,5,0,0:0:0:0:
384,120,42517,1,0,0:0:0:0:
476,276,42750,1,2,0:0:0:0:
256,192,42866,12,0,46006,0:0:0:0:
176,140,46471,6,0,L|112:136,1,60,2|0,0:0|0:0,0:0:0:0:
336,244,46936,2,0,L|400:248,1,60,2|0,0:0|0:0,0:0:0:0:
204,272,47401,1,2,0:0:0:0:
308,112,47633,1,0,0:0:0:0:
316,100,47750,1,0,0:0:0:0:
324,88,47866,2,0,P|332:56|324:24,1,60,2|0,0:0|0:0,0:0:0:0:
232,140,48331,2,0,P|268:184|328:192,1,120,2|2,0:0|0:0,0:0:0:0:
204,272,49029,1,0,0:0:0:0:
204,272,49261,2,0,L|120:280,1,60,2|0,0:0|0:0,0:0:0:0:
132,288,49610,1,0,0:0:0:0:
120,296,49726,1,2,0:0:0:0:
327,192,49959,5,0,0:0:0:0:
327,192,50192,2,0,P|370:231|379:290,1,120,2|2,0:0|0:0,0:0:0:0:
240,164,50889,1,0,0:0:0:0:
240,164,51122,2,0,L|164:160,1,60,2|0,0:0|0:0,0:0:0:0:
164,160,51471,1,0,0:0:0:0:
148,160,51587,1,2,0:0:0:0:
88,220,51819,1,0,0:0:0:0:
88,220,52052,2,0,L|100:348,2,120,2|2|2,0:0|0:0|0:0,0:0:0:0:
152,76,53447,2,0,L|248:80,1,90,2|0,0:0|0:0,0:0:0:0:
280,104,53913,6,0,P|292:164|272:232,1,120,2|2,0:0|0:0,0:0:0:0:
152,272,54610,1,0,0:0:0:0:
152,272,54843,1,2,0:0:0:0:
152,272,55308,2,0,L|272:292,2,120,2|2|2,0:0|0:0|0:0,0:0:0:0:
92,208,56471,2,0,P|88:176|96:144,1,60,0|2,0:0|0:0,0:0:0:0:
176,112,56936,1,0,0:0:0:0:
188,100,57052,2,0,L|212:68,1,30,0|2,0:0|0:0,0:0:0:0:
276,144,57401,1,0,0:0:0:0:
352,192,57633,6,0,P|376:272|372:284,1,90,2|0,0:0|0:0,0:0:0:0:
372,288,58099,2,0,L|312:304,1,60,2|0,0:0|0:0,0:0:0:0:
236,352,58564,1,2,0:0:0:0:
152,192,58796,1,0,0:0:0:0:
152,192,58912,1,0,0:0:0:0:
152,192,59028,1,4,3:0:0:0:
304,96,59261,1,0,0:0:0:0:
316,104,59494,2,0,L|324:196,1,90,2|0,0:0|0:0,0:0:0:0:
316,208,59959,2,0,P|280:216|248:240,1,60,2|0,0:0|0:0,0:0:0:0:
196,292,60424,5,2,0:0:0:0:
116,132,60657,1,0,0:0:0:0:
108,120,60774,2,0,L|93:93,1,30,0|8,0:0|3:0,0:0:0:0:
92,252,61122,1,0,0:0:0:0:
196,292,61354,5,8,3:3:0:0:
276,248,61587,1,0,0:0:0:0:
356,288,61819,1,0,0:0:0:0:
448,284,62052,1,8,0:3:0:0:
448,100,62285,5,8,0:3:0:0:
356,96,62518,1,0,0:0:0:0:
276,136,62750,1,8,3:0:0:0:
196,92,62983,1,0,0:0:0:0:
196,292,63215,6,0,L|210:350,1,60,8|0,0:3|0:0,0:0:0:0:
276,248,63680,2,0,L|261:189,1,60,0|8,0:0|0:3,0:0:0:0:
196,92,64145,2,0,L|124:104,1,60,8|0,0:3|0:0,0:0:0:0:
276,136,64610,2,0,L|348:124,1,60,8|0,3:0|0:0,0:0:0:0:
228,220,65075,1,8,0:3:0:0:
148,172,65308,1,0,0:0:0:0:
196,92,65540,1,0,0:0:0:0:
276,136,65773,1,8,0:3:0:0:
148,260,66006,1,8,0:3:0:0:
112,92,66238,1,0,0:0:0:0:
272,48,66471,1,8,3:0:0:0:
316,216,66703,1,0,0:0:0:0:
148,260,66936,6,0,L|68:284,1,60,8|0,0:3|0:0,0:0:0:0:
316,216,67401,2,0,L|340:296,1,60,0|8,0:0|0:3,0:0:0:0:
272,48,67866,1,8,0:3:0:0:
428,136,68099,1,0,0:0:0:0:
432,152,68215,2,0,L|448:200,1,30,0|8,0:0|3:0,0:0:0:0:
428,268,68564,1,0,0:0:0:0:
360,324,68796,5,0,0:0:0:0:
348,332,68913,1,0,0:0:0:0:
336,340,69029,1,0,0:0:0:0:
320,344,69145,1,0,0:0:0:0:
304,348,69261,1,2,0:3:0:0:
288,352,69378,1,0,0:0:0:0:
272,352,69494,1,0,0:0:0:0:
256,352,69610,1,0,0:0:0:0:
240,352,69726,1,0,0:0:0:0:
224,348,69843,1,0,0:0:0:0:
208,344,69959,1,0,0:0:0:0:
196,340,70075,1,0,0:0:0:0:
184,332,70192,2,0,P|148:312|124:280,1,60,8|0,3:0|0:0,0:0:0:0:
152,60,70657,5,0,0:0:0:0:
164,52,70774,1,0,0:0:0:0:
176,44,70890,1,0,0:0:0:0:
192,40,71006,1,0,0:0:0:0:
208,36,71122,1,2,3:0:0:0:
224,32,71239,1,0,0:0:0:0:
240,32,71355,1,0,0:0:0:0:
256,32,71471,1,0,0:0:0:0:
272,32,71587,1,0,0:0:0:0:
288,36,71704,1,0,0:0:0:0:
304,40,71820,1,0,0:0:0:0:
316,44,71936,1,0,0:0:0:0:
328,52,72053,2,0,P|364:72|388:104,1,60,8|0,3:0|0:0,0:0:0:0:
420,164,72517,6,0,L|432:208,3,30,0|0|0|0,0:0|0:0|0:0|0:0,0:0:0:0:
356,228,72982,2,0,L|368:272,3,30,2|0|0|0,0:3|0:0|0:0|0:0,0:0:0:0:
292,296,73447,6,0,L|304:340,7,30,0|0|0|0|0|0|0|0,0:0|0:0|0:0|0:0|0:0|0:0|0:0|0:0,0:0:0:0:
207,296,73913,2,0,L|200:268,7,30,2|0|0|0|0|0|0|0,0:3|0:0|0:0|0:0|0:0|0:0|0:0|0:0,0:0:0:0:
192,312,74378,6,0,P|120:316|72:220,1,180.000006866455
80,216,75773,2,0,L|72:128,1,67.5000025749207
104,116,76238,6,0,P|192:96|232:8,1,180.000006866455,4|0,0:0|0:0,0:0:0:0:
292,216,76936,1,0,0:0:0:0:
336,88,77168,1,0,0:0:0:0:
252,128,77401,1,0,0:0:0:0:
332,288,77633,6,0,P|264:292|220:256,1,120,2|0,3:0|0:0,0:0:0:0:
336,88,78331,2,0,L|404:100,1,60,0|8,0:0|0:3,0:0:0:0:
252,128,78796,2,0,L|176:108,1,60
108,140,79261,1,0,0:0:0:0:
180,192,79494,1,2,3:0:0:0:
252,128,79726,1,0,0:0:0:0:
324,180,79959,6,0,P|372:236|372:296,1,120,0|8,0:0|0:3,0:0:0:0:
292,308,80657,1,0,0:0:0:0:
292,308,80889,1,0,0:0:0:0:
180,192,81122,1,0,0:0:0:0:
180,192,81354,1,2,3:3:0:0:
180,192,81819,2,0,L|108:200,2,60,0|0|8,0:0|0:0|0:3,0:0:0:0:
204,280,82517,1,0,0:0:0:0:
292,308,82750,5,4,3:0:0:0:
356,244,82983,1,4,3:0:0:0:
276,136,83215,1,0,0:0:0:0:
340,72,83448,1,4,3:0:0:0:
204,280,83680,6,0,P|140:288|84:240,1,120,4|2,0:0|3:0,0:0:0:0:
276,136,84378,2,0,L|335:141,1,60
192,172,84843,1,0,0:0:0:0:
191,171,85075,2,0,P|184:113|220:67,1,120,8|0,0:3|0:0,0:0:0:0:
308,40,85773,2,0,L|376:40,1,60,0|2,0:0|3:0,0:0:0:0:
112,216,86238,2,0,L|52:216,1,60
164,292,86703,1,0,0:0:0:0:
244,132,86936,1,8,0:3:0:0:
292,208,87168,1,0,0:0:0:0:
163,92,87401,6,0,P|105:89|64:47,1,120,0|2,0:0|3:3,0:0:0:0:
292,208,88099,2,0,L|372:208,1,60
164,292,88564,1,0,0:0:0:0:
244,132,88796,2,0,P|304:128|352:92,1,120,8|8,0:3|0:0,0:0:0:0:
424,144,89494,1,0,0:0:0:0:
428,160,89610,1,0,0:0:0:0:
432,176,89726,1,8,0:0:0:0:
380,256,89959,1,0,0:0:0:0:
304,316,90192,5,8,0:0:0:0:
288,320,90308,1,8,0:0:0:0:
272,324,90424,1,8,0:0:0:0:
256,328,90540,1,8,0:0:0:0:
240,332,90657,1,8,0:0:0:0:
168,276,90889,1,8,0:0:0:0:
160,264,91006,1,8,0:0:0:0:
152,252,91122,1,4,0:0:0:0:
152,252,92982,5,0,0:0:0:0:
196,88,93447,1,8,0:0:0:0:
360,132,93913,1,2,0:0:0:0:
316,296,94378,1,8,0:0:0:0:
152,252,94843,5,0,0:0:0:0:
196,88,95308,1,8,0:0:0:0:
360,132,95773,2,0,P|420:120|452:72,2,120,2|8|0,0:0|0:0|0:0,0:0:0:0:
316,296,97168,2,0,L|196:312,1,120,8|2,0:0|0:0,0:0:0:0:
124,288,97866,1,0,0:0:0:0:
116,276,97982,1,0,0:0:0:0:
108,264,98099,2,0,P|100:232|108:200,1,60,8|0,0:0|0:0,0:0:0:0:
184,160,98564,6,0,P|204:104|180:44,2,120,0|8|2,0:0|0:0|0:0,0:0:0:0:
236,232,99726,1,0,0:0:0:0:
296,168,99959,1,8,0:0:0:0:
348,292,100192,1,0,0:0:0:0:
416,124,100424,2,0,L|432:252,2,120,0|8|2,0:0|0:0|0:0,0:0:0:0:
296,168,101587,2,0,P|260:184|220:180,1,60,0|8,0:0|0:0,0:0:0:0:
348,292,102052,1,0,0:0:0:0:
348,292,102285,6,0,L|496:304,2,120,0|8|0,0:0|0:0|0:0,0:0:0:0:
260,316,103447,2,0,P|220:320|184:308,1,60,0|8,0:0|0:0,0:0:0:0:
124,268,103913,2,0,L|64:274,1,60,0|2,0:0|0:0,0:0:0:0:
204,228,104378,1,0,0:0:0:0:
204,228,104610,2,0,P|220:172|196:112,1,120,8|0,0:0|0:0,0:0:0:0:
108,112,105308,1,0,0:0:0:0:
100,100,105424,2,0,L|80:64,1,30,0|8,0:0|0:0,0:0:0:0:
276,68,105773,1,8,0:0:0:0:
352,120,106006,5,0,0:0:0:0:
420,180,106238,1,0,0:0:0:0:
348,296,106471,1,8,0:0:0:0:
416,356,106703,1,0,0:0:0:0:
352,120,106936,1,0,0:0:0:0:
292,188,107168,1,0,0:0:0:0:
176,120,107401,1,8,0:0:0:0:
124,196,107634,1,0,0:0:0:0:
256,192,107866,12,4,109726,0:0:0:0:
171,224,117168,6,0,P|113:232|64:200,1,120
244,168,117866,1,2,0:0:0:0:
244,168,118099,2,0,L|255:226,1,60,0|2,0:0|0:0,0:0:0:0:
324,124,118564,2,0,L|312:65,1,60,0|2,0:0|0:0,0:0:0:0:
212,309,119029,2,0,P|271:315|324:288,2,120,0|0|0,0:0|0:0|0:0,0:0:0:0:
156,240,120192,1,2,0:0:0:0:
100,168,120424,2,0,L|40:168,1,60,0|2,0:0|0:0,0:0:0:0:
188,152,120889,6,0,P|216:128|224:104,1,60
312,92,121354,2,0,P|336:120|360:128,1,60,0|0,0:0|0:0,0:0:0:0:
372,216,121819,2,0,P|344:240|336:264,1,60,0|2,0:0|0:0,0:0:0:0:
248,284,122285,2,0,P|224:256|200:248,1,60,0|2,0:0|0:0,0:0:0:0:
144,180,122750,1,0,0:0:0:0:
280,208,122982,1,0,0:0:0:0:
156,268,123215,1,0,0:0:0:0:
224,140,123448,1,0,0:0:0:0:
248,284,123680,6,0,B|280:276|306:286|306:286|336:296|368:288,1,120
424,220,124378,1,2,0:3:0:0:
432,208,124494,1,2,0:3:0:0:
440,196,124610,2,0,P|448:164|440:136,1,60,8|8,0:0|0:0,0:0:0:0:
248,284,125075,2,0,P|192:284|140:240,1,120,8|8,0:0|0:0,0:0:0:0:
84,312,125773,1,8,0:0:0:0:
80,328,125889,1,8,0:0:0:0:
76,344,126006,1,8,0:0:0:0:
220,204,126238,5,0,0:0:0:0:
160,136,126471,2,0,L|96:136,1,60,8|0,0:0|0:0,0:0:0:0:
288,264,126936,2,0,L|352:264,1,60,8|0,0:0|0:0,0:0:0:0:
296,136,127401,2,0,P|300:104|292:76,1,60,8|0,0:0|0:0,0:0:0:0:
156,268,127866,2,0,P|152:300|160:328,1,60,8|0,0:0|0:0,0:0:0:0:
288,264,128331,1,8,0:0:0:0:
352,200,128564,1,0,0:0:0:0:
352,200,128680,1,0,0:0:0:0:
352,200,128796,1,8,0:0:0:0:
156,268,129029,6,0,L|96:268,1,60,0|8,0:0|0:0,0:0:0:0:
96,176,129494,2,0,L|156:176,1,60,0|8,0:0|0:0,0:0:0:0:
208,100,129959,2,0,P|200:72|212:40,1,60,0|8,0:0|0:0,0:0:0:0:
302,43,130424,2,0,P|311:71|304:100,1,60,0|8,0:0|0:0,0:0:0:0:
268,184,130889,1,0,0:0:0:0:
356,164,131122,1,8,0:0:0:0:
264,276,131354,1,2,0:0:0:0:
264,276,131470,1,2,0:0:0:0:
264,276,131586,2,0,P|232:272|208:252,1,60,8|0,0:0|0:0,0:0:0:0:
256,192,132052,12,0,135308,0:0:0:0:
312,264,135773,6,0,P|256:280|196:260,1,120,4|0,0:0|0:0,0:0:0:0:
256,192,136471,1,0,0:0:0:0:
198,122,136703,2,0,P|255:104|312:120,1,120,4|0,0:0|0:0,0:0:0:0:
380,176,137401,1,0,0:0:0:0:
256,192,137633,1,4,1:1:0:0:
112,316,139494,6,0,L|96:216,1,90.0000034332277,4|0,0:0|0:0,0:0:0:0:
164,164,139959,1,0,0:0:0:0:
164,164,140075,1,0,0:0:0:0:
232,220,140308,2,0,P|276:232|332:216,1,90.0000034332277,0|0,0:0|0:0,0:0:0:0:
340,212,140657,1,0,0:0:0:0:
376,296,140889,1,0,0:0:0:0:
376,296,141006,1,0,0:0:0:0:
376,296,141122,1,2,0:0:0:0:
164,164,141354,6,0,P|108:172|64:156,1,90.0000034332277,0|0,0:0|0:0,0:0:0:0:
340,212,141819,1,0,0:0:0:0:
340,212,141936,2,0,P|396:204|440:220,2,90.0000034332277,0|0|0,0:0|0:0|0:0,0:0:0:0:
316,248,142517,1,0,0:0:0:0:
120,96,142750,1,0,0:0:0:0:
120,96,142866,1,0,0:0:0:0:
120,96,142982,1,2,0:0:0:0:
192,148,143215,6,0,L|208:252,1,90.0000034332277
316,248,143680,1,0,0:0:0:0:
316,248,143796,2,0,L|300:152,2,90.0000034332277,0|0|0,0:0|0:0|0:0,0:0:0:0:
300,292,144378,1,0,0:0:0:0:
120,96,144610,1,0,0:0:0:0:
120,96,144726,1,0,0:0:0:0:
120,96,144842,1,2,0:0:0:0:
343,107,145075,6,0,P|300:115|256:108,1,90.0000034332277
192,172,145540,1,0,0:0:0:0:
192,172,145657,1,0,0:0:0:0:
192,172,145773,1,0,0:0:0:0:
112,212,146006,2,0,P|104:252|128:300,1,90.0000034332277
212,328,146471,2,0,L|276:320,2,60.0000022888184,2|2|2,0:1|0:1|0:1,1:0:0:0:
139,186,146936,6,0,L|228:168,1,90.0000034332277,12|0,0:0|0:0,0:0:0:0:
284,100,147401,1,8,0:0:0:0:
284,100,147517,1,0,0:0:0:0:
228,168,147750,2,0,P|216:212|232:268,1,90.0000034332277,8|0,0:0|0:0,0:0:0:0:
236,276,148099,1,8,0:0:0:0:
152,312,148331,1,8,0:0:0:0:
152,312,148448,1,8,0:0:0:0:
152,312,148564,1,2,0:0:0:0:
284,100,148796,6,0,P|276:44|292:0,1,90.0000034332277,8|0,0:0|0:0,0:0:0:0:
236,276,149261,1,8,0:0:0:0:
236,276,149378,2,0,P|244:332|228:376,2,90.0000034332277,0|8|0,0:0|0:0|0:0,0:0:0:0:
200,252,149959,1,8,0:0:0:0:
352,56,150192,1,8,0:0:0:0:
352,56,150308,1,8,0:0:0:0:
352,56,150424,1,2,0:0:0:0:
300,128,150657,6,0,L|196:144,1,90.0000034332277,8|0,0:0|0:0,0:0:0:0:
200,252,151122,1,8,0:0:0:0:
200,252,151238,2,0,L|296:236,2,90.0000034332277,0|8|0,0:0|0:0|0:0,0:0:0:0:
156,236,151820,1,8,0:0:0:0:
352,56,152052,1,8,0:0:0:0:
352,56,152168,1,0,0:0:0:0:
352,56,152284,1,2,0:0:0:0:
341,279,152517,6,0,P|333:236|340:192,1,90.0000034332277,8|0,0:0|0:0,0:0:0:0:
276,128,152982,1,8,0:0:0:0:
276,128,153099,1,0,0:0:0:0:
276,128,153215,1,0,0:0:0:0:
236,48,153447,2,0,P|192:40|140:56,1,90.0000034332277,0|8,0:0|0:0,0:0:0:0:
76,164,153913,2,0,L|81:208,2,45.0000017166138,8|8|2,0:0|0:0|0:0,0:0:0:0:
132,288,154378,6,0,P|192:292|228:268,1,90.0000034332277,8|0,0:0|0:0,0:0:0:0:
276,128,154843,1,8,0:0:0:0:
276,128,154959,2,0,L|292:224,2,90.0000034332277,0|8|0,0:0|0:0|0:0,0:0:0:0:
304,92,155540,1,8,0:0:0:0:
128,60,155773,1,8,0:0:0:0:
128,60,155889,1,8,0:0:0:0:
128,60,156005,1,2,0:0:0:0:
304,92,156238,6,0,P|347:83|374:48,1,90.0000034332277,8|0,0:0|0:0,0:0:0:0:
208,188,156702,1,8,0:0:0:0:
208,188,156819,2,0,P|160:200|120:184,2,90.0000034332277,0|8|0,0:0|0:0|0:0,0:0:0:0:
336,228,157401,2,0,L|360:316,1,90.0000034332277,8|8,0:0|0:0,0:0:0:0:
368,336,157750,1,8,0:0:0:0:
376,356,157866,1,2,0:0:0:0:
256,192,158099,12,4,161819,0:0:0:0:
192,252,169261,6,0,P|176:192|200:136,1,120,0|2,0:0|0:0,0:0:0:0:
316,156,170192,2,0,P|328:204|312:256,2,90,0|0|2,0:0|0:0|0:0,0:0:0:0:
240,108,171238,2,0,L|128:96,1,90
92,168,172052,1,2,0:0:0:0:
112,256,172401,1,0,0:0:0:0:
184,200,172750,1,2,0:0:0:0:
352,244,172982,6,0,P|376:192|352:132,1,120,2|2,0:0|0:0,0:0:0:0:
344,124,173913,2,0,L|236:112,2,90,2|0|2,0:0|0:0|0:0,0:0:0:0:
380,208,174843,1,0,0:0:0:0:
372,216,174959,2,0,P|312:224|284:208,1,90,2|0,0:0|0:0,0:0:0:0:
232,280,175540,1,2,0:0:0:0:
120,204,175773,2,0,L|108:96,1,90
116,104,176238,6,0,P|188:96|228:12,1,150,12|0,0:0|0:0,0:0:0:0:
232,24,177168,5,8,0:0:0:0:
304,188,177633,2,0,P|356:216|388:216,2,90,0|8|0,0:0|0:0|0:0,0:0:0:0:
212,188,178680,2,0,P|160:216|128:216,1,90,0|8,0:0|0:0,0:0:0:0:
144,128,179494,1,8,0:0:0:0:
256,312,179843,1,0,0:0:0:0:
368,128,180192,1,8,0:0:0:0:
152,212,180424,6,0,P|92:196|64:132,1,120,8|8,0:0|0:0,0:0:0:0:
256,312,181354,2,0,L|345:323,2,90,8|8|8,0:0|0:0|0:0,0:0:0:0:
416,268,182285,1,0,0:0:0:0:
424,256,182401,2,0,P|436:212|420:160,1,90,8|8,0:0|0:0,0:0:0:0:
364,108,182982,1,0,0:0:0:0:
284,64,183215,2,0,L|176:72,2,90,8|0|8,0:0|0:0|0:0,0:0:0:0:
286,268,184145,6,0,P|267:212|284:156,1,120,8|0,0:0|0:0,0:0:0:0:
224,332,184842,1,0,0:0:0:0:
348,92,185075,2,0,L|407:85,1,60,8|0,0:0|0:0,0:0:0:0:
224,332,185541,2,0,L|164:338,1,60
284,156,186005,2,0,P|260:104|272:44,1,120,8|0,0:0|0:0,0:0:0:0:
192,252,186703,1,0,0:0:0:0:
192,252,186936,2,0,L|132:258,1,60,8|0,0:0|0:0,0:0:0:0:
324,284,187401,2,0,P|382:294|436:271,1,120,0|8,0:0|0:0,0:0:0:0:
124,96,188331,5,0,0:0:0:0:
108,184,188796,2,0,P|168:172|208:124,1,120,8|0,0:0|0:0,0:0:0:0:
268,192,189494,1,0,0:0:0:0:
232,272,189726,2,0,L|156:280,1,60,8|0,0:0|0:0,0:0:0:0:
304,116,190192,2,0,L|380:108,1,60,0|0,0:0|0:0,0:0:0:0:
100,336,190657,2,0,P|80:280|108:216,1,120,8|8,0:0|0:0,0:0:0:0:
232,272,191354,1,0,0:0:0:0:
315,174,191587,6,0,L|304:116,1,60,4|0,0:0|0:0,0:0:0:0:
404,168,192052,2,0,L|462:156,1,60,0|0,0:0|0:0,0:0:0:0:
420,256,192517,2,0,L|431:314,1,60
316,268,192982,2,0,L|257:279,1,60,0|0,0:0|0:0,0:0:0:0:
68,164,193447,5,0,0:0:0:0:
152,132,193680,1,0,0:0:0:0:
188,220,193913,1,0,0:0:0:0:
100,248,194145,1,0,0:0:0:0:
84,76,194378,5,0,0:0:0:0:
236,152,194610,1,0,0:0:0:0:
168,304,194843,1,0,0:0:0:0:
12,232,195075,1,0,0:0:0:0:
236,152,195308,6,0,L|308:152,1,60
392,236,195773,2,0,L|332:236,1,60,8|0,0:0|0:0,0:0:0:0:
328,68,196238,2,0,L|388:68,1,60,0|0,0:0|0:0,0:0:0:0:
296,320,196703,2,0,L|236:320,1,60,8|0,0:0|0:0,0:0:0:0:
100,200,197168,5,0,0:0:0:0:
148,276,197401,1,0,0:0:0:0:
180,100,197633,1,8,0:0:0:0:
228,176,197866,1,0,0:0:0:0:
296,320,198099,1,0,0:0:0:0:
424,256,198331,1,0,0:0:0:0:
280,232,198564,1,8,0:0:0:0:
384,336,198796,1,0,0:0:0:0:
180,100,199029,6,0,P|144:104|100:96,1,60
279,232,199494,2,0,P|309:228|339:230,1,60,8|0,0:0|0:0,0:0:0:0:
180,228,199959,1,0,0:0:0:0:
300,120,200191,1,0,0:0:0:0:
312,112,200307,1,0,0:0:0:0:
324,104,200424,2,0,P|356:100|388:104,1,60,8|0,0:0|0:0,0:0:0:0:
180,228,200889,2,0,L|176:296,1,60
324,104,201354,2,0,L|328:36,1,60,8|0,0:0|0:0,0:0:0:0:
316,248,201819,1,0,0:0:0:0:
96,152,202052,5,0,0:0:0:0:
92,168,202168,1,0,0:0:0:0:
88,184,202285,2,0,L|76:256,1,60,8|0,0:0|0:0,0:0:0:0:
256,192,202750,12,4,206471,0:0:0:0:
208,288,213913,6,2,P|148:288|96:240,1,120,2|0,0:0|0:0,0:0:0:0:
92,240,214843,2,0,L|82:150,2,90,0|0|0,0:0|0:0|0:0,0:0:0:0:
168,184,215773,2,2,L|156:64,1,120,2|0,0:0|0:0,0:0:0:0:
139,259,216703,2,0,P|184:264|223:244,2,90,0|0|0,0:0|0:0|0:0,0:0:0:0:
312,224,217633,2,2,P|336:280|312:344,1,120,2|0,0:0|0:0,0:0:0:0:
308,352,218564,2,0,P|272:348|240:332,1,60
172,296,219029,1,0,0:0:0:0:
312,224,219261,1,0,0:0:0:0:
424,296,219494,6,0,L|444:216,1,60
312,224,219959,2,0,P|264:220|232:228,1,60
172,296,220424,2,0,P|220:300|252:292,1,60
312,224,220889,1,0,0:0:0:0:
424,296,221122,1,0,0:0:0:0:
340,136,221354,1,4,0:0:0:0:
160,132,222285,6,0,P|112:116|84:76,2,90,0|0|0,0:0|0:0|0:0,0:0:0:0:
216,200,223215,2,0,L|224:336,1,120
212,340,224145,6,0,P|168:364|124:364,2,90,0|0|0,0:0|0:0|0:0,0:0:0:0:
304,336,225075,2,0,P|336:284|396:264,1,120
390,263,226006,1,0,0:0:0:0:
332,132,226239,1,0,0:0:0:0:
304,272,226472,1,0,0:0:0:0:
408,176,226704,1,0,0:0:0:0:
264,192,226936,2,0,P|228:184|204:168,1,60,8|0,0:0|0:0,0:0:0:0:
147,336,227401,2,0,P|177:341|203:356,1,60,8|0,0:0|0:0,0:0:0:0:
103,259,227866,2,0,P|118:233|124:204,1,60,8|0,0:0|0:0,0:0:0:0:
304,272,228331,2,0,B|289:298|284:312|283:327,1,60,8|0,0:0|0:0,0:0:0:0:
156,160,228796,6,0,P|112:128|104:112,1,60,12|0,0:0|0:0,0:0:0:0:
188,80,229261,2,0,P|161:32|161:14,1,60,12|0,0:0|0:0,0:0:0:0:
356,224,229726,6,0,P|400:256|408:272,1,60,12|0,0:0|0:0,0:0:0:0:
324,304,230191,2,0,P|350:351|350:369,1,60,10|0,0:0|0:0,0:0:0:0:
288,92,230657,6,0,P|320:48|336:40,1,60,12|8,0:0|0:0,0:0:0:0:
368,124,231122,2,0,P|415:97|433:97,1,60,12|8,0:0|0:0,0:0:0:0:
224,292,231587,6,0,P|192:336|176:344,1,60,12|8,0:0|0:0,0:0:0:0:
144,260,232052,2,0,P|96:286|78:286,1,60,8|8,0:0|0:0,0:0:0:0:
256,192,232517,12,4,234378,0:3:0:0:
124,312,236238,5,8,0:3:0:0:
124,312,236703,2,0,L|116:256,3,30,8|0|0|0,0:3|0:0|0:0|0:0,0:0:0:0:
188,256,237168,2,0,L|184:200,2,40,8|0|0,0:3|0:0|0:0,0:0:0:0:
256,296,237633,2,0,P|300:292|316:280,1,60,8|0,0:3|0:0,0:0:0:0:
332,268,237982,1,0,0:0:0:0:
344,248,238099,2,0,L|356:184,1,60,8|0,0:3|0:0,0:0:0:0:
388,72,238564,2,0,L|396:128,3,30,8|0|0|0,0:3|0:0|0:0|0:0,0:0:0:0:
324,128,239029,2,0,L|328:184,2,40,8|0|0,0:3|0:0|0:0,0:0:0:0:
256,88,239494,2,0,P|212:92|196:104,1,60,8|0,0:3|0:0,0:0:0:0:
180,116,239843,1,0,0:0:0:0:
168,136,239960,2,0,L|156:200,1,60,8|0,0:3|0:0,0:0:0:0:
84,260,240424,6,0,L|112:284,3,30,8|0|0|0,0:3|0:0|0:0|0:0,0:0:0:0:
164,232,240889,2,0,L|198:252,2,40,8|0|0,0:3|0:0|0:0,0:0:0:0:
268,332,241354,2,0,P|304:312|324:312,1,60,8|0,0:3|0:0,0:0:0:0:
348,312,241703,1,0,0:0:0:0:
372,316,241819,6,0,L|396:240,1,60,2|0,0:0|0:0,0:0:0:0:
350,130,242285,2,0,L|332:188,1,60,8|0,0:0|0:0,0:0:0:0:
152,176,242750,1,2,0:0:0:0:
390,258,242982,1,0,0:0:0:0:
160,256,243215,2,0,P|124:252|88:228,1,60,8|0,0:0|0:0,0:0:0:0:
350,130,243680,1,8,0:3:0:0:
390,258,243913,5,0,0:3:0:0:
324,316,244145,2,0,L|288:328,1,30,8|0,0:3|0:0,0:0:0:0:
228,260,244378,2,0,L|184:248,1,30,0|0,0:0|0:0,0:0:0:0:
120,212,244610,2,0,L|108:172,2,40,8|0|0,0:3|0:0|0:0,0:0:0:0:
228,260,245075,2,0,P|220:232|228:196,1,60,8|0,0:3|0:0,0:0:0:0:
236,192,245424,1,0,0:0:0:0:
248,180,245540,2,0,L|312:180,1,60,8|0,0:3|0:0,0:0:0:0:
360,104,246006,6,0,L|348:76,1,30,8|0,0:3|0:0,0:0:0:0:
436,152,246238,2,0,L|447:179,1,30,0|0,0:0|0:0,0:0:0:0:
344,252,246471,2,0,L|384:244,2,40,8|0|0,0:3|0:0|0:0,0:0:0:0:
312,336,246936,1,8,0:3:0:0:
216,184,247168,1,0,0:0:0:0:
312,336,247401,6,0,P|280:344|240:340,1,60,8|0,0:3|0:0,0:0:0:0:
172,300,247866,2,0,L|177:270,1,30,8|0,0:3|0:0,0:0:0:0:
98,186,248099,2,0,L|104:216,1,30,0|0,0:0|0:0,0:0:0:0:
156,116,248331,2,0,L|160:64,2,40,8|0|0,0:3|0:0|0:0,0:0:0:0:
248,164,248796,2,0,P|292:160|320:144,1,60,8|0,0:3|0:0,0:0:0:0:
320,148,249145,1,0,0:0:0:0:
332,136,249261,6,0,L|348:224,2,90,2|8|0,0:0|0:0|0:0,0:0:0:0:
264,256,250192,2,0,L|284:364,1,90,2|0,0:0|0:0,0:0:0:0:
268,356,250657,2,0,P|232:352|208:352,1,60,8|0,0:0|0:0,0:0:0:0:
60,248,251122,5,0,1:1:0:0:
184,168,266006,6,0,L|80:160,1,90
84,148,266471,2,0,P|80:118|88:89,1,60,8|0,0:0|0:0,0:0:0:0:
140,240,266936,2,0,P|136:296|88:344,1,120,2|8,0:0|0:0,0:0:0:0:
52,260,267633,1,0,0:0:0:0:
312,187,267866,2,0,P|319:159|314:130,1,60
308,116,268215,1,0,0:0:0:0:
300,104,268331,1,8,0:0:0:0:
252,256,268564,1,0,0:0:0:0:
260,268,268796,2,0,L|380:284,1,120,2|8,0:0|0:0,0:0:0:0:
216,176,269494,5,0,0:0:0:0:
215,176,269726,2,0,P|182:204|168:246,1,90
168,264,270192,1,8,0:0:0:0:
292,128,270424,1,0,0:0:0:0:
304,116,270657,2,0,L|400:116,1,90,2|0,0:0|0:0,0:0:0:0:
467,64,271122,2,0,P|472:34|466:5,1,60,8|0,0:0|0:0,0:0:0:0:
380,272,271587,1,0,0:0:0:0:
304,116,271819,1,0,0:0:0:0:
304,116,271936,1,0,0:0:0:0:
304,116,272052,2,0,P|256:116|232:104,1,60,8|0,0:0|0:0,0:0:0:0:
160,140,272517,1,2,0:0:0:0:
100,208,272750,1,0,0:0:0:0:
100,208,272982,2,0,P|136:232|196:232,1,90,8|0,0:0|0:0,0:0:0:0:
196,236,273447,5,0,0:0:0:0:
348,316,273796,1,0,0:0:0:0:
336,328,273913,2,0,L|252:340,1,60,8|0,0:0|0:0,0:0:0:0:
416,220,274378,2,0,P|436:164|416:104,1,120,2|8,0:0|0:0,0:0:0:0:
348,164,275075,1,0,0:0:0:0:
188,236,275308,2,0,L|116:244,1,60
116,244,275657,1,0,0:0:0:0:
100,248,275773,1,8,0:0:0:0:
156,316,276006,1,0,0:0:0:0:
223,147,276238,2,0,P|227:117|225:88,1,60,2|0,0:0|0:0,0:0:0:0:
296,200,276703,6,2,B|320:228|320:228|360:208|360:208|400:248|464:220,1,180.000006866455,8|0,0:0|0:0,0:0:0:0:
216,100,277517,5,0,0:0:0:0:
208,112,277633,2,0,L|144:124,1,60,8|0,0:0|0:0,0:0:0:0:
136,212,278099,2,0,L|232:192,1,90,2|0,0:0|0:0,0:0:0:0:
292,260,278564,2,0,B|304:292|304:292|308:324,1,60,8|0,0:0|0:0,0:0:0:0:
220,340,279029,1,0,0:0:0:0:
384,184,279261,1,0,0:0:0:0:
396,172,279378,1,0,0:0:0:0:
408,160,279494,2,0,P|412:128|404:96,1,60,8|0,0:0|0:0,0:0:0:0:
208,256,279959,2,0,P|156:284|136:348,1,120,2|8,0:0|0:0,0:0:0:0:
220,340,280657,1,0,0:0:0:0:
408,160,280889,5,4,0:0:0:0:
336,108,281122,1,0,0:0:0:0:
324,120,281238,1,0,0:0:0:0:
312,132,281354,2,0,P|276:144|244:144,1,60,2|0,0:0|0:0,0:0:0:0:
212,224,281819,1,0,0:0:0:0:
120,124,282052,1,0,0:0:0:0:
116,140,282169,1,0,0:0:0:0:
112,152,282285,2,0,L|96:228,1,60,2|0,0:0|0:0,0:0:0:0:
196,304,282750,6,0,P|228:304|256:292,1,60
268,284,283099,1,0,0:0:0:0:
280,276,283215,1,2,0:0:0:0:
360,320,283447,1,0,0:0:0:0:
428,260,283680,2,0,L|436:188,1,60
384,96,284145,6,0,B|364:104|364:104|340:92|340:92|312:120|272:112,1,120,2|0,0:0|0:0,0:0:0:0:
280,276,284610,6,0,L|196:272,1,60
204,272,284959,1,0,0:0:0:0:
188,272,285075,1,2,0:0:0:0:
204,360,285308,1,0,0:0:0:0:
152,188,285540,2,0,P|148:156|156:116,1,60
160,116,285889,1,0,0:0:0:0:
172,108,286006,2,0,L|244:104,1,60,2|0,0:0|0:0,0:0:0:0:
296,168,286471,5,0,0:0:0:0:
376,60,286703,1,0,0:0:0:0:
420,236,286936,2,0,L|424:304,1,60,2|0,0:0|0:0,0:0:0:0:
296,168,287401,2,0,P|256:160|232:140,1,60
376,60,287866,1,2,0:0:0:0:
288,184,288099,1,0,0:0:0:0:
368,308,288331,2,0,L|308:316,1,60
292,320,288680,1,0,0:0:0:0:
276,324,288796,1,2,0:0:0:0:
208,264,289029,1,0,0:0:0:0:
368,308,289261,5,0,0:0:0:0:
424,184,289494,1,0,0:0:0:0:
428,168,289610,1,0,0:0:0:0:
432,152,289727,2,0,L|444:92,1,60,2|0,0:0|0:0,0:0:0:0:
288,140,290192,2,0,P|248:152|228:152,1,60
368,308,290657,1,2,0:0:0:0:
280,128,290889,1,0,0:0:0:0:
160,292,291122,2,0,P|124:280|108:264,1,60
368,308,291587,2,0,L|427:300,1,60,2|0,0:0|0:0,0:0:0:0:
280,316,292052,5,0,0:0:0:0:
136,208,292285,1,0,0:0:0:0:
320,156,292517,1,2,0:0:0:0:
168,76,292750,1,0,0:0:0:0:
312,240,292982,2,0,P|372:224|400:168,2,120,0|2|0,0:0|0:0|0:0,0:0:0:0:
168,76,294145,1,0,0:0:0:0:
208,156,294378,2,0,L|216:216,1,60,2|0,0:0|0:0,0:0:0:0:
160,288,294843,1,0,0:0:0:0:
312,240,295075,1,0,0:0:0:0:
232,324,295308,2,0,P|188:364|112:352,1,120,2|4,0:0|0:2,0:0:0:0:
256,192,295889,12,4,299494,0:3:0:0:
196,52,299959,6,0,P|148:76|104:152,1,120,0|4,0:0|0:3,0:0:0:0:
316,332,300889,2,0,P|364:308|408:232,1,120,0|4,0:0|0:3,0:0:0:0:
116,252,301819,2,0,P|140:300|216:344,1,120,0|4,0:0|0:3,0:0:0:0:
396,132,302750,2,0,P|372:84|296:40,1,120,0|4,0:0|0:3,0:0:0:0:
256,192,303331,12,4,306936,0:0:0:0:
256,192,307052,12,4,308331,0:3:0:0:
188,192,308796,5,0,0:0:0:0:
324,192,309261,1,0,0:0:0:0:
176,192,309726,1,0,0:0:0:0:
336,192,310192,6,0,P|340:164|336:132,2,60.0000022888184,0|0|0,0:0|0:0|0:0,0:0:0:0:
276,260,310657,1,0,0:0:0:0:
276,260,310889,6,0,L|184:272,1,90.0000034332277
240,352,311354,1,0,0:0:0:0:
336,192,311587,1,0,0:0:0:0:
231,104,311819,2,0,B|248:104|248:104|268:116|268:116|288:116,2,60,0|0|0,0:0|0:0|0:0,0:0:0:0:
160,160,312517,1,0,0:0:0:0:
88,216,312750,1,0,0:0:0:0:
220,248,312982,1,0,0:0:0:0:
104,296,313215,2,0,P|72:296|40:280,1,60
220,248,313680,2,0,P|244:264|280:272,2,60,0|0|0,0:0|0:0|0:0,0:0:0:0:
284,184,314378,1,0,0:0:0:0:
395,112,314610,6,0,P|400:82|396:52,1,60
456,179,315075,2,0,P|451:209|455:239,1,60
276,272,315540,1,0,0:0:0:0:
455,239,315773,1,0,0:0:0:0:
268,280,316006,1,0,0:0:0:0:
108,284,316238,1,0,0:0:0:0:
96,272,316354,1,0,0:0:0:0:
88,260,316471,1,0,0:0:0:0:
80,248,316587,1,0,0:0:0:0:
76,236,316703,1,0,0:0:0:0:
268,280,316936,1,0,0:0:0:0:
356,192,317168,2,0,L|368:132,1,60
372,120,317517,1,0,0:0:0:0:
376,104,317633,1,0,0:0:0:0:
283,278,317866,5,0,0:0:0:0:
283,278,317982,1,0,0:0:0:0:
283,278,318099,2,0,P|253:279|224:276,1,60,8|0,0:0|0:0,0:0:0:0:
371,119,318564,2,0,P|376:149|370:178,1,60,8|0,0:0|0:0,0:0:0:0:
308,56,319029,2,0,L|224:48,1,60,8|0,0:0|0:0,0:0:0:0:
408,260,319494,2,0,L|468:260,1,60,8|0,0:0|0:0,0:0:0:0:
344,324,319959,1,8,0:0:0:0:
268,160,320192,1,0,0:0:0:0:
172,256,320424,6,0,P|132:256|92:240,1,60,8|0,0:0|0:0,0:0:0:0:
267,160,320889,2,0,P|297:158|327:165,1,60,8|0,0:0|0:0,0:0:0:0:
344,324,321353,1,8,0:0:0:0:
452,244,321586,1,0,0:0:0:0:
208,96,321819,2,8,L|84:72,2,120,8|8|8,0:0|0:0|0:0,0:0:0:0:
268,160,322982,1,0,0:0:0:0:
344,60,323215,1,8,0:0:0:0:
412,176,323447,1,0,0:0:0:0:
324,276,323680,5,8,0:0:0:0:
308,280,323797,1,0,0:0:0:0:
288,288,323912,1,0,0:0:0:0:
272,292,324029,1,0,0:0:0:0:
260,296,324145,1,8,0:0:0:0:
172,272,324378,1,0,0:0:0:0:
92,232,324610,5,8,0:0:0:0:
216,96,324843,1,0,0:0:0:0:
232,96,324960,1,0,0:0:0:0:
248,96,325076,2,0,L|308:96,1,60,8|0,0:0|0:0,0:0:0:0:
380,268,325540,5,0,0:0:0:0:
256,192,325657,12,0,328796,0:0:0:0:
368,192,329261,6,0,B|308:228|256:192|256:192|200:228|140:192,1,240,0|2,0:0|0:0,0:0:0:0:
200,132,331122,1,0,0:0:0:0:
256,276,331354,1,0,0:0:0:0:
312,132,331587,1,0,0:0:0:0:
312,132,332052,1,2,0:0:0:0:
108,208,332982,5,0,0:0:0:0:
192,120,333215,1,0,0:0:0:0:
176,264,333447,2,0,P|124:292|60:280,2,120,2|0|0,0:0|0:0|0:0,0:0:0:0:
404,208,334843,1,0,0:0:0:0:
320,120,335075,1,0,0:0:0:0:
336,264,335308,2,0,P|388:292|452:280,2,120,2|0|0,0:0|0:0|0:0,0:0:0:0:
156,136,336703,6,0,P|257:192|357:136,2,240,0|2|0,0:0|0:0|0:0,0:0:0:0:
102,208,338796,1,0,0:0:0:0:
198,56,339029,2,0,P|254:36|314:60,1,120,0|2,0:0|0:0,0:0:0:0:
404,176,340424,5,0,0:0:0:0:
320,264,340657,1,0,0:0:0:0:
336,120,340889,2,0,P|388:92|452:104,2,120,2|0|0,0:0|0:0|0:0,0:0:0:0:
108,176,342285,1,0,0:0:0:0:
184,256,342517,1,0,0:0:0:0:
176,120,342750,2,0,P|124:92|60:104,2,120,2|0|0,0:0|0:0|0:0,0:0:0:0:
200,236,344145,6,0,P|256:216|312:236,1,120,0|8,0:0|0:0,0:0:0:0:
256,304,344843,1,0,0:0:0:0:
312,152,345075,2,0,P|256:144|192:156,1,120,2|8,0:0|0:0,0:0:0:0:
104,212,346006,2,0,L|115:270,1,60
132,132,346471,2,0,P|68:132|28:172,2,120,8|2|8,0:0|0:0|0:0,0:0:0:0:
104,212,347633,5,0,0:0:0:0:
200,308,347866,2,0,P|256:328|312:308,1,120,0|8,0:0|0:0,0:0:0:0:
256,236,348564,1,0,0:0:0:0:
311,163,348796,2,0,P|255:144|200:164,1,120,2|8,0:0|0:0,0:0:0:0:
368,232,349494,1,0,0:0:0:0:
436,288,349726,2,0,P|444:320|432:356,1,60
368,232,350192,2,0,P|416:204|488:216,2,120,8|2|8,0:0|0:0|0:0,0:0:0:0:
328,312,351354,1,0,0:0:0:0:
236,312,351587,6,0,L|36:340,1,180,0|0,0:0|0:0,0:0:0:0:
80,248,352517,2,0,L|260:224,1,180,2|0,0:0|0:0,0:0:0:0:
344,256,353447,1,0,0:0:0:0:
400,132,353680,1,0,0:0:0:0:
420,220,353913,2,0,P|424:280|380:336,2,120,8|2|8,0:0|0:0|0:0,0:0:0:0:
400,132,355075,1,0,0:0:0:0:
316,100,355308,6,0,L|252:108,1,60
208,184,355773,2,0,L|149:172,1,60,8|0,0:0|0:0,0:0:0:0:
276,244,356238,2,0,L|340:228,1,60,2|0,0:0|0:0,0:0:0:0:
336,320,356703,2,0,L|400:336,1,60,8|0,0:0|0:0,0:0:0:0:
256,192,357168,12,0,359029,1:0:0:0:
224,224,359494,5,0,0:0:0:0:
232,212,359610,2,0,P|236:176|224:132,1,60
224,140,359959,1,8,0:0:0:0:
152,276,360192,2,0,L|68:260,2,60,0|0|0,0:0|0:0|0:0,0:0:0:0:
236,308,360889,6,0,P|296:300|352:324,1,120,0|0,1:0|0:0,1:0:0:0:
364,316,361471,2,0,L|380:236,1,60
380,244,361819,1,8,0:0:0:0:
320,72,362052,6,0,B|284:64|260:76|260:76|220:60,2,90.0000034332277,0|0|0,0:0|0:0|0:0,0:0:0:0:
300,160,362750,6,0,P|264:208|276:276,1,120,0|0,1:0|0:0,0:0:0:0:
276,280,363331,2,0,P|240:296|216:320,1,60
216,324,363680,1,8,0:0:0:0:
152,260,363913,5,0,0:0:0:0:
80,196,364145,1,0,0:0:0:0:
236,152,364378,1,0,0:0:0:0:
168,92,364610,1,0,1:0:0:0:
156,84,365075,1,0,1:0:0:0:
236,152,365540,6,0,P|232:184|236:216,1,60,8|0,0:0|0:0,0:0:0:0:
312,256,366006,2,0,P|315:226|313:196,1,60,8|0,0:0|0:0,0:0:0:0:
368,124,366471,6,0,P|352:64|376:0,1,120,0|0,1:2|0:0,0:0:0:0:
352,12,367052,2,0,P|308:20|272:8,1,60
204,116,367401,1,8,0:0:0:0:
132,172,367633,2,0,P|96:184|56:184,2,60,0|0|0,0:0|0:0|0:0,0:0:0:0:
208,216,368331,6,0,L|224:340,1,120,0|0,1:0|0:0,0:0:0:0:
228,348,368913,2,0,L|304:336,1,60
300,336,369261,1,8,0:0:0:0:
380,224,369494,2,0,L|400:144,1,60
324,112,369959,2,0,L|308:48,1,60,0|0,0:0|1:0,0:0:0:0:
380,224,370657,5,0,0:0:0:0:
390,234,370774,2,0,P|424:242|460:240,1,60,0|0,0:0|0:0,0:0:0:0:
432,152,371122,1,8,0:0:0:0:
288,260,371354,2,0,L|300:336,2,60,0|0|0,0:0|0:0|0:0,0:0:0:0:
132,168,372052,1,0,1:0:0:0:
120,160,372517,1,0,1:0:0:0:
108,152,372982,6,8,P|104:184|112:232,1,60
176,272,373447,2,8,L|240:264,1,60
256,352,373913,6,0,L|376:336,1,120
464,352,374610,1,0,0:0:0:0:
480,264,374843,1,0,0:0:0:0:
384,156,375075,1,0,0:0:0:0:
368,152,375192,1,0,0:0:0:0:
352,148,375308,2,0,L|272:128,1,60
216,176,375773,6,0,B|168:192|168:192|84:156,1,120,8|0,0:0|0:0,0:0:0:0:
132,80,376471,1,0,0:0:0:0:
208,164,376703,1,0,0:0:0:0:
216,176,376819,1,0,0:0:0:0:
224,188,376935,2,0,P|232:224|220:260,1,60
160,308,377401,1,0,0:0:0:0:
148,316,377517,1,0,0:0:0:0:
136,324,377633,6,0,P|84:356|20:344,2,120,8|0|0,0:0|0:0|0:0,0:0:0:0:
268,348,378796,1,0,0:0:0:0:
364,256,379028,1,0,0:0:0:0:
372,244,379145,1,0,0:0:0:0:
380,232,379261,2,0,L|380:156,1,60,0|8,0:0|0:0,0:0:0:0:
280,84,379843,5,0,0:0:0:0:
268,92,379959,2,0,L|164:96,1,90
168,104,380424,2,0,P|160:136|168:168,2,60,0|0|8,0:0|0:0|0:0,0:0:0:0:
88,264,381122,1,0,0:0:0:0:
88,264,381238,1,0,0:0:0:0:
88,264,381354,6,0,L|152:272,1,60
164,276,381703,1,0,0:0:0:0:
180,280,381819,2,0,P|216:304|228:328,1,60,8|0,0:0|0:0,0:0:0:0:
308,352,382285,1,0,0:0:0:0:
404,260,382517,1,0,0:0:0:0:
412,248,382634,1,0,0:0:0:0:
420,236,382750,2,0,P|428:208|408:164,1,60,8|0,0:0|0:0,0:0:0:0:
336,72,383215,6,0,L|256:72,1,60
264,80,383564,1,0,0:0:0:0:
252,88,383680,2,0,L|180:88,1,60,8|0,0:0|0:0,0:0:0:0:
116,140,384145,1,0,0:0:0:0:
104,152,384261,2,0,L|104:228,1,60,8|0,0:0|0:0,0:0:0:0:
104,228,384610,1,8,0:0:0:0:
228,276,384843,1,0,0:0:0:0:
256,272,384959,1,0,0:0:0:0:
284,268,385075,1,4,0:0:0:0:
256,192,385192,12,8,388796,0:3:0:0:
120,204,389261,5,8,0:3:0:0:
344,172,389416,1,0,0:0:0:0:
228,100,389571,1,0,0:0:0:0:
212,280,389726,2,0,P|256:292|296:272,1,80,8|0,0:3|0:0,0:0:0:0:
308,260,390192,2,0,P|344:248|384:260,1,80,8|0,0:0|0:0,0:0:0:0:
412,272,390657,2,0,L|416:352,1,80,8|0,0:3|0:0,0:0:0:0:
484,216,391122,2,0,L|488:128,1,80,8|0,0:0|0:0,0:0:0:0:
428,68,391587,2,0,L|332:56,1,80,8|0,0:3|0:0,0:0:0:0:
280,120,392052,2,0,L|184:128,1,80,8|0,0:0|0:0,0:0:0:0:
108,204,392517,1,8,0:3:0:0:
108,204,392982,5,0,0:0:0:0:
176,264,393137,1,0,0:0:0:0:
112,324,393292,1,0,0:0:0:0:
176,264,393447,2,0,P|216:252|264:268,1,80,8|0,0:3|0:0,0:0:0:0:
276,276,393913,2,0,P|316:288|364:272,1,80,8|0,0:0|0:0,0:0:0:0:
376,260,394378,2,0,L|384:176,1,80,8|0,0:3|0:0,0:0:0:0:
356,168,394843,2,0,L|364:84,1,80,8|0,0:0|0:0,0:0:0:0:
272,40,395308,5,0,0:3:0:0:
356,168,395463,1,8,0:3:0:0:
468,96,395618,1,8,0:3:0:0:
356,168,395773,2,2,P|392:188|444:188,1,90,2|0,0:0|0:0,0:0:0:0:
452,180,396238,1,0,0:0:0:0:
452,180,396703,6,2,L|460:236,2,40,0|0|0,0:0|0:0|0:0,0:0:0:0:
412,100,397168,2,0,L|320:104,1,80,2|0,0:0|0:0,0:0:0:0:
251,147,397633,2,0,P|239:110|248:71,1,80,8|0,0:0|0:0,0:0:0:0:
312,212,398099,2,0,P|324:244|316:288,1,80,2|0,0:0|0:0,0:0:0:0:
232,316,398564,2,0,L|136:328,1,80,8|0,0:0|0:0,0:0:0:0:
80,272,399029,2,0,P|68:236|80:192,1,80,2|0,0:0|0:0,0:0:0:0:
136,128,399494,2,0,P|145:89|133:52,1,80,8|0,0:0|0:0,0:0:0:0:
77,196,399959,1,2,0:0:0:0:
77,196,400424,5,2,0:0:0:0:
196,224,400579,1,2,0:0:0:0:
312,196,400734,1,2,0:0:0:0:
420,148,400889,2,0,L|428:240,1,80,2|0,0:0|0:0,0:0:0:0:
192,304,401354,2,0,L|195:224,1,80,8|0,0:0|0:0,0:0:0:0:
312,196,401819,2,0,L|328:292,1,80,2|0,0:0|0:0,0:0:0:0:
76,276,402285,2,0,L|77:196,1,80,8|0,0:0|0:0,0:0:0:0:
312,196,402750,5,2,0:0:0:0:
420,148,402905,1,0,0:0:0:0:
196,224,403060,1,0,0:0:0:0:
77,196,403215,2,0,P|60:140|88:84,1,120,2|4,0:0|0:0,0:0:0:0:
88,204,411587,5,0,0:0:0:0:
88,204,411819,1,2,0:0:0:0:
156,264,412052,2,0,P|216:264|264:216,1,120
276,200,412750,1,2,0:0:0:0:
288,172,412982,2,0,L|312:304,1,120
309,290,413913,2,0,P|384:288|432:316,2,120,0|0|4,0:0|0:0|0:0,0:0:0:0:
132,320,415541,5,0,0:0:0:0:
120,308,415657,1,0,0:0:0:0:
108,296,415773,2,0,P|88:240|116:180,2,120,0|2|0,0:0|0:0|0:0,0:0:0:0:
188,284,417866,5,2,0:0:0:0:
228,204,418099,1,2,0:0:0:0:
156,148,418331,1,2,0:0:0:0:
256,344,418564,2,0,L|388:336,2,120,0|8|0,1:0|0:0|0:0,0:0:0:0:
188,284,419726,1,0,0:0:0:0:
188,284,419959,2,0,L|128:284,1,60,8|0,0:0|0:0,0:0:0:0:
112,196,420424,1,0,0:0:0:0:
152,116,420657,1,0,0:0:0:0:
248,188,420889,1,8,0:0:0:0:
260,196,421354,1,8,0:0:0:0:
272,208,421819,5,8,0:0:0:0:
340,268,422052,1,2,0:0:0:0:
428,116,422285,2,0,P|444:60|416:-4,2,120,0|8|0,1:0|0:0|0:0,0:0:0:0:
340,268,423447,1,0,0:0:0:0:
328,276,423680,2,0,L|260:280,1,60,8|0,0:0|0:0,0:0:0:0:
188,308,424145,1,0,0:0:0:0:
168,184,424378,1,0,0:0:0:0:
68,260,424610,1,8,0:0:0:0:
64,244,425075,1,8,0:0:0:0:
60,228,425540,1,8,0:0:0:0:
168,184,425773,1,2,0:0:0:0:
252,220,426006,6,0,P|300:220|352:160,1,120,0|8,1:0|0:0,0:0:0:0:
300,96,426703,1,0,0:0:0:0:
240,232,426936,2,0,P|228:272|240:320,2,90,0|0|8,0:0|0:0|0:0,0:0:0:0:
300,96,427866,2,0,P|360:76|420:104,1,120,0|8,0:0|0:0,0:0:0:0:
412,240,428564,1,0,0:0:0:0:
412,240,428680,1,0,0:0:0:0:
412,240,428796,2,0,P|352:260|292:232,2,120,0|10|0,0:0|0:0|1:0,0:0:0:0:
416,60,430192,6,0,L|288:64,1,120,8|0,0:0|0:0,0:0:0:0:
216,108,430889,1,0,0:0:0:0:
280,284,431122,2,0,P|296:316|324:328,1,60,8|0,0:0|0:0,0:0:0:0:
304,199,431587,2,0,P|244:208|200:256,2,120,0|8|0,0:0|0:0|0:0,0:0:0:0:
420,268,432750,1,2,0:0:0:0:
416,132,432982,1,8,0:0:0:0:
304,200,433215,1,2,0:0:0:0:
224,92,433447,6,0,L|96:84,2,120,0|8|0,1:0|0:0|0:0,0:0:0:0:
304,200,434610,2,0,P|308:232|300:268,1,60,0|8,0:0|0:0,0:0:0:0:
232,316,435075,1,0,0:0:0:0:
420,268,435308,2,0,L|428:144,2,120,2|8|0,0:0|0:0|0:0,0:0:0:0:
304,200,436471,1,2,0:0:0:0:
232,316,436703,2,0,P|180:344|116:328,1,120,8|0,0:0|1:0,0:0:0:0:
76,256,437401,1,0,0:0:0:0:
304,199,437633,6,0,P|362:196|410:231,1,120,8|0,0:0|0:0,0:0:0:0:
336,284,438331,1,2,0:0:0:0:
216,200,438564,2,0,P|219:170|232:143,1,60,8|2,0:0|0:0,0:0:0:0:
192,288,439029,2,0,P|144:256|136:184,2,120,0|8|0,0:0|0:0|0:0,0:0:0:0:
216,200,440192,1,2,0:0:0:0:
280,136,440424,6,0,B|316:112|360:120|360:120|380:184,1,135.000005149841,8|0,0:0|0:0,0:0:0:0:
392,212,440889,6,0,P|392:272|432:320,1,120,0|8,1:0|0:0,0:0:0:0:
476,240,441587,1,0,0:0:0:0:
340,340,441819,2,0,L|264:344,1,60,0|2,0:0|0:0,0:0:0:0:
392,212,442285,1,8,0:0:0:0:
340,340,442517,2,0,L|196:348,2,120,2|0|0,0:0|0:0|0:0,0:0:0:0:
392,212,443680,1,0,0:0:0:0:
340,340,443913,1,0,0:0:0:0:
244,244,444145,2,0,P|200:240|152:264,1,90,8|0,0:0|0:0,0:0:0:0:
144,252,444610,6,0,L|128:132,1,120,0|8,1:0|0:0,0:0:0:0:
68,68,445308,1,0,0:0:0:0:
124,340,445540,2,0,P|152:344|184:332,1,60,0|2,0:0|0:0,0:0:0:0:
68,68,446006,1,8,0:0:0:0:
212,100,446238,2,0,B|256:116|256:116|344:96,2,120,2|8|0,0:0|0:0|0:0,0:0:0:0:
92,232,447401,5,8,0:0:0:0:
212,100,447633,1,8,0:0:0:0:
280,216,447866,6,0,P|364:232|376:336,1,180.000006866455,8|4,0:1|1:0,0:0:0:0:
256,192,448447,12,2,455308,0:0:0:0:
136,96,455773,5,0,0:0:0:0:
92,224,456006,1,0,0:0:0:0:
224,196,456238,1,8,0:0:0:0:
148,276,456471,1,0,0:0:0:0:
140,288,456587,1,0,0:0:0:0:
128,300,456703,2,0,P|88:308|64:300,1,60
224,196,457168,2,0,P|264:188|288:196,1,60,8|0,0:0|0:0,0:0:0:0:
344,128,457633,5,0,0:0:0:0:
380,256,457866,1,0,0:0:0:0:
432,180,458099,1,8,0:0:0:0:
292,296,458331,1,0,0:0:0:0:
224,196,458564,1,8,0:0:0:0:
224,196,459029,1,10,0:0:0:0:
224,196,459494,6,0,L|144:200,1,60
292,296,459959,1,8,0:0:0:0:
372,252,460192,1,0,0:0:0:0:
372,252,460308,1,0,0:0:0:0:
372,252,460424,2,0,P|404:248|444:256,1,60
292,296,460889,2,0,P|260:300|220:292,1,60,8|0,0:0|0:0,0:0:0:0:
152,256,461354,5,2,0:3:0:0:
152,256,461471,1,2,0:3:0:0:
40,328,461703,1,2,0:3:0:0:
40,328,461820,1,2,0:3:0:0:
52,148,462052,1,2,0:3:0:0:
60,136,462168,1,2,0:3:0:0:
68,124,462284,1,2,0:3:0:0:
76,112,462400,1,2,0:3:0:0:
88,100,462517,1,2,0:3:0:0:
176,124,462750,6,0,B|212:144|212:144|304:108,1,135.000005149841
312,120,463215,6,0,L|324:180,1,60,8|0,0:3|0:0,0:0:0:0:
276,256,463680,1,8,0:0:0:0:
352,304,463913,1,0,0:0:0:0:
352,304,464029,1,0,0:0:0:0:
352,304,464145,2,0,L|411:307,1,60,8|0,0:3|0:0,0:0:0:0:
276,256,464610,2,0,L|217:268,1,60,8|0,0:0|0:0,0:0:0:0:
140,312,465075,1,8,0:3:0:0:
76,248,465308,1,0,0:0:0:0:
48,332,465540,1,8,0:0:0:0:
164,228,465773,1,0,0:0:0:0:
276,256,466006,1,8,0:3:0:0:
164,228,466238,5,8,0:0:0:0:
152,220,466354,1,8,0:0:0:0:
140,208,466471,1,8,0:0:0:0:
208,92,466703,1,8,0:0:0:0:
275,255,466936,6,0,P|284:284|278:313,1,60,8|0,0:3|0:0,0:0:0:0:
228,180,467401,2,0,P|264:168|296:172,1,60,8|0,0:0|0:0,0:0:0:0:
364,216,467750,1,0,0:0:0:0:
364,216,467866,2,0,L|370:275,1,60,8|0,0:3|0:0,0:0:0:0:
432,160,468331,2,0,L|425:100,1,60,8|0,0:0|0:0,0:0:0:0:
228,180,468796,5,8,0:3:0:0:
364,216,469029,1,0,0:0:0:0:
260,304,469261,1,8,0:0:0:0:
228,180,469494,1,0,0:0:0:0:
260,304,469726,1,8,0:3:0:0:
128,276,469959,6,0,L|88:252,1,45.0000017166138,8|0,0:0|0:0,0:0:0:0:
256,304,470192,2,0,L|294:280,1,45.0000017166138,8|0,0:0|0:0,0:0:0:0:
228,180,470424,2,8,L|236:128,1,45.0000017166138
364,216,470657,6,0,P|404:260|396:324,1,120,0|8,0:0|0:0,0:0:0:0:
228,180,471354,1,0,0:0:0:0:
228,180,471471,1,0,0:0:0:0:
228,180,471587,2,0,L|152:176,1,60
364,216,472052,2,0,L|440:220,1,60,8|0,0:0|0:0,0:0:0:0:
264,304,472517,1,0,0:0:0:0:
228,180,472750,1,0,0:0:0:0:
364,216,472982,1,8,0:0:0:0:
328,88,473215,1,0,0:0:0:0:
264,304,473447,2,0,P|232:304|196:288,1,60,0|8,0:0|0:0,0:0:0:0:
192,288,473796,5,8,0:0:0:0:
180,280,473913,2,0,P|152:236|156:200,1,90.0000034332277,8|8,0:0|0:0,0:0:0:0:
120,116,474378,6,0,P|90:114|61:121,1,60
228,180,474843,2,0,P|268:180|292:172,1,60,8|0,0:0|0:0,0:0:0:0:
364,224,475192,1,0,0:0:0:0:
364,224,475308,2,0,P|376:256|376:284,1,60
228,180,475773,1,8,0:0:0:0:
176,304,476006,1,0,0:0:0:0:
364,220,476238,6,0,L|376:156,3,60.0000022888184,0|0|0|0,0:0|0:0|0:0|0:0,0:0:0:0:
176,304,476936,1,0,0:0:0:0:
88,200,477168,2,0,P|76:152|88:108,1,90.0000034332277
160,64,477633,6,0,B|196:96|196:96|232:64|276:80,1,135.000005149841
304,96,478099,1,4,0:0:0:0:
256,192,478215,12,0,481354,0:0:0:0:
352,288,481819,6,0,P|405:264|420:208,1,120,0|0,0:0|0:0,0:0:0:0:
291,219,482517,1,0,0:0:0:0:
223,279,482750,2,0,L|143:283,1,60,2|0,0:0|0:0,0:0:0:0:
100,344,483214,1,0,0:0:0:0:
188,196,483447,2,0,P|204:132|184:80,1,120
224,280,484145,2,0,P|272:284|336:228,2,120,0|2|0,0:0|0:0|0:0,0:0:0:0:
100,344,485308,1,0,0:0:0:0:
44,276,485540,6,0,P|112:256|160:276,1,120,2|0,0:0|0:0,0:0:0:0:
232,320,486238,1,0,0:0:0:0:
328,224,486471,2,0,P|368:180|372:108,1,120,2|0,0:0|0:0,0:0:0:0:
232,320,487169,1,0,0:0:0:0:
328,224,487401,2,0,P|320:165|267:115,1,120,2|0,0:0|0:0,0:0:0:0:
232,320,488099,1,0,0:0:0:0:
328,224,488331,2,0,P|277:192|206:200,1,120,2|0,0:0|0:0,0:0:0:0:
232,320,489029,1,0,0:0:0:0:
112,260,489261,6,0,P|104:228|112:196,1,60,0|0,1:0|0:0,0:0:0:0:
232,320,489726,2,0,L|304:328,1,60
328,224,490192,1,2,0:0:0:0:
400,336,490424,1,0,0:0:0:0:
468,120,490657,1,0,0:0:0:0:
328,224,490889,2,0,P|268:232|216:200,1,120
152,264,491587,2,0,L|164:328,1,60
288,148,492052,2,0,L|300:88,1,60,2|0,0:0|0:0,0:0:0:0:
164,148,492517,1,0,0:0:0:0:
292,268,492750,1,0,0:0:0:0:
152,264,492982,6,0,P|108:260|88:252,1,60
292,268,493447,2,0,P|340:252|416:288,2,120,0|2|0,0:0|0:0|0:0,0:0:0:0:
152,264,494610,1,0,0:0:0:0:
256,176,494843,2,0,P|276:136|248:44,1,120,2|0,0:0|0:0,0:0:0:0:
152,264,495540,1,0,0:0:0:0:
256,176,495773,2,0,P|238:134|149:97,1,120,2|0,0:0|0:0,0:0:0:0:
152,264,496471,1,0,0:0:0:0:
292,268,496703,6,0,L|364:268,1,60
256,176,497168,2,0,L|184:176,1,60,8|0,0:0|0:0,0:0:0:0:
152,264,497633,1,0,0:0:0:0:
256,176,497866,1,0,0:0:0:0:
292,268,498099,1,8,0:0:0:0:
384,112,498331,1,0,0:0:0:0:
440,180,498564,2,0,L|456:320,2,120,0|8|0,0:0|0:0|0:0,0:0:0:0:
384,112,499726,5,0,0:0:0:0:
208,152,499959,1,8,0:0:0:0:
328,212,500192,1,0,0:0:0:0:
131,198,500424,6,0,P|152:219|180:232,1,60
180,324,500889,2,8,P|209:321|236:308,1,60,8|0,0:0|0:0,0:0:0:0:
328,212,501354,1,0,0:0:0:0:
208,152,501587,1,0,0:0:0:0:
300,292,501819,2,0,L|368:304,1,60,8|0,0:0|0:0,0:0:0:0:
236,72,502285,2,0,P|176:72|132:120,1,120,0|8,0:0|0:0,0:0:0:0:
328,212,502982,1,0,0:0:0:0:
300,292,503215,2,0,P|360:292|404:244,1,120,0|8,0:0|0:0,0:0:0:0:
328,212,503913,1,0,0:0:0:0:
240,228,504145,6,0,P|208:232|180:228,1,60
300,292,504610,2,0,P|332:288|360:292,1,60,8|0,0:0|0:0,0:0:0:0:
240,228,505075,1,0,0:0:0:0:
160,336,505308,1,0,0:0:0:0:
124,208,505540,1,8,0:0:0:0:
76,284,505773,1,0,0:0:0:0:
196,156,506006,2,0,P|256:148|316:192,1,120,0|8,0:0|0:0,0:0:0:0:
344,260,506703,1,0,0:0:0:0:
424,216,506936,2,0,L|440:96,1,120,0|8,0:0|0:0,0:0:0:0:
452,8,507633,1,0,0:0:0:0:
344,260,507866,6,0,P|388:300|456:300,2,120,0|8|0,0:0|0:0|0:0,0:0:0:0:
264,300,509029,1,0,0:0:0:0:
204,236,509261,2,0,L|192:168,1,60,8|0,0:0|0:0,0:0:0:0:
153,307,509726,2,0,P|210:323|264:300,2,120,0|8|0,0:0|0:0|0:0,0:0:0:0:
120,224,510889,1,2,0:3:0:0:
348,268,511122,1,8,0:3:0:0:
320,128,511354,1,2,0:3:0:0:
148,248,511587,5,4,0:0:0:0:
140,240,512052,1,0,0:0:0:0:
128,232,512517,2,0,P|108:180|128:120,1,120
216,104,513215,6,0,B|288:108|328:64|328:64|336:100|376:112|376:112|328:144|308:224|308:224|372:196|416:232|416:232|448:260,1,480,4|0,0:0|0:0,0:0:0:0:
360,296,515308,5,4,0:0:0:0:
312,220,515540,1,0,0:0:0:0:
200,292,515773,2,0,P|140:300|84:272,1,120
312,220,516470,2,4,P|372:212|428:240,1,120
156,216,517168,2,0,L|168:96,2,120,0|0|0,0:0|0:0|0:0,0:0:0:0:
216,284,518331,1,0,0:0:0:0:
288,168,518564,1,0,0:0:0:0:
368,212,518797,1,2,0:3:0:0:
372,224,518913,1,2,0:3:0:0:
376,240,519029,1,4,0:0:0:0:
376,240,519494,5,0,0:0:0:0:
216,284,519959,2,0,L|136:288,1,60
88,348,520424,1,0,0:0:0:0:
288,168,520657,2,0,P|308:112|284:52,1,120,4|0,0:0|0:0,0:0:0:0:
224,120,521354,2,0,B|192:184|236:232|236:232|192:284|236:352,1,240
292,288,522517,5,0,0:0:0:0:
148,236,522750,1,4,0:0:0:0:
288,172,522982,1,0,0:0:0:0:
292,288,523215,2,0,L|303:346,1,60,0|0,0:0|0:0,0:0:0:0:
392,216,523680,1,0,0:0:0:0:
288,172,523913,2,0,P|268:116|284:60,1,120,4|4,0:0|0:0,0:0:0:0:
392,216,524610,2,0,P|412:272|396:328,2,120,0|0|0,0:0|0:0|0:0,0:0:0:0:
320,272,525773,1,0,0:0:0:0:
236,304,526006,1,0,0:0:0:0:
120,232,526238,1,2,0:3:0:0:
112,220,526355,1,2,0:3:0:0:
104,208,526471,1,0,0:0:0:0:
104,208,526936,5,0,0:0:0:0:
256,108,527401,1,0,0:0:0:0:
92,36,527866,1,0,0:0:0:0:
256,108,528331,1,0,0:0:0:0:
356,200,528564,1,0,0:0:0:0:
256,108,528796,1,0,0:0:0:0:
340,284,529029,2,0,P|396:276|436:224,1,120
356,200,529726,5,0,0:0:0:0:
240,272,529959,1,0,0:0:0:0:
176,152,530192,1,2,0:0:0:0:
196,336,530424,2,0,P|224:348|256:348,1,60
200,68,530889,2,0,P|140:76|92:132,2,120,2|0|0,0:0|0:0|0:0,0:0:0:0:
176,152,532052,1,2,0:0:0:0:
240,272,532285,1,0,0:0:0:0:
312,176,532517,1,0,0:0:0:0:
436,232,532750,2,0,L|448:352,1,120,2|0,0:0|0:0,0:0:0:0:
360,332,533447,2,0,L|352:268,1,60,2|2,0:0|0:0,0:0:0:0:
312,176,533913,5,8,0:0:0:0:
312,176,534145,1,8,0:0:0:0:
212,268,534378,1,8,0:0:0:0:
212,268,534610,1,8,0:0:0:0:
176,140,534843,1,8,0:0:0:0:
176,140,535075,1,8,0:0:0:0:
312,176,535308,1,8,0:0:0:0:
312,176,535540,1,8,0:0:0:0:
440,144,535773,6,8,L|452:224,1,60
216,248,536238,2,8,L|209:188,1,60
344,176,536703,2,8,L|336:235,1,60
84,268,537168,2,8,L|91:208,1,60
132,124,537633,5,8,0:0:0:0:
144,120,537750,1,8,0:0:0:0:
156,116,537866,1,8,0:0:0:0:
172,112,537982,1,8,0:0:0:0:
188,112,538099,1,8,0:0:0:0:
204,116,538215,1,8,0:0:0:0:
220,120,538331,1,8,0:0:0:0:
232,124,538447,1,8,0:0:0:0:
244,132,538564,1,8,0:0:0:0:
256,136,538680,1,8,0:0:0:0:
268,144,538796,1,8,0:0:0:0:
280,144,538913,1,8,0:0:0:0:
296,148,539029,1,8,0:0:0:0:
312,152,539145,1,8,0:0:0:0:
328,152,539261,1,8,0:0:0:0:
344,152,539378,1,8,0:0:0:0:
360,152,539494,1,0,0:0:0:0:
256,192,539610,12,0,541354,0:0:0:0:
408,200,541703,6,0,L|404:264,1,45.0000017166138,8|0,0:0|0:0,0:0:0:0:
308,160,541936,2,0,L|304:100,1,45.0000017166138,0|8,0:0|0:0,0:0:0:0:
236,220,542285,2,0,P|232:252|240:292,1,60.0000022888184,8|0,0:0|0:0,0:0:0:0:
176,156,542595,2,0,L|100:156,1,60.0000022888184,0|8,0:0|0:0,0:0:0:0:
64,228,542905,2,0,P|60:256|64:296,1,60.0000022888184,0|0,0:0|0:0,0:0:0:0:
132,72,543215,1,8,0:0:0:0:
132,72,543564,6,0,L|136:132,1,45.0000017166138,8|0,0:0|0:0,0:0:0:0:
224,200,543796,2,0,L|221:155,1,45.0000017166138,0|8,0:0|0:0,0:0:0:0:
391,308,544145,2,0,P|361:312|332:308,1,60.0000022888184,8|0,0:0|0:0,0:0:0:0:
252,268,544455,2,0,P|220:264|192:268,1,60.0000022888184,0|8,0:0|0:0,0:0:0:0:
56,272,544843,2,0,L|60:324,2,45.0000017166138,8|8|4,0:0|0:0|0:0,0:0:0:0:
92,140,545424,6,0,L|84:88,1,45.0000017166138,8|0,0:0|0:0,0:0:0:0:
168,72,545657,2,0,L|176:16,1,45.0000017166138,0|8,0:0|0:0,0:0:0:0:
268,108,546006,2,0,P|304:112|336:104,1,60.0000022888184,8|0,0:0|0:0,0:0:0:0:
396,168,546316,2,0,L|400:244,1,60.0000022888184,0|8,0:0|0:0,0:0:0:0:
319,323,546626,2,0,L|316:264,1,60.0000022888184
224,248,546936,1,8,0:0:0:0:
256,192,547052,12,8,548796,0:0:0:0:
128,292,549145,5,8,0:0:0:0:
120,280,549261,1,0,0:0:0:0:
112,268,549378,1,0,0:0:0:0:
104,256,549494,1,8,0:0:0:0:
168,156,549726,2,0,L|200:112,2,40,8|0|0,0:0|0:0|0:0,0:0:0:0:
244,204,550192,2,0,L|289:173,2,40,8|0|0,0:0|0:0|0:0,0:0:0:0:
288,284,550657,6,0,P|336:284|368:312,1,90,8|8,0:0|0:0,0:0:0:0:
372,324,551122,1,0,0:0:0:0:
376,340,551238,1,0,0:0:0:0:
376,356,551354,1,0,0:0:0:0:
428,144,551587,2,0,P|404:156|392:180,1,40,8|0,0:0|0:0,0:0:0:0:
316,128,551897,2,8,P|309:154|320:178,1,40
232,208,552285,2,0,L|192:212,2,30,8|8|4,0:0|0:0|0:0,0:0:0:0:
236,300,552866,5,8,0:0:0:0:
220,304,552982,1,0,0:0:0:0:
204,308,553098,1,0,0:0:0:0:
188,308,553215,1,8,0:0:0:0:
96,236,553447,2,0,L|84:184,1,40,8|0,0:0|0:0,0:0:0:0:
160,144,553757,2,0,L|171:91,1,40,0|8,0:0|0:0,0:0:0:0:
260,100,554068,2,0,L|292:57,1,40
360,112,554378,5,0,0:0:0:0:
444,216,554610,1,0,0:0:0:0:
392,316,554843,1,8,0:0:0:0:
308,212,555075,1,0,0:0:0:0:
196,292,555308,2,0,P|152:304|84:264,1,120,0|8,0:0|0:0,0:0:0:0:
52,188,556006,1,0,0:0:0:0:
216,116,556238,1,4,0:0:0:0:
256,192,556354,12,0,563680,0:0:0:0:
188,184,576703,6,0,L|200:256,1,60
416,188,577168,2,0,L|426:129,1,60
112,132,577633,2,0,L|96:196,1,60
340,240,578099,2,0,L|326:182,1,60
132,264,578564,2,0,P|52:260|28:232,2,120,4|0|0,0:0|0:0|0:0,0:0:0:0:
212,220,579726,1,0,0:0:0:0:
248,304,579959,1,0,0:0:0:0:
328,192,580192,1,0,0:0:0:0:
404,236,580424,2,0,L|416:304,1,60
431,154,580889,2,0,P|373:155|327:192,2,120,0|4|0,0:0|0:0|0:0,0:0:0:0:
404,236,582052,1,0,0:0:0:0:
332,288,582285,6,0,L|208:308,1,120,4|0,0:0|0:0,0:0:0:0:
101,235,582982,2,0,L|220:216,1,120,4|0,0:0|0:0,0:0:0:0:
124,316,583680,1,0,0:0:0:0:
124,316,583913,1,0,0:0:0:0:
84,148,584145,2,0,P|80:120|84:88,1,60
168,120,584610,2,0,P|184:176|156:248,2,120,0|0|0,0:0|0:0|0:0,0:0:0:0:
96,176,585773,1,0,0:0:0:0:
252,84,586006,2,0,P|312:88|368:60,1,120,4|0,0:0|0:0,0:0:0:0:
504,126,586703,2,0,P|445:122|392:148,1,120,4|0,0:0|0:0,0:0:0:0:
304,164,587401,1,4,0:0:0:0:
304,164,587633,1,0,0:0:0:0:
460,204,587866,6,0,L|468:280,1,60
296,324,588331,1,0,0:0:0:0:
296,324,588796,2,0,L|176:336,1,120
104,280,589494,2,0,B|88:200|88:200|108:160,1,120,4|0,0:0|0:0,0:0:0:0:
168,100,590192,2,0,B|184:180|184:180|164:220,1,120,4|0,0:0|0:0,0:0:0:0:
104,280,590889,1,0,0:0:0:0:
256,196,591122,1,0,0:0:0:0:
368,272,591354,1,0,0:0:0:0:
384,92,591587,6,0,P|360:112|352:148,1,60,4|0,0:0|0:0,0:0:0:0:
280,84,592052,2,0,P|266:112|274:148,1,60,4|0,0:0|0:0,0:0:0:0:
180,136,592517,2,0,P|179:167|202:196,1,60,4|0,0:0|0:0,0:0:0:0:
132,256,592982,2,0,P|145:284|177:301,1,60,4|0,0:0|0:0,0:0:0:0:
344,256,593447,1,0,1:0:0:0:
256,192,593564,12,0,595773,0:0:0:0:
280,308,596238,6,0,L|400:304,2,120,0|8|0,0:0|0:0|0:0,0:0:0:0:
108,248,597633,2,8,P|92:192|128:120,2,120
288,260,599029,1,0,0:0:0:0:
300,240,599494,1,8,0:0:0:0:
312,232,599959,1,8,0:0:0:0:
324,224,600424,1,8,0:0:0:0:
336,216,600889,6,0,P|356:160|336:100,2,120,0|8|0,0:0|0:0|0:0,0:0:0:0:
160,104,602285,2,0,L|76:112,1,60,8|0,0:0|0:0,0:0:0:0:
264,192,602750,2,0,P|244:248|268:312,1,120,0|8,0:0|0:0,0:0:0:0:
96,324,603447,1,0,0:0:0:0:
72,192,603680,1,0,0:0:0:0:
68,180,603796,1,0,0:0:0:0:
64,168,603912,1,0,0:0:0:0:
116,96,604145,2,0,B|148:104|148:104|220:72,1,90,8|0,0:0|0:0,0:0:0:0:
200,80,604610,6,0,P|212:108|196:140,1,60
144,212,605075,1,8,0:0:0:0:
272,44,605308,2,0,P|288:104|268:172,1,120
311,303,606006,6,0,P|300:276|310:248,1,60,8|0,0:0|0:0,0:0:0:0:
368,172,606471,1,0,0:0:0:0:
239,339,606704,2,0,P|224:282|236:224,1,120,8|0,0:0|0:0,0:0:0:0:
72,196,607401,2,0,L|140:180,1,60,8|0,0:0|0:0,0:0:0:0:
88,212,607866,6,0,L|204:184,1,120,8|0,0:0|0:0,0:0:0:0:
292,156,608331,5,4,0:0:0:0:
378,124,608564,1,0,0:0:0:0:
344,43,608796,1,8,0:0:0:0:
258,74,609029,1,0,0:0:0:0:
192,136,609261,5,0,0:0:0:0:
175,226,609494,1,0,0:0:0:0:
89,206,609726,1,8,0:0:0:0:
104,112,609959,1,0,0:0:0:0:
296,232,610192,2,0,P|328:236|356:232,1,60
175,226,610657,2,0,P|168:264|176:296,1,60,8|0,0:0|0:0,0:0:0:0:
256,320,611122,2,0,L|320:324,1,60
175,226,611587,2,0,L|112:224,1,60,8|0,0:0|0:0,0:0:0:0:
256,320,612052,5,0,0:0:0:0:
168,312,612285,1,0,0:0:0:0:
175,226,612517,1,8,0:0:0:0:
264,232,612750,1,0,0:0:0:0:
372,152,612982,2,0,P|380:120|360:80,1,60
264,232,613447,2,0,P|256:264|276:304,1,60,8|0,0:0|0:0,0:0:0:0:
128,304,613913,5,0,0:0:0:0:
128,304,614145,1,0,0:0:0:0:
132,168,614378,1,8,0:0:0:0:
132,168,614610,1,0,0:0:0:0:
264,232,614843,1,0,0:0:0:0:
264,232,615076,1,0,0:0:0:0:
392,196,615308,1,8,0:0:0:0:
392,196,615541,1,0,0:0:0:0:
307,69,615773,5,0,0:0:0:0:
296,60,615889,1,0,0:0:0:0:
284,52,616006,1,0,0:0:0:0:
268,48,616122,1,0,0:0:0:0:
252,48,616238,2,8,L|204:48,3,30,8|0|8|0,0:0|0:0|0:0|0:0,0:0:0:0:
256,148,616703,5,0,0:0:0:0:
256,164,616819,1,0,0:0:0:0:
256,180,616935,1,0,0:0:0:0:
256,196,617052,1,0,0:0:0:0:
256,212,617168,2,0,L|256:248,3,30,8|0|8|0,0:0|0:0|0:0|0:0,0:0:0:0:
205,315,617633,5,0,0:0:0:0:
216,324,617749,1,0,0:0:0:0:
228,332,617866,1,0,0:0:0:0:
244,336,617982,1,0,0:0:0:0:
260,336,618098,2,0,L|308:336,3,30,8|0|8|0,0:0|0:0|0:0|0:0,0:0:0:0:
212,192,618564,5,0,0:0:0:0:
228,192,618680,1,0,0:0:0:0:
244,192,618796,1,0,0:0:0:0:
260,192,618913,1,0,0:0:0:0:
276,192,619029,2,0,L|312:192,3,30,8|0|8|8,0:0|0:0|0:0|0:0,0:0:0:0:
256,192,619494,12,0,621354,0:0:0:0:
312,204,622285,6,0,P|256:224|188:192,2,120,8|8|8,0:0|0:0|0:3,0:0:0:0:
356,124,623447,5,0,0:0:0:0:
408,196,623680,2,0,L|420:276,1,60,8|0,0:0|0:0,0:0:0:0:
428,264,624029,1,0,0:0:0:0:
436,276,624145,2,0,P|396:300|380:328,1,60,8|0,0:3|0:0,0:0:0:0:
300,208,624610,1,8,0:0:0:0:
252,332,624843,1,0,0:0:0:0:
178,279,625075,2,0,B|162:239|162:239|182:223|182:187|182:187|170:155,1,120,8|8,0:3|0:0,0:0:0:0:
272,72,625773,1,0,0:0:0:0:
272,72,625890,1,0,0:0:0:0:
272,72,626006,2,0,L|352:72,1,60,8|0,0:3|0:0,0:0:0:0:
308,164,626471,1,8,0:0:0:0:
440,132,626703,1,0,0:0:0:0:
360,240,626936,6,8,P|300:256|244:228,1,120,8|8,0:3|0:0,0:0:0:0:
164,260,627633,2,0,L|168:304,1,30
160,244,627866,1,8,0:3:0:0:
80,200,628099,1,0,0:0:0:0:
172,104,628331,1,8,0:0:0:0:
44,56,628564,1,0,0:0:0:0:
184,188,628796,2,0,P|232:160|252:100,1,120,8|8,0:3|0:0,0:0:0:0:
340,76,629494,1,0,0:0:0:0:
344,92,629610,1,0,0:0:0:0:
348,108,629726,1,8,0:3:0:0:
400,248,629959,5,8,0:0:0:0:
384,248,630076,1,0,0:0:0:0:
368,252,630192,1,8,0:0:0:0:
356,260,630308,1,0,0:0:0:0:
344,268,630424,1,8,0:0:0:0:
332,276,630541,1,8,0:0:0:0:
316,280,630657,6,0,L|248:280,1,60,8|0,0:3|0:0,0:0:0:0:
179,327,631122,1,8,0:0:0:0:
344,172,631354,1,0,0:0:0:0:
344,172,631470,1,0,0:0:0:0:
344,172,631587,2,0,P|348:144|344:112,1,60,8|0,0:3|0:0,0:0:0:0:
268,64,632052,2,0,L|196:64,1,60,8|0,0:0|0:0,0:0:0:0:
344,171,632517,2,0,B|388:171|388:171|416:184|416:184|464:184,1,120,8|8,0:3|0:0,0:0:0:0:
304,244,633215,5,0,0:0:0:0:
304,244,633331,1,0,0:0:0:0:
304,244,633447,2,0,P|276:224|264:196,1,60,8|0,0:3|0:0,0:0:0:0:
344,92,633913,1,8,0:0:0:0:
208,96,634145,1,0,0:0:0:0:
132,148,634378,5,0,0:0:0:0:
248,192,634610,1,0,0:0:0:0:
140,292,634843,2,0,P|188:296|224:276,2,90,2|2|2,0:0|0:0|0:0,0:0:0:0:
76,228,635773,1,0,0:0:0:0:
76,228,636006,1,0,0:0:0:0:
248,192,636238,2,0,L|236:116,1,60
316,84,636703,1,2,0:0:0:0:
416,172,636936,1,2,0:0:0:0:
288,264,637168,2,0,P|256:272|208:264,1,60,0|0,0:0|0:0,0:0:0:0:
88,156,637633,1,8,0:0:0:0:
168,120,637866,1,8,0:0:0:0:
172,300,638099,5,0,0:0:0:0:
256,192,638215,12,0,641819,0:0:0:0:
