osu file format v13

[General]
AudioFilename: dzeko & torres - 2013 in 10 minutes.mp3
AudioLeadIn: 0
PreviewTime: 59959
Countdown: 0
SampleSet: Normal
StackLeniency: 0.4
Mode: 0
LetterboxInBreaks: 1
WidescreenStoryboard: 0

[Editor]
DistanceSpacing: 1.2
BeatDivisor: 4
GridSize: 4
TimelineZoom: 2.8

[Metadata]
Title:2013 In 10 Minutes
TitleUnicode:2013 In 10 Minutes
Artist:Dzeko & Torres
ArtistUnicode:Dzeko & Torres
Creator:Aleks719
Version:Marathon
Source:
Tags:House Trance Electro Progressive Remix Acapella Instrumental Calvin Harris Ellie Goulding Need Love Nicky Romero Alesso One Republic Lose Myself Lana Del Rey Young Beautiful Kaskade Symphonica Burn Tiesto Steve Angello Matisse Sadko SLVR Sebjak Marcus Schossow Liceu Krewella Legacy Arno Cost Chasing R3hab Quintino Atmosphere Moguai Dimitri Vegas Like Mike Mammoth Hard Rock Sofa Rasputin Summertime Sadness David Guetta GLOWINTHEDARK Fatboy Slim Eat Sleep Rave Repeat Thomas Newson New World Sound Flute Knife LRAD Tommy Trash Aston Shuffle Sunrise GTA Henrix Digital Lab Hit It Showtek Get Loose Martik Garrix Animals Zedd Lucky Date Fall Into The Sky Alive Dannic Clobber Wakanda Deorro Yee TJR Suckaz Don Diablo Matt Nash Starlight Chuckie Down This W&W Ummet Ozcan Code Hardwell MakJ Countdown DVBBS Borgeous Tsunami Avicii Aloe Blacc Wake Party Axwell Center Universe Capital Cities Safe Booyah Armin Van Buuren Trevore Guthrie What Feels Dyro Paradise Apollo Clarity Alvaro Mercer Lil Jon
BeatmapID:389398
BeatmapSetID:159357

[Difficulty]
HPDrainRate:7
CircleSize:4
OverallDifficulty:7
ApproachRate:8
SliderMultiplier:1.6
SliderTickRate:1

[Events]
//Background and Video events
0,0,"Abstract-Wallpaper.jpg",0,0
//Break Periods
2,109926,116238
2,403880,410837
2,556438,559442
//Storyboard Layer 0 (Background)
//Storyboard Layer 1 (Fail)
//Storyboard Layer 2 (Pass)
//Storyboard Layer 3 (Foreground)
//Storyboard Sound Samples
//Background Colour Transformations
3,100,11,11,11

[TimingPoints]
1820,465.116279069767,4,2,0,45,1,0
16703,-125,4,2,0,50,0,0
42750,-125,4,2,0,65,0,0
46471,-125,4,2,0,70,0,0
54843,-111.111111111111,4,2,0,65,0,0
61354,-100,4,1,0,45,0,0
68796,-90.9090909090909,4,1,0,50,0,0
72517,-83.3333333333333,4,1,0,55,0,0
76238,-100,4,1,0,60,0,1
91122,-100,4,1,0,70,0,0
93447,-125,4,2,0,20,0,0
93913,-125,4,2,0,30,0,0
94378,-125,4,2,0,40,0,0
94843,-125,4,2,0,50,0,0
95308,-125,4,2,0,60,0,0
96703,-125,4,2,0,70,0,0
106006,-100,4,3,0,70,0,0
109726,-142.857142857143,4,2,0,60,0,0
117168,-125,4,2,0,70,0,0
124843,-142.857142857143,4,2,0,60,0,0
135540,-125,4,2,0,50,0,0
139494,-100,4,1,0,55,0,0
146936,-90.9090909090909,4,1,0,65,0,1
161587,-90.9090909090909,4,1,0,70,0,0
161819,-100,4,2,0,10,0,0
164378,-133.333333333333,4,2,0,30,0,0
165540,-133.333333333333,4,2,0,35,0,0
169261,-133.333333333333,4,2,0,45,0,0
172052,-133.333333333333,4,2,0,50,0,0
175308,-133.333333333333,4,2,0,70,0,0
175773,-133.333333333333,4,2,0,80,0,0
176238,-133.333333333333,4,2,0,90,0,0
176703,-100,4,1,0,55,0,0
191587,-100,4,1,0,50,0,0
199029,-100,4,1,0,60,0,0
206471,-111.111111111111,4,1,0,55,0,0
228796,-90.9090909090909,4,1,0,60,0,0
236238,-100,4,1,0,60,0,0
243680,-100,4,1,0,70,0,1
243796,-100,4,1,0,60,0,0
251122,-111.111111111111,4,2,0,60,0,0
266006,-95.2380952380952,4,1,0,50,0,0
280889,-83.3333333333333,4,1,0,60,0,0
310657,-100,4,1,0,55,0,0
311122,-100,4,1,0,60,0,1
323564,-100,4,2,0,40,0,0
325540,-100,4,1,0,60,0,1
325657,-100,4,1,0,60,0,0
329261,-111.111111111111,4,2,0,50,0,0
344145,-100,4,1,0,50,0,0
359029,-90.9090909090909,4,1,0,60,0,1
373913,-83.3333333333333,4,1,0,65,0,0
389029,-80,4,1,0,60,0,0
403680,-80,4,1,0,70,0,0
411587,-100,4,2,0,45,0,0
414726,-100,4,2,0,25,0,0
414959,-100,4,2,0,55,0,0
417633,-100,4,2,0,40,0,0
417982,-100,4,2,0,50,0,0
418215,-100,4,2,0,60,0,0
418447,-100,4,2,0,70,0,0
418913,-100,4,2,0,35,0,0
420889,-100,4,2,0,50,0,0
433447,-90.9090909090909,4,2,0,70,0,0
455773,-100,4,1,0,65,0,0
478099,-100,4,1,0,55,0,0
478564,-100,4,2,0,55,0,0
479029,-100,4,2,0,45,0,0
479494,-100,4,2,0,35,0,0
479959,-100,4,2,0,25,0,0
480424,-100,4,2,0,15,0,0
480889,-100,4,2,0,5,0,0
481819,-100,4,1,0,60,0,0
496703,-90.9090909090909,4,1,0,60,0,0
511587,-100,4,1,0,60,0,0
534726,-100,4,1,0,50,0,0
535657,-100,4,1,0,40,0,0
537052,-100,4,1,0,50,0,0
537517,-100,4,1,0,55,0,0
540889,-83.3333333333333,4,1,0,65,0,0
541354,-83.3333333333333,4,1,0,80,0,1
541587,-83.3333333333333,4,1,0,60,0,1
546936,-83.3333333333333,4,1,0,60,0,0
548796,-83.3333333333333,4,1,0,60,0,1
556238,-83.3333333333333,4,1,0,80,0,0
559959,-83.3333333333333,4,1,0,25,0,0
560889,-83.3333333333333,4,1,0,35,0,0
561819,-83.3333333333333,4,1,0,45,0,0
562750,-83.3333333333333,4,1,0,55,0,0
563680,-100,4,2,0,60,0,0
564029,-100,4,2,0,50,0,0
578564,-100,4,2,0,60,0,0
591471,-100,4,2,0,45,0,0
593447,-111.111111111111,4,2,0,60,0,0
603564,-100,4,2,0,60,0,0
604610,-100,4,1,0,60,0,0
608331,-90.9090909090909,4,1,0,60,0,0
615773,-83.3333333333333,4,1,0,60,0,0
623215,-90.9090909090909,4,1,0,60,0,1
638215,-90.9090909090909,4,2,0,50,0,0
639029,-90.9090909090909,4,2,0,40,0,0
639959,-90.9090909090909,4,2,0,30,0,0
640889,-90.9090909090909,4,2,0,20,0,0
641819,-90.9090909090909,4,2,0,10,0,0
642750,-90.9090909090909,4,2,0,5,0,0

[Colours]
Combo1 : 108,0,108
Combo2 : 249,0,0
Combo3 : 255,128,0
Combo4 : 249,249,0
Combo5 : 0,204,0
Combo6 : 74,165,255
Combo7 : 0,0,155

[HitObjects]
247,58,1820,5,4,0:1:0:0:
247,58,2285,2,0,P|275:126|355:146,2,160,0|2|0,0:0|0:0|0:0,0:0:0:0:
404,248,3680,5,4,0:0:0:0:
404,248,4145,2,0,P|331:238|273:297,2,160,0|2|0,0:0|0:0|0:0,0:0:0:0:
162,289,5540,5,4,0:0:0:0:
162,289,6005,2,0,P|206:230|184:151,2,160,0|2|2,0:0|0:0|0:0,0:0:0:0:
340,296,7401,5,4,0:0:0:0:
304,67,8098,1,4,0:0:0:0:
124,212,8796,1,2,0:0:0:0:
256,192,9261,1,4,0:1:0:0:
40,152,9726,6,0,P|68:128|80:84,1,80,2|0,0:0|0:0,0:0:0:0:
152,140,10192,2,0,P|168:96|168:64,1,80
256,72,10657,1,2,0:0:0:0:
472,232,11122,6,0,P|444:256|432:300,1,80,4|0,0:2|0:0,0:0:0:0:
360,244,11588,2,0,P|344:280|344:320,1,80
264,280,12052,2,0,P|256:308|264:360,1,80,2|0,0:0|0:0,0:0:0:0:
276,184,12517,2,0,P|244:156|204:148,1,80
100,156,12982,5,4,0:0:0:0:
52,344,13447,2,0,P|88:328|132:336,1,80,2|0,0:0|0:0,0:0:0:0:
212,360,13913,1,0,0:0:0:0:
300,352,14145,1,0,0:0:0:0:
368,296,14378,1,2,0:0:0:0:
320,128,14843,2,0,P|348:36|396:132,2,240,4|4|2,0:0|0:0|0:0,0:0:0:0:
316,324,16703,5,4,0:1:0:0:
196,324,17168,1,0,0:0:0:0:
156,212,17633,2,0,P|96:164|80:116,1,128,2|0,0:0|0:0,0:0:0:0:
256,176,18564,1,2,0:0:0:0:
256,60,19029,1,0,0:0:0:0:
356,212,19494,2,0,P|407:176|431:118,1,128,2|0,0:0|0:0,0:0:0:0:
380,56,20192,1,0,0:0:0:0:
380,56,20424,6,0,P|320:44|256:60,1,128,2|0,0:0|0:0,0:0:0:0:
32,124,21354,2,0,P|93:139|156:128,1,128,0|0,0:0|0:0,0:0:0:0:
380,56,22285,1,2,0:0:0:0:
264,224,22750,1,0,0:0:0:0:
264,224,22982,1,2,0:0:0:0:
468,200,23447,6,0,L|508:144,2,64,0|0|0,0:0|0:0|0:0,0:0:0:0:
396,252,24145,2,0,P|380:184|408:132,1,128,2|0,0:0|0:0,0:0:0:0:
412,272,24843,2,0,P|348:284|292:260,1,128,2|0,0:0|0:0,0:0:0:0:
100,112,25773,6,0,P|164:100|220:124,1,128,2|0,0:0|0:0,0:0:0:0:
264,224,26471,2,0,L|336:236,1,64,0|2,0:0|0:0,0:0:0:0:
388,156,26936,2,0,L|324:156,1,64
392,80,27401,2,0,L|464:92,1,64
360,72,27866,6,0,P|296:52|240:68,2,128,2|2|2,0:0|0:0|0:0,0:0:0:0:
296,168,29261,1,2,0:0:0:0:
352,267,29726,2,0,P|291:283|232:264,1,128,2|2,0:0|0:0,0:0:0:0:
120,212,30657,5,2,0:0:0:0:
69,145,30889,1,0,0:0:0:0:
117,77,31122,1,0,0:0:0:0:
197,101,31354,1,2,0:0:0:0:
198,184,31587,6,0,P|260:208|324:200,1,128,2|0,0:0|0:0,0:0:0:0:
300,40,32517,2,0,P|238:16|174:24,1,128
100,52,33215,1,0,0:0:0:0:
52,120,33447,2,0,L|64:184,1,64,2|0,0:0|0:0,0:0:0:0:
192,168,33913,1,2,0:0:0:0:
92,308,34378,6,0,L|160:332,1,64,2|0,0:0|0:0,0:0:0:0:
254,242,34843,2,0,L|192:256,1,64,0|0,0:0|0:0,0:0:0:0:
344,216,35308,6,0,P|360:152|344:88,1,128,2|0,0:0|0:0,0:0:0:0:
100,68,36238,2,0,P|84:132|100:196,1,128,0|0,0:0|0:0,0:0:0:0:
148,260,36936,1,0,0:0:0:0:
232,276,37168,2,0,P|264:268|296:268,1,64,2|0,0:0|0:0,0:0:0:0:
380,292,37633,1,0,0:0:0:0:
316,352,37866,1,0,0:0:0:0:
296,268,38099,5,2,0:0:0:0:
272,188,38331,1,0,0:0:0:0:
216,124,38564,2,0,B|212:88|212:88|224:56,1,64
296,100,39029,6,0,P|284:176|240:204,1,128,2|0,0:0|0:0,0:0:0:0:
80,216,39959,2,0,B|112:224|124:256|124:256|156:268|172:300,1,128,2|0,0:0|0:0,0:0:0:0:
96,336,40657,1,0,0:0:0:0:
176,204,40889,1,2,0:0:0:0:
48,288,41122,2,0,P|0:212|60:140,1,192,2|0,0:0|0:0,0:0:0:0:
228,92,42285,5,0,0:0:0:0:
304,144,42517,1,0,0:0:0:0:
220,184,42750,1,2,0:0:0:0:
256,192,42866,12,2,46006,0:0:0:0:
252,140,46471,5,4,0:1:0:0:
152,196,46819,1,0,0:0:0:0:
152,196,46936,2,0,P|160:268|148:324,1,128,2|0,0:0|0:0,0:0:0:0:
8,256,47866,1,0,0:0:0:0:
28,104,48331,6,0,P|84:76|148:84,1,128,2|0,0:0|0:0,0:0:0:0:
216,116,49029,1,2,0:0:0:0:
292,120,49261,1,0,0:0:0:0:
308,128,49726,2,0,L|320:260,2,128,2|0|0,0:0|0:0|0:0,0:0:0:0:
480,92,51122,6,0,L|500:28,1,64,2|0,0:0|0:0,0:0:0:0:
464,136,51587,2,0,P|480:200|468:264,2,128,2|2|0,0:0|0:0|0:0,0:0:0:0:
392,92,52750,1,2,0:0:0:0:
312,116,52982,2,0,P|280:124|248:120,1,64
172,88,53447,5,2,0:0:0:0:
240,36,53680,1,0,0:0:0:0:
248,120,53913,2,0,L|240:184,1,64,2|0,0:0|0:0,0:0:0:0:
84,200,54378,2,0,L|92:136,1,64,0|0,0:0|0:0,0:0:0:0:
72,280,54843,5,2,0:0:0:0:
88,288,55308,1,0,0:0:0:0:
104,296,55773,2,0,P|168:264|184:184,1,143.999995605469,2|0,0:0|0:0,0:0:0:0:
176,92,56471,2,0,P|228:72|284:88,2,107.999996704102,2|2|0,0:0|0:0|0:0,0:0:0:0:
76,132,57401,1,0,0:0:0:0:
112,232,57633,2,0,P|116:288|152:324,1,107.999996704102,2|0,0:0|0:0,0:0:0:0:
180,320,58099,6,0,L|256:308,1,71.9999978027344,2|0,0:0|0:0,0:0:0:0:
472,228,58564,2,0,L|400:239,1,71.9999978027344,2|0,0:0|0:0,0:0:0:0:
344,320,59029,2,0,L|320:252,1,71.9999978027344,4|0,0:3|0:0,0:0:0:0:
280,124,59494,2,0,L|244:112,3,35.9999989013672,2|0|2|0,0:0|0:0|0:0|0:0,0:0:0:0:
208,100,59959,6,0,L|136:120,1,71.9999978027344,2|0,0:0|0:0,0:0:0:0:
172,264,60424,2,0,L|190:191,1,71.9999978027344,2|0,0:0|0:0,0:0:0:0:
44,168,60889,2,0,L|97:220,1,71.9999978027344,4|0,0:3|0:0,0:0:0:0:
200,312,61354,5,6,0:1:0:0:
296,296,61587,1,0,0:0:0:0:
392,312,61819,1,0,0:0:0:0:
420,220,62052,1,2,0:0:0:0:
328,192,62285,5,2,0:0:0:0:
232,208,62518,1,0,0:0:0:0:
136,192,62750,1,2,0:0:0:0:
108,284,62983,1,0,0:0:0:0:
200,312,63215,6,2,L|276:344,1,80,6|0,0:0|0:0,0:0:0:0:
389,225,63680,2,0,L|312:244,1,80,0|2,0:0|0:0,0:0:0:0:
178,178,64145,6,0,L|256:160,1,80,2|0,0:0|0:0,0:0:0:0:
328,48,64610,2,0,L|401:79,1,80,2|2,0:0|0:0,0:0:0:0:
288,32,65075,5,6,0:0:0:0:
192,76,65308,1,0,0:0:0:0:
88,76,65540,1,0,0:0:0:0:
76,180,65773,1,0,0:0:0:0:
128,272,66006,6,2,P|148:304|144:348,1,80,2|0,0:0|0:0,0:0:0:0:
24,304,66471,2,2,P|4:272|8:228,1,80,2|0,0:0|0:0,0:0:0:0:
240,248,66936,2,2,P|260:280|256:324,1,80,2|0,0:0|0:0,0:0:0:0:
16,204,67401,2,0,L|28:120,1,80,0|2,0:0|0:0,0:0:0:0:
48,16,67866,5,2,0:1:0:0:
76,24,68099,1,0,0:0:0:0:
104,32,68331,1,2,0:0:0:0:
132,40,68564,1,0,0:0:0:0:
164,48,68796,6,0,L|200:88,3,44.0000013427735,4|0|0|0,0:0|0:0|0:0|0:0,0:0:0:0:
232,92,69261,2,0,L|268:132,3,44.0000013427735,0|0|2|0,0:0|0:0|0:0|0:0,0:0:0:0:
300,136,69726,2,0,L|336:176,3,44.0000013427735,2|0|0|0,0:0|0:0|0:0|0:0,0:0:0:0:
368,180,70192,2,0,L|404:220,3,44.0000013427735,2|0|0|0,0:0|0:0|0:0|0:0,0:0:0:0:
436,224,70657,5,2,0:0:0:0:
460,244,70773,1,0,0:0:0:0:
472,272,70889,1,0,0:0:0:0:
472,304,71006,1,0,0:0:0:0:
456,332,71122,1,0,0:0:0:0:
432,348,71239,1,0,0:0:0:0:
400,348,71354,1,2,0:0:0:0:
372,340,71471,1,0,0:0:0:0:
352,320,71587,1,2,0:0:0:0:
340,292,71704,1,0,0:0:0:0:
320,268,71819,1,0,0:0:0:0:
292,260,71935,1,2,0:0:0:0:
260,264,72052,2,0,L|208:276,3,44.0000013427735,0|0|2|0,0:0|0:0|0:0|0:0,0:0:0:0:
184,284,72517,5,2,0:0:0:0:
152,292,72633,1,0,0:0:0:0:
120,288,72749,1,0,0:0:0:0:
92,272,72865,1,0,0:0:0:0:
72,244,72982,1,2,0:0:0:0:
64,212,73098,1,0,0:0:0:0:
72,180,73215,1,0,0:0:0:0:
92,152,73331,1,0,0:0:0:0:
120,136,73447,2,0,L|172:152,3,47.9999985351563,2|0|0|0,0:0|0:0|0:0|0:0,0:0:0:0:
200,160,73913,6,0,L|236:148,8,23.9999992675781,2|0|0|0|0|0|0|0|8,0:0|0:0|0:0|0:0|0:0|0:0|0:0|0:0|0:3,0:0:0:0:
380,168,75075,2,0,P|432:160|468:136,2,95.9999970703126,2|2|0,0:0|0:0|0:0,0:0:0:0:
248,144,75773,1,2,0:0:0:0:
236,156,76238,5,6,0:0:0:0:
52,248,76703,2,0,L|40:332,1,80,0|0,0:0|0:0,0:0:0:0:
48,208,77168,1,0,0:0:0:0:
112,124,77401,1,0,0:0:0:0:
112,20,77633,1,4,0:2:0:0:
128,28,78099,6,0,L|208:36,1,80
344,72,78564,2,0,L|264:104,1,80
176,204,79029,2,0,L|184:124,1,80
344,72,79494,1,0,0:0:0:0:
376,172,79726,1,0,0:0:0:0:
336,268,79959,1,4,0:2:0:0:
328,284,80424,6,0,P|288:280|252:296,1,80
404,316,80889,2,0,P|444:320|480:304,1,80
424,216,81354,1,4,0:2:0:0:
412,204,81819,6,0,P|408:164|420:124,1,80
512,176,82285,1,0,0:0:0:0:
444,296,82517,2,0,P|404:300|364:288,1,80,0|8,0:0|0:3,0:0:0:0:
272,248,82982,1,2,0:3:0:0:
168,240,83215,1,8,0:3:0:0:
348,184,83447,1,2,0:3:0:0:
92,304,83680,5,4,0:2:0:0:
64,72,84145,2,0,P|28:56|0:28,1,80,4|0,0:2|0:0,0:0:0:0:
108,80,84610,1,0,0:0:0:0:
212,60,84843,1,0,0:0:0:0:
312,92,85075,1,4,0:2:0:0:
328,100,85540,6,0,L|336:184,1,80,4|0,0:2|0:0,0:0:0:0:
412,56,86006,2,0,L|420:140,1,80,2|0,0:3|0:0,0:0:0:0:
376,328,86471,1,0,0:0:0:0:
432,240,86703,1,0,0:0:0:0:
288,268,86936,2,0,B|264:260|264:260|232:264|232:264|208:256,2,80,4|0|4,0:2|0:0|0:2,0:0:0:0:
312,264,87866,5,4,0:2:0:0:
276,165,88099,1,0,0:0:0:0:
202,94,88331,1,0,0:0:0:0:
103,65,88564,1,0,0:0:0:0:
0,84,88796,1,4,0:2:0:0:
16,92,89261,6,0,L|24:176,1,80,8|0,0:3|0:0,0:0:0:0:
20,352,89726,2,0,L|12:268,1,80,8|0,0:3|0:0,0:0:0:0:
100,236,90192,1,8,0:3:0:0:
124,252,90308,1,8,0:3:0:0:
152,260,90424,1,8,0:3:0:0:
180,260,90540,1,8,0:3:0:0:
208,256,90657,1,8,0:3:0:0:
312,120,90889,1,8,0:3:0:0:
288,108,91006,1,8,0:3:0:0:
260,108,91122,1,4,0:0:0:0:
256,192,91354,12,0,93447,0:0:0:0:
192,112,93913,5,0,3:0:0:0:
280,136,94378,1,0,3:0:0:0:
256,224,94843,1,0,3:0:0:0:
168,200,95308,1,0,3:0:0:0:
72,152,95773,6,0,B|88:88|52:92|72:24,2,128,0|0|2,3:0|3:0|0:0,0:0:0:0:
76,304,97168,2,0,L|56:348,2,42.6666666666667
92,268,97633,1,0,0:0:0:0:
168,248,97866,2,0,P|200:280|256:284,2,96
248,116,99029,2,0,P|216:84|160:80,1,96
56,104,99726,5,0,0:0:0:0:
72,180,99959,2,0,L|64:216,2,32
96,280,100424,1,2,0:0:0:0:
160,324,100657,1,0,0:0:0:0:
236,336,100889,2,0,L|280:352,1,42.6666666666667
400,348,101199,2,0,L|356:332,1,42.6666666666667
304,268,101587,2,0,P|312:220|352:196,1,96,0|0,0:0|0:0,0:0:0:0:
460,164,102285,2,0,P|428:112|368:84,1,128,2|0,0:0|0:0,0:0:0:0:
164,80,103099,1,2,0:0:0:0:
164,80,103215,6,0,L|96:60,1,64
112,148,103680,2,0,L|40:152,1,64
92,228,104145,2,0,L|16:252,1,64,2|0,0:0|0:0,0:0:0:0:
54,339,104610,2,0,L|88:312,3,42.6666666666667
168,276,105308,6,0,B|216:288|264:280,2,96,0|0|2,0:0|0:0|0:2,0:0:0:0:
148,168,106238,1,0,0:0:0:0:
240,108,106471,1,0,0:0:0:0:
312,180,106703,1,0,0:0:0:0:
276,280,106936,1,0,0:0:0:0:
168,276,107168,5,0,0:0:0:0:
64,296,107401,2,0,B|40:260|40:260|36:220,1,80
56,116,107866,1,0,3:0:0:0:
72,92,107982,1,0,3:0:0:0:
96,76,108099,1,0,3:0:0:0:
124,68,108215,1,0,3:0:0:0:
152,68,108331,1,0,3:0:0:0:
180,72,108447,1,0,3:0:0:0:
208,84,108564,1,0,3:0:0:0:
232,100,108680,1,0,3:0:0:0:
252,120,108796,6,0,L|296:136,3,40,0|0|0|0,0:0|0:0|0:0|0:0,2:0:0:0:
312,152,109261,2,0,P|352:168|392:164,1,80,4|0,0:2|0:0,0:0:0:0:
364,72,109726,5,4,0:1:0:0:
280,292,117168,5,0,0:0:0:0:
268,312,117633,1,0,0:0:0:0:
256,332,118099,1,2,0:0:0:0:
244,352,118564,1,2,0:0:0:0:
288,276,119029,5,0,0:0:0:0:
336,252,119494,1,0,0:0:0:0:
384,232,119959,1,2,0:0:0:0:
432,212,120424,1,2,0:0:0:0:
244,244,120889,5,0,0:0:0:0:
176,184,121354,1,0,0:0:0:0:
104,128,121819,1,2,0:0:0:0:
32,72,122285,1,2,0:3:0:0:
188,96,122750,6,0,P|252:84|312:108,1,128,0|2,0:0|0:0,0:0:0:0:
448,172,123680,2,0,L|464:104,1,64,8|0,0:3|0:0,0:0:0:0:
352,60,124145,2,0,L|336:128,1,64,8|0,0:3|0:0,0:0:0:0:
332,236,124610,1,6,0:0:0:0:
456,328,125075,5,0,0:0:0:0:
428,332,125308,1,0,0:0:0:0:
404,320,125540,2,0,B|368:292|368:256|332:236,1,111.999996582031,0|2,0:0|0:0,0:0:0:0:
160,188,126471,2,0,P|144:168|136:136,1,55.9999982910157
184,204,126936,2,0,P|212:256|200:308,1,111.999996582031,2|0,0:0|0:0,0:0:0:0:
184,328,127866,1,2,0:0:0:0:
184,328,128331,1,4,0:0:0:0:
72,160,128796,5,0,0:0:0:0:
72,160,129029,1,0,0:0:0:0:
72,160,129261,1,0,0:0:0:0:
72,160,129494,2,0,L|64:96,1,55.9999982910157,0|2,0:0|0:0,0:0:0:0:
248,152,130192,1,0,0:0:0:0:
248,152,130424,1,0,0:0:0:0:
248,152,130657,2,0,P|308:156|352:124,1,111.999996582031,2|0,0:0|0:0,0:0:0:0:
360,108,131587,1,2,0:0:0:0:
360,108,132052,1,4,0:0:0:0:
452,216,132517,6,0,L|476:276,1,55.9999982910157,2|0,0:0|0:0,0:0:0:0:
388,268,132982,2,0,L|392:324,1,55.9999982910157
308,288,133447,2,0,P|252:284|204:312,1,111.999996582031,2|0,0:0|0:0,0:0:0:0:
140,356,134145,1,0,0:0:0:0:
60,348,134378,2,0,P|36:300|44:244,2,111.999996582031,2|0|2,0:0|0:0|0:0,0:0:0:0:
132,116,135773,6,0,L|164:92,7,32,2|0|0|0|0|0|0|0,0:0|0:0|0:0|0:0|0:0|0:0|0:0|0:0,3:0:0:0:
200,112,136703,2,0,L|240:104,7,32,2|0|0|0|2|0|0|0,0:0|0:0|0:0|0:0|0:0|0:0|0:0|0:0,3:0:0:0:
272,128,137633,5,2,0:0:0:0:
356,156,137866,2,0,P|388:160|424:152,2,64,4|0|4,0:0|0:0|0:0,0:0:0:0:
284,212,138564,1,8,0:3:0:0:
284,212,138680,1,8,0:3:0:0:
284,212,138796,2,0,L|228:252,1,64,8|8,0:3|0:1,0:0:0:0:
156,296,139261,1,0,0:0:0:0:
24,336,139494,5,4,0:0:0:0:
60,248,139726,2,0,P|84:216|92:172,1,80,0|4,0:0|0:3,0:0:0:0:
88,144,140075,2,0,B|112:112|112:112|156:104,1,80,2|0,0:3|0:0,0:0:0:0:
244,88,140540,1,2,0:3:0:0:
244,88,140657,2,0,P|280:104|320:104,1,80,0|4,0:0|0:3,0:0:0:0:
352,96,141006,1,2,0:3:0:0:
380,80,141122,1,2,0:2:0:0:
180,40,141354,5,4,0:3:0:0:
172,136,141587,1,0,0:0:0:0:
228,216,141819,1,4,0:3:0:0:
256,232,141936,2,0,P|292:236|336:264,2,80,2|0|2,0:3|0:0|0:3,0:0:0:0:
228,248,142517,1,0,0:0:0:0:
156,312,142750,2,0,L|148:360,2,40,4|2|2,0:3|0:3|0:2,0:0:0:0:
80,208,143215,5,4,0:3:0:0:
144,136,143447,1,0,0:0:0:0:
240,148,143680,1,4,0:3:0:0:
240,148,143796,1,2,0:3:0:0:
336,140,144029,1,0,0:0:0:0:
420,188,144261,2,0,L|464:176,1,40,2|0,0:3|0:0,0:0:0:0:
460,276,144610,2,0,L|504:292,2,40,4|2|2,0:3|0:3|0:2,0:0:0:0:
328,232,145075,5,2,0:3:0:0:
288,144,145308,1,2,0:3:0:0:
200,108,145540,2,2,L|208:56,1,40
100,108,145889,1,2,0:3:0:0:
52,192,146122,2,2,L|0:164,1,40,2|2,0:3|0:3,0:0:0:0:
16,304,146471,2,2,L|72:280,2,53.3333333333333
156,240,146936,6,0,P|200:244|240:228,1,88.000002685547,6|0,0:1|0:0,0:0:0:0:
328,168,147401,1,4,0:3:0:0:
328,168,147517,1,2,0:3:0:0:
388,80,147750,2,0,P|432:88|464:120,1,88.000002685547,2|2,0:3|0:3,0:0:0:0:
476,148,148099,1,0,0:0:0:0:
472,256,148331,2,0,L|460:308,2,44.0000013427735,4|2|2,0:3|0:3|0:0,0:0:0:0:
508,64,148796,5,4,0:3:0:0:
404,88,149029,1,0,0:0:0:0:
268,48,149261,2,0,L|300:80,1,44.0000013427735,0|2,0:0|0:3,0:0:0:0:
208,136,149610,2,0,P|164:128|116:144,1,88.000002685547,2|2,0:3|0:3,0:0:0:0:
96,160,149959,1,0,0:0:0:0:
32,264,150192,1,4,0:3:0:0:
24,296,150308,1,2,0:3:0:0:
32,328,150424,1,2,0:0:0:0:
152,268,150657,6,0,P|192:252|212:204,2,88.000002685547,4|0|4,0:3|0:0|0:3,0:0:0:0:
84,236,151238,2,0,P|44:220|20:172,2,88.000002685547,2|2|2,0:3|0:3|0:3,0:0:0:0:
144,200,151819,1,0,0:0:0:0:
184,96,152052,1,4,0:3:0:0:
184,96,152168,1,2,0:3:0:0:
184,96,152285,1,2,0:0:0:0:
344,96,152517,5,4,0:3:0:0:
452,144,152750,1,0,0:0:0:0:
332,116,152982,1,4,0:3:0:0:
332,116,153099,1,2,0:3:0:0:
236,160,153331,1,2,0:3:0:0:
320,224,153564,1,2,0:3:0:0:
320,224,153680,1,0,0:0:0:0:
432,236,153913,2,2,L|480:228,2,44.0000013427735,12|2|2,0:2|0:3|0:0,0:0:0:0:
268,300,154378,5,4,0:3:0:0:
172,312,154610,2,0,P|140:280|96:276,1,88.000002685547,0|4,0:0|0:3,0:0:0:0:
56,276,154959,2,0,P|48:228|60:176,2,88.000002685547,2|2|2,0:3|0:3|0:3,0:0:0:0:
76,316,155540,1,0,0:0:0:0:
160,216,155773,1,4,0:3:0:0:
164,184,155889,1,2,0:3:0:0:
156,152,156006,1,2,0:0:0:0:
172,312,156238,6,0,P|204:336|252:332,1,88.000002685547,4|0,0:3|0:0,0:0:0:0:
352,292,156703,1,4,0:3:0:0:
352,292,156819,2,0,B|440:272,1,88.000002685547,2|2,0:3|0:3,0:0:0:0:
468,264,157168,2,0,B|492:224|484:180,1,88.000002685547,4|0,0:3|0:0,0:0:0:0:
456,76,157633,1,4,0:3:0:0:
456,76,157750,1,2,0:3:0:0:
456,76,157866,1,10,0:0:0:0:
300,44,158099,5,4,0:3:0:0:
212,104,158331,1,0,0:0:0:0:
108,96,158564,1,4,0:3:0:0:
108,96,158680,2,0,P|76:124|72:168,1,88.000002685547,2|2,0:3|0:3,0:0:0:0:
152,236,159145,1,2,0:3:0:0:
152,236,159261,2,0,P|157:281|132:318,1,88.000002685547,0|4,0:0|0:3,0:0:0:0:
106,326,159610,1,2,0:3:0:0:
76,320,159726,1,2,0:0:0:0:
156,164,159959,6,0,L|236:128,1,88.000002685547,2|2,0:0|0:0,0:0:0:0:
340,180,160424,2,2,L|332:132,1,44.0000013427735,0|2,0:0|0:0,0:0:0:0:
388,56,160773,1,2,0:0:0:0:
440,140,161006,1,2,0:0:0:0:
448,172,161122,1,2,0:0:0:0:
452,208,161238,2,0,L|440:256,1,44.0000013427735,8|0,0:0|0:0,0:0:0:0:
344,304,161471,2,0,L|360:256,1,44.0000013427735,8|8,0:0|0:1,0:0:0:0:
256,192,161819,12,0,164145,0:0:0:0:
144,208,164610,6,0,P|116:172|120:124,2,90.0000034332277,2|0|2,0:0|0:0|0:0,0:0:0:0:
224,244,165540,1,2,0:0:0:0:
360,148,166006,1,2,0:0:0:0:
454,348,166471,2,0,P|410:343|380:312,1,90.0000034332277,2|0,0:0|0:0,0:0:0:0:
425,195,167168,2,0,P|469:200|500:232,1,90.0000034332277,2|0,0:0|0:0,0:0:0:0:
304,212,167866,1,2,0:0:0:0:
136,92,168331,6,0,P|104:60|60:56,2,90.0000034332277,2|0|2,0:0|0:0|0:0,0:0:0:0:
184,204,169261,1,2,0:0:0:0:
196,232,169726,1,2,0:0:0:0:
208,260,170192,2,0,P|240:292|284:296,1,90.0000034332277,2|0,0:0|0:0,0:0:0:0:
344,184,170889,2,0,P|312:152|268:148,1,90.0000034332277,2|0,0:0|0:0,0:0:0:0:
208,260,171587,1,2,0:0:0:0:
388,328,172052,6,0,L|480:344,2,90.0000034332277,2|0|2,0:0|0:0|0:0,0:0:0:0:
296,308,172982,2,0,B|260:364|192:360,1,120.000004577637,2|2,0:0|0:0,0:0:0:0:
256,192,173913,12,4,176239,0:3:0:0:
256,284,176703,6,0,B|296:228|216:188|256:132,2,160,6|2|2,0:0|0:0|0:0,0:0:0:0:
144,216,177982,2,0,P|132:156|152:92,1,120,2|2,0:0|0:0,0:0:0:0:
368,168,178680,2,2,P|380:228|360:292,1,120,0|2,0:0|0:0,0:0:0:0:
188,356,179494,5,2,0:0:0:0:
236,220,179843,1,2,0:0:0:0:
336,324,180192,1,2,0:0:0:0:
252,300,180424,6,0,P|184:272|112:316,2,160,2|2|2,0:0|0:0|0:0,0:0:0:0:
448,252,181703,2,2,P|484:204|476:140,1,120,2|2,0:0|0:0,0:0:0:0:
284,92,182401,2,2,P|248:140|256:204,1,120,0|2,0:0|0:0,0:0:0:0:
472,128,183215,5,2,0:0:0:0:
352,208,183564,1,2,0:0:0:0:
344,64,183913,1,2,0:0:0:0:
416,264,184145,6,0,P|348:292|276:248,2,160,2|2|2,0:0|0:0|0:0,0:0:0:0:
296,136,185424,2,2,P|240:120|172:144,1,120,2|2,0:0|0:0,0:0:0:0:
296,352,186122,2,2,P|352:368|420:344,1,120,0|2,0:0|0:0,0:0:0:0:
468,152,186936,6,2,P|460:88|496:40,2,120,2|2|2,0:0|0:0|0:0,0:0:0:0:
504,240,187866,5,2,0:0:0:0:
128,220,188331,1,2,0:0:0:0:
312,80,188796,1,2,0:0:0:0:
244,344,189145,2,2,B|292:348|324:324|324:324|360:328,1,120,2|2,0:0|0:0,0:0:0:0:
504,240,189843,2,2,B|456:236|424:260|424:260|388:256,1,120,2|2,0:0|0:0,0:0:0:0:
128,220,190657,5,2,0:0:0:0:
68,140,190889,2,0,L|24:120,2,40,8|0|4,0:3|0:0|0:3,0:0:0:0:
144,68,191354,1,2,0:0:0:0:
256,92,191587,6,0,P|320:132|404:120,1,160,6|2,0:0|0:0,0:0:0:0:
488,80,192517,1,2,0:0:0:0:
488,80,192982,1,2,0:0:0:0:
472,164,193215,1,0,0:0:0:0:
456,248,193447,6,2,B|400:304|304:280,1,160,2|0,0:0|0:0,0:0:0:0:
200,248,194378,1,2,0:0:0:0:
200,248,194843,1,2,0:0:0:0:
164,152,195075,1,0,0:0:0:0:
104,228,195308,6,0,P|120:304|188:348,1,160,2|8,0:0|0:2,0:0:0:0:
326,347,196238,2,0,P|391:304|408:228,1,160,0|8,0:0|0:2,0:0:0:0:
72,156,197168,1,2,0:0:0:0:
376,100,197633,1,8,0:2:0:0:
136,100,198099,1,2,0:0:0:0:
440,156,198564,1,8,0:2:0:0:
152,184,199029,6,0,L|136:264,1,80,4|0,0:0|0:0,0:0:0:0:
116,340,199494,1,0,0:0:0:0:
192,316,199726,2,0,B|228:296|272:304,1,80
344,336,200192,1,0,0:0:0:0:
348,340,200308,1,0,0:0:0:0:
352,344,200424,2,0,P|392:356|428:348,1,80,0|0,0:0|0:0,0:0:0:0:
484,256,200889,6,0,L|500:176,1,80
376,180,201354,2,0,L|360:96,1,80
256,208,201819,1,0,0:0:0:0:
148,104,202052,1,0,0:0:0:0:
148,104,202168,1,0,0:0:0:0:
148,104,202285,2,0,L|133:182,1,80,0|0,0:0|0:0,0:0:0:0:
108,320,202750,5,0,0:0:0:0:
196,280,202982,1,0,0:0:0:0:
284,316,203215,1,0,0:0:0:0:
368,268,203447,1,0,0:0:0:0:
368,268,203564,1,0,0:0:0:0:
368,268,203680,2,0,P|412:260|440:232,1,80
380,104,204145,2,0,P|336:112|308:140,1,80
376,184,204610,5,0,0:0:0:0:
458,125,204842,1,0,0:0:0:0:
425,27,205075,1,0,0:0:0:0:
321,29,205307,1,0,0:0:0:0:
290,128,205540,2,0,P|260:152|216:160,1,80
144,84,206006,2,0,P|174:60|218:52,1,80
376,108,206471,5,4,0:0:0:0:
444,288,206936,1,2,0:2:0:0:
444,288,207401,2,0,P|468:344|512:364,2,107.999996704102,2|2|0,0:2|0:2|0:0,0:0:0:0:
368,200,208331,2,0,P|340:176|304:168,1,71.9999978027344,2|0,0:2|0:0,0:0:0:0:
276,180,208680,1,0,0:0:0:0:
260,208,208796,1,2,0:2:0:0:
328,300,209029,1,0,0:0:0:0:
436,204,209261,2,0,L|456:96,2,107.999996704102,2|2|0,0:2|0:2|0:0,0:0:0:0:
392,340,210192,6,0,P|352:372|296:368,1,107.999996704102,2|0,1:2|0:0,1:0:0:0:
40,300,211122,2,0,L|16:224,1,71.9999978027344,2|0,0:2|0:0,0:0:0:0:
107,128,211587,2,0,L|100:200,1,71.9999978027344,2|0,0:2|0:0,0:0:0:0:
120,40,212052,2,0,P|192:20|252:48,1,143.999995605469,4|2,0:2|0:2,0:0:0:0:
172,308,212982,2,0,P|100:328|40:300,1,143.999995605469,4|2,0:2|0:2,0:0:0:0:
256,180,213913,1,2,0:0:0:0:
416,92,214843,5,4,0:2:0:0:
480,204,215192,1,4,0:2:0:0:
352,204,215540,1,2,0:2:0:0:
352,204,215773,2,2,P|308:176|252:180,1,107.999996704102,2|0,0:1|0:0,0:0:0:0:
92,252,216703,5,4,0:2:0:0:
156,364,217052,1,4,0:2:0:0:
220,252,217400,1,2,0:2:0:0:
220,252,217633,2,2,P|264:280|320:276,1,107.999996704102,2|0,0:0|0:0,0:0:0:0:
444,100,218564,6,2,L|460:28,1,71.9999978027344,2|0,0:0|0:0,0:0:0:0:
380,192,219029,2,2,L|364:120,1,71.9999978027344,2|0,0:0|0:0,0:0:0:0:
400,272,219494,6,0,P|364:308|304:316,1,107.999996704102,4|4,0:2|0:2,0:0:0:0:
280,304,219959,2,2,P|248:288|208:292,1,71.9999978027344,2|0,0:0|0:0,0:0:0:0:
76,336,220424,2,0,P|100:288|96:232,1,107.999996704102,4|4,0:2|0:2,0:0:0:0:
88,204,220889,2,2,L|104:132,1,71.9999978027344,2|0,0:0|0:0,0:0:0:0:
132,32,221354,6,2,P|188:68|272:64,1,143.999995605469,6|0,0:0|0:0,0:0:0:0:
404,32,222285,2,0,P|460:16|512:24,2,107.999996704102,4|4|2,0:2|0:2|0:2,0:0:0:0:
340,92,223215,2,2,L|396:228,1,143.999995605469,2|0,0:0|0:0,0:0:0:0:
456,360,224145,6,0,P|400:376|348:368,2,107.999996704102,4|4|2,0:2|0:2|0:2,0:0:0:0:
492,280,225075,2,2,L|437:146,1,143.999995605469,2|0,0:0|0:0,0:0:0:0:
240,128,226006,6,2,B|204:140|204:140|168:136,1,71.9999978027344,2|0,0:0|0:0,0:0:0:0:
52,64,226471,2,2,B|80:89|80:89|94:122,1,71.9999978027344,2|0,0:0|0:0,0:0:0:0:
116,192,226936,2,2,B|132:220|120:256|120:256|128:296|168:320,1,143.999995605469,2|2,0:0|0:0,0:0:0:0:
347,317,227866,2,10,B|384:296|392:256|392:256|380:220|396:192,1,143.999995605469,2|2,0:0|0:0,0:0:0:0:
416,176,228447,1,8,0:2:0:0:
440,168,228564,1,8,0:2:0:0:
464,172,228680,1,8,0:2:0:0:
484,184,228796,6,2,L|500:272,1,88.000002685547,4|0,0:2|0:0,0:0:0:0:
416,176,229261,2,0,L|400:88,1,88.000002685547,4|0,0:2|0:0,0:0:0:0:
312,232,229726,2,2,L|328:320,1,88.000002685547,4|0,0:2|0:0,0:0:0:0:
200,160,230192,2,0,L|184:72,1,88.000002685547,12|0,0:0|0:0,0:0:0:0:
212,204,230657,6,2,P|216:248|196:288,1,88.000002685547,4|0,0:2|0:0,0:0:0:0:
64,176,231122,2,0,P|60:132|80:92,1,88.000002685547,4|0,0:2|0:0,0:0:0:0:
433,93,231587,2,2,P|452:132|448:176,1,88.000002685547,4|0,0:2|0:0,0:0:0:0:
314,286,232052,2,0,P|295:247|300:204,1,88.000002685547,12|0,0:0|0:0,0:0:0:0:
256,192,232517,12,12,233913,0:1:0:0:
196,108,234378,5,2,0:3:0:0:
128,196,234610,2,0,L|84:200,2,44.0000013427735,8|2|8,0:3|0:3|0:3,0:0:0:0:
240,212,235075,1,2,0:3:0:0:
272,212,235192,1,2,0:3:0:0:
300,224,235308,1,2,0:3:0:0:
316,248,235424,1,2,0:3:0:0:
324,276,235540,1,2,0:3:0:0:
320,308,235657,1,2,0:3:0:0:
300,332,235773,1,2,0:3:0:0:
276,344,236238,5,4,0:3:0:0:
104,180,236703,2,0,L|116:228,3,40,8|0|0|0,0:3|0:0|0:0|0:0,0:0:0:0:
132,292,237168,2,0,L|120:348,2,53.3333333333333,8|0|0,0:3|0:0|0:0,0:0:0:0:
192,216,237633,2,0,L|236:144,1,80,8|0,0:3|0:0,0:0:0:0:
256,120,237982,1,0,0:0:0:0:
276,92,238099,1,8,0:3:0:0:
408,180,238331,1,0,0:0:0:0:
408,180,238564,6,0,L|396:228,3,40,8|0|0|0,0:3|0:0|0:0|0:0,0:0:0:0:
380,292,239029,2,0,L|392:348,2,53.3333333333333,8|0|0,0:3|0:0|0:0,0:0:0:0:
320,216,239494,1,8,0:3:0:0:
216,264,239726,1,0,0:0:0:0:
312,328,239959,1,8,0:3:0:0:
324,180,240192,1,0,0:0:0:0:
252,56,240424,6,0,L|212:68,3,40,8|0|0|0,0:3|0:0|0:0|0:0,0:0:0:0:
140,56,240889,2,0,L|88:48,2,53.3333333333333,8|0|0,0:3|0:0|0:0,0:0:0:0:
192,140,241354,2,0,P|208:176|200:220,1,80,8|0,0:3|0:0,0:0:0:0:
188,240,241703,1,0,0:0:0:0:
164,256,241819,1,8,0:3:0:0:
140,56,242285,1,2,0:2:0:0:
132,260,242750,2,0,P|88:256|56:236,1,80
124,160,243215,1,4,0:3:0:0:
448,344,243680,5,4,0:0:0:0:
412,264,243913,1,0,0:0:0:0:
420,176,244145,1,8,0:3:0:0:
416,144,244261,1,0,0:0:0:0:
400,116,244378,1,0,0:0:0:0:
376,96,244494,1,0,0:0:0:0:
344,88,244610,2,0,P|316:80|288:56,2,53.3333333333333,8|0|0,0:3|0:0|0:0,0:0:0:0:
348,16,245075,2,0,P|392:28|432:24,1,80,8|0,0:3|0:0,0:0:0:0:
456,24,245424,1,0,0:0:0:0:
484,36,245540,1,8,0:3:0:0:
328,184,245773,1,0,0:0:0:0:
232,312,246006,5,8,0:3:0:0:
200,312,246122,1,0,0:0:0:0:
168,312,246238,1,0,0:0:0:0:
136,312,246354,1,0,0:0:0:0:
104,312,246471,2,0,L|88:256,1,53.3333333333333,8|0,0:3|0:0,0:0:0:0:
144,172,246781,2,0,L|158:223,1,53.3333333333333,0|8,0:0|0:3,0:0:0:0:
200,312,247168,1,0,0:0:0:0:
200,312,247401,1,8,0:3:0:0:
316,340,247633,1,0,0:0:0:0:
432,260,247866,5,8,0:3:0:0:
424,228,247982,1,0,0:0:0:0:
416,196,248099,1,0,0:0:0:0:
424,164,248215,1,0,0:0:0:0:
436,132,248331,2,0,P|440:112|436:80,1,53.3333333333333,8|0,0:3|0:0,0:0:0:0:
364,52,248641,2,0,P|360:72|364:104,1,53.3333333333333,0|8,0:0|0:3,0:0:0:0:
496,196,249029,2,0,L|508:152,1,40
488,216,249261,6,0,P|456:268|476:328,2,120,2|2|2,0:0|0:0|0:0,0:0:0:0:
396,348,250192,1,2,0:0:0:0:
192,320,250657,1,2,0:0:0:0:
396,348,251122,5,4,0:0:0:0:
396,348,251354,2,0,L|404:204,1,143.999995605469
408,116,252052,2,0,P|348:84|276:100,1,143.999995605469
140,204,252982,2,0,P|71:219|8:187,1,143.999995605469
120,40,253913,1,0,0:0:0:0:
284,200,254378,1,0,0:0:0:0:
368,220,254610,1,0,0:0:0:0:
452,200,254843,1,2,0:2:0:0:
256,84,255308,6,0,L|240:36,2,47.9999985351563
188,124,255773,2,0,L|152:88,2,47.9999985351563,0|0|0,0:0|0:0|0:0,0:0:0:0:
136,188,256238,6,0,P|116:220|120:260,1,71.9999978027344
152,332,256703,1,2,0:2:0:0:
232,368,256936,1,0,0:0:0:0:
316,352,257168,2,0,L|392:336,1,71.9999978027344,0|0,0:0|0:0,0:0:0:0:
336,268,257633,2,0,L|400:224,1,71.9999978027344,2|0,0:2|0:0,0:0:0:0:
468,172,258099,1,2,0:2:0:0:
256,128,258564,6,0,P|240:76|244:24,2,107.999996704102
284,212,259494,2,0,P|296:288|264:348,1,143.999995605469
84,304,260424,2,0,L|112:348,2,47.9999985351563
136,240,260889,2,0,L|184:268,2,47.9999985351563
156,160,261354,2,0,L|212:164,2,47.9999985351563,2|0|0,0:2|0:0|0:0,0:0:0:0:
76,184,261819,5,2,0:2:0:0:
32,108,262052,1,0,0:0:0:0:
44,24,262285,1,2,0:2:0:0:
264,108,262750,6,0,L|273:60,2,47.9999985351563
357,60,263215,2,0,L|367:108,2,47.9999985351563
460,64,263680,2,0,P|492:104|496:148,1,95.9999970703126
460,236,264145,5,2,0:0:0:0:
372,272,264300,2,0,L|368:320,2,47.9999985351563,0|0|2,0:0|0:0|0:2,0:0:0:0:
280,240,264765,2,0,L|290:286,2,47.9999985351563,0|0|2,0:0|0:0|0:2,0:0:0:0:
206,282,265230,2,0,L|184:228,1,47.9999985351563,2|2,0:2|0:2,0:0:0:0:
172,204,265540,2,2,P|124:224|64:212,1,107.999996704102,2|0,0:0|0:0,0:0:0:0:
40,200,266006,5,12,0:0:0:0:
216,140,266354,1,0,0:0:0:0:
216,140,266471,2,0,P|252:156|296:152,1,83.9999974365235,2|0,0:2|0:0,0:0:0:0:
392,112,266936,2,0,L|416:200,1,83.9999974365235,8|0,0:0|0:0,0:0:0:0:
444,296,267401,5,2,0:2:0:0:
444,296,267633,1,0,0:0:0:0:
444,296,267866,2,0,P|416:328|372:336,1,83.9999974365235,8|0,0:0|0:0,0:0:0:0:
344,324,268215,1,0,0:0:0:0:
308,324,268331,1,2,0:2:0:0:
200,352,268564,1,0,0:0:0:0:
84,304,268796,2,0,L|64:356,2,55.9999982910157,8|0|0,0:0|0:0|0:0,0:0:0:0:
104,264,269261,2,2,P|100:220|116:180,1,83.9999974365235,2|2,0:0|0:0,0:0:0:0:
216,88,269726,6,0,P|268:120|336:116,2,125.999996154785,8|0|0,0:0|0:0|0:0,0:0:0:0:
408,80,270657,2,0,P|456:112|476:176,2,125.999996154785,8|0|0,0:0|0:0|0:0,0:0:0:0:
308,204,271587,2,0,L|280:328,2,125.999996154785,8|0|0,0:0|0:0|0:0,0:0:0:0:
252,56,272517,2,0,P|196:32|132:48,1,125.999996154785,8|0,0:0|0:0,0:0:0:0:
108,68,272982,2,2,B|112:128|112:128|104:152,1,83.9999974365235,2|2,0:0|0:0,0:0:0:0:
52,304,273447,6,0,P|120:312|164:280,2,125.999996154785,12|0|0,0:0|0:0|0:0,0:0:0:0:
96,232,274378,2,0,L|224:212,1,125.999996154785,8|0,0:0|0:0,0:0:0:0:
252,208,274843,2,0,P|292:216|328:240,1,83.9999974365235
384,324,275308,1,8,0:0:0:0:
284,332,275540,1,0,0:0:0:0:
328,240,275773,1,2,0:2:0:0:
372,148,276006,1,2,0:2:0:0:
272,152,276238,2,0,P|212:164|144:148,1,125.999996154785,8|0,0:0|0:0,0:0:0:0:
116,132,276703,1,2,0:0:0:0:
116,132,276936,1,2,0:0:0:0:
212,52,277168,6,0,L|352:44,2,125.999996154785,12|0|0,0:0|0:0|0:0,0:0:0:0:
116,132,278099,2,0,L|80:256,1,125.999996154785,8|0,0:0|0:0,0:0:0:0:
68,288,278564,1,0,0:0:0:0:
164,344,278796,1,0,0:0:0:0:
256,280,279029,2,0,P|320:264|384:268,1,125.999996154785,8|0,0:0|0:0,0:0:0:0:
416,276,279494,2,0,P|452:252|472:216,1,83.9999974365235
448,104,279959,1,8,0:0:0:0:
332,80,280192,1,2,0:2:0:0:
232,240,280424,2,2,L|356:260,1,125.999996154785,2|0,0:0|0:0,0:0:0:0:
396,268,280889,6,2,P|384:224|400:176,1,95.9999970703126,2|0,0:0|0:0,0:0:0:0:
420,152,281238,1,0,0:0:0:0:
448,136,281354,1,8,0:2:0:0:
492,232,281587,1,2,0:0:0:0:
476,336,281819,1,2,0:0:0:0:
376,372,282052,1,0,0:0:0:0:
344,364,282168,1,0,0:0:0:0:
316,344,282285,2,0,P|272:324|224:332,1,95.9999970703126,8|0,0:2|0:0,0:0:0:0:
100,372,282750,5,2,0:0:0:0:
48,280,282982,2,0,L|56:228,1,47.9999985351563
64,200,283215,2,2,P|64:148|92:108,1,95.9999970703126,8|0,0:2|0:0,0:0:0:0:
188,188,283680,2,2,P|188:240|160:280,1,95.9999970703126,2|0,0:0|0:0,0:0:0:0:
116,92,284145,2,2,P|148:56|196:48,1,95.9999970703126,8|0,0:2|0:0,0:0:0:0:
344,76,284610,5,2,0:0:0:0:
432,136,284843,1,0,0:0:0:0:
432,136,284959,1,0,0:0:0:0:
432,136,285075,2,0,P|400:168|352:184,1,95.9999970703126,8|2,0:2|0:0,0:0:0:0:
228,176,285540,1,2,0:0:0:0:
104,184,285773,1,0,0:0:0:0:
88,212,285889,1,0,0:0:0:0:
80,244,286006,2,0,P|112:276|160:292,1,95.9999970703126,8|0,0:2|0:0,0:0:0:0:
284,292,286471,5,2,0:0:0:0:
408,240,286703,1,2,0:0:0:0:
372,100,286936,2,2,P|332:72|280:76,1,95.9999970703126,8|0,0:2|0:0,0:0:0:0:
92,104,287401,2,0,P|132:132|184:128,1,95.9999970703126,2|0,0:0|0:0,0:0:0:0:
44,40,287866,2,2,P|16:80|20:132,1,95.9999970703126,8|0,0:2|0:0,0:0:0:0:
80,256,288331,5,2,0:0:0:0:
184,308,288564,2,0,L|172:364,2,47.9999985351563,0|0|8,0:0|0:0|0:2,0:0:0:0:
300,308,289029,1,2,0:0:0:0:
396,236,289261,1,2,0:0:0:0:
428,120,289494,2,0,L|376:100,2,47.9999985351563,0|0|8,0:0|0:0|0:2,0:0:0:0:
280,64,289959,1,0,0:0:0:0:
136,84,290192,5,2,0:0:0:0:
80,184,290424,1,2,0:0:0:0:
96,300,290657,1,8,0:2:0:0:
184,372,290889,1,2,0:0:0:0:
200,368,291006,1,0,0:0:0:0:
216,364,291122,2,0,P|264:372|312:360,1,95.9999970703126,2|0,0:0|0:0,0:0:0:0:
352,244,291587,2,0,P|304:236|252:252,1,95.9999970703126,8|0,0:2|0:0,0:0:0:0:
320,356,292052,5,2,0:0:0:0:
392,276,292285,1,2,0:0:0:0:
416,172,292517,1,8,0:2:0:0:
356,84,292750,1,2,0:0:0:0:
256,48,292982,2,2,B|208:60|160:52,1,95.9999970703126,2|0,0:0|0:0,0:0:0:0:
56,36,293447,2,2,P|44:88|48:136,1,95.9999970703126,2|0,0:0|0:0,0:0:0:0:
56,347,293913,6,2,P|56:300|49:252,1,95.9999970703126,2|0,0:0|0:0,0:0:0:0:
44,140,294378,2,0,P|84:164|136:160,1,95.9999970703126,0|2,0:0|0:0,0:0:0:0:
244,136,294843,1,2,0:0:0:0:
356,164,295075,2,2,L|440:232,2,95.9999970703126,0|4|2,0:0|0:2|0:0,0:0:0:0:
324,52,295773,1,4,0:2:0:0:
256,192,295889,12,4,299494,0:2:0:0:
140,80,299959,6,0,P|240:32|320:44,1,191.999994140625,2|4,2:1|0:2,0:0:0:0:
372,304,300890,2,0,P|272:352|192:340,1,191.999994140625,2|4,2:1|0:2,0:0:0:0:
391,51,301819,6,0,P|446:128|444:222,1,191.999994140625,2|4,2:1|0:2,0:0:0:0:
120,332,302749,2,0,P|65:255|67:161,1,191.999994140625,2|4,2:1|0:2,0:0:0:0:
256,192,303331,12,4,308796,0:3:0:0:
128,88,309261,5,2,0:0:0:0:
148,108,309726,1,2,0:0:0:0:
168,128,310192,2,0,P|184:160|180:196,2,63.9999980468751,2|8|8,0:0|0:3|0:3,0:0:0:0:
128,88,310657,5,4,0:3:0:0:
28,196,310889,2,0,L|105:174,1,80,0|4,0:0|0:0,0:0:0:0:
192,216,311354,1,0,0:0:0:0:
240,120,311587,1,4,0:3:0:0:
292,220,311819,2,0,P|328:212|372:216,2,80,0|4|0,0:0|0:3|0:0,0:0:0:0:
336,316,312517,1,4,0:3:0:0:
204,368,312750,6,0,L|116:376,1,80,0|4,0:0|0:3,0:0:0:0:
28,288,313215,1,0,0:0:0:0:
56,180,313448,1,4,0:3:0:0:
24,304,313680,2,0,L|112:296,1,80,0|4,0:0|0:3,0:0:0:0:
248,172,314145,2,0,L|160:180,1,80,0|4,0:0|0:3,0:0:0:0:
340,160,314610,6,0,P|372:140|384:100,2,80,0|4|0,0:0|0:3|0:0,0:0:0:0:
300,280,315308,2,0,L|220:272,1,80,4|0,0:3|0:0,0:0:0:0:
128,300,315773,1,4,0:3:0:0:
148,204,316006,1,0,0:0:0:0:
180,80,316238,6,0,L|168:36,2,40,4|0|0,0:3|0:0|0:0,0:0:0:0:
264,128,316703,2,0,P|304:116|348:120,1,80,4|0,0:3|0:0,0:0:0:0:
436,156,317168,1,4,0:3:0:0:
480,248,317401,1,8,0:3:0:0:
488,268,317517,1,8,0:3:0:0:
492,288,317633,1,12,0:2:0:0:
344,352,317866,1,8,0:3:0:0:
336,332,317982,1,8,0:3:0:0:
332,312,318098,5,4,0:0:0:0:
356,160,318331,2,0,P|364:120|352:80,1,80,0|4,0:0|0:0,0:0:0:0:
212,56,318796,2,0,P|204:96|216:136,1,80,0|4,0:0|0:3,0:0:0:0:
256,268,319261,2,0,L|236:356,2,80,0|4|0,0:0|0:3|0:0,0:0:0:0:
256,268,319959,1,4,0:3:0:0:
256,268,320192,5,0,0:0:0:0:
160,208,320424,1,4,0:3:0:0:
100,112,320657,2,0,L|16:96,1,80,0|4,0:0|0:3,0:0:0:0:
116,108,321122,1,0,0:0:0:0:
220,68,321354,2,0,P|260:60|300:64,1,80,4|0,0:3|0:0,0:0:0:0:
388,112,321819,1,4,0:3:0:0:
428,228,322052,6,0,L|420:312,1,80,0|4,0:0|0:3,0:0:0:0:
316,332,322517,1,0,0:0:0:0:
284,224,322750,1,4,0:3:0:0:
216,364,322982,1,0,0:0:0:0:
168,208,323215,1,4,0:3:0:0:
64,296,323447,1,0,0:0:0:0:
148,96,323680,6,8,L|168:56,12,40,8|8|8|8|8|8|8|8|8|8|8|8|12,0:0|0:0|0:0|0:0|0:0|0:0|0:0|0:0|0:0|0:0|0:0|0:0|0:1,0:0:0:0:
168,208,325540,5,4,0:3:0:0:
136,228,329261,6,0,P|256:296|376:228,1,287.999991210938,0|2,0:0|0:2,0:0:0:0:
314,190,331122,2,0,P|254:223|196:188,2,143.999995605469,0|0|2,0:0|0:0|0:2,0:0:0:0:
156,120,332982,5,0,0:0:0:0:
156,120,333215,1,0,0:0:0:0:
156,120,333447,2,0,P|108:76|28:88,2,143.999995605469,2|2|0,0:0|0:0|0:0,0:0:0:0:
356,120,334843,5,0,0:0:0:0:
356,120,335076,1,0,0:0:0:0:
356,120,335308,2,0,P|408:76|484:88,2,143.999995605469,2|2|0,0:0|0:0|0:0,0:0:0:0:
76,164,336703,6,0,P|120:204|200:200,1,143.999995605469,2|0,0:0|0:0,0:0:0:0:
436,164,337633,2,0,P|392:204|312:200,1,143.999995605469,2|0,0:0|0:0,0:0:0:0:
256,116,338331,1,0,0:0:0:0:
220,4,338564,6,0,B|172:12|148:56|136:80|140:112,1,143.999995605469,2|0,0:0|0:0,0:0:0:0:
372,109,339494,2,0,B|376:80|364:56|340:12|292:4,1,143.999995605469,2|0,0:0|0:0,0:0:0:0:
112,224,340424,5,0,0:0:0:0:
188,268,340657,1,0,0:0:0:0:
276,268,340889,2,0,P|320:240|380:244,1,107.999996704102,2|2,0:0|0:0,0:0:0:0:
408,252,341354,2,0,P|452:248|480:228,2,71.9999978027344,2|0|2,0:0|0:0|0:0,0:0:0:0:
304,144,342285,5,0,0:0:0:0:
304,144,342517,1,0,0:0:0:0:
304,144,342750,2,0,P|260:108|208:112,1,107.999996704102,2|2,0:0|0:0,0:0:0:0:
176,120,343215,2,0,P|140:104|120:72,1,71.9999978027344,2|0,0:0|0:0,0:0:0:0:
236,180,343680,2,0,P|252:208|248:248,1,71.9999978027344,2|0,0:0|0:0,0:0:0:0:
152,352,344145,6,0,P|104:312|100:248,1,120,2|0,0:2|0:0,0:0:0:0:
108,224,344610,2,0,P|112:184|96:144,1,80,2|0,0:2|0:0,0:0:0:0:
36,64,345075,2,0,P|84:32|144:36,1,120
180,56,345540,2,0,B|216:68|216:68|260:64,1,80,2|0,0:2|0:0,0:0:0:0:
368,48,346006,5,0,0:0:0:0:
460,96,346238,1,0,0:0:0:0:
460,96,346354,1,0,0:0:0:0:
460,96,346471,2,0,P|456:144|460:188,1,80,2|0,0:2|0:0,0:0:0:0:
440,360,346936,2,0,P|444:312|440:268,1,80
360,212,347401,1,2,0:2:0:0:
340,312,347633,1,0,0:0:0:0:
308,124,347866,5,0,0:0:0:0:
252,212,348099,1,0,0:0:0:0:
148,224,348331,1,2,0:2:0:0:
52,184,348564,2,0,L|56:140,3,40
60,104,349029,2,0,P|96:96|131:68,1,80,0|2,0:0|0:2,0:0:0:0:
60,16,349494,1,0,0:0:0:0:
52,184,349726,6,0,P|88:232|144:248,1,120
184,248,350192,1,2,0:2:0:0:
280,208,350424,1,0,0:0:0:0:
312,192,350540,1,0,0:0:0:0:
348,180,350657,1,0,0:0:0:0:
384,188,350773,1,0,0:0:0:0:
420,188,350889,1,0,0:0:0:0:
396,88,351122,2,0,P|356:76|320:84,1,80,2|0,0:2|0:0,0:0:0:0:
220,148,351587,6,0,P|164:168|104:156,1,120
68,140,352052,2,0,P|56:188|60:224,1,80,2|0,0:2|0:0,0:0:0:0:
68,256,352401,2,0,L|52:296,3,40
176,292,352982,1,2,0:2:0:0:
296,280,353215,1,0,0:0:0:0:
416,236,353447,6,0,P|424:192|444:152,1,80
308,164,353913,2,0,B|304:120|284:88,1,80,2|0,0:2|0:0,0:0:0:0:
264,56,354261,2,0,L|284:12,3,40
160,72,354843,1,2,0:2:0:0:
88,160,355075,1,0,0:0:0:0:
108,280,355308,6,0,P|136:308|176:320,1,80,0|0,0:0|0:0,0:0:0:0:
240,212,355773,2,0,P|212:184|172:172,1,80,2|0,0:2|0:0,0:0:0:0:
280,280,356238,2,0,P|344:276|392:240,1,120
416,216,356703,2,0,P|408:176|420:136,1,80,2|0,0:2|0:0,0:0:0:0:
476,24,357168,5,0,0:0:0:0:
388,60,357401,1,0,0:0:0:0:
316,124,357633,2,0,P|280:144|240:140,1,80,2|0,0:2|0:0,0:0:0:0:
140,79,358099,1,0,0:0:0:0:
56,152,358332,1,4,0:2:0:0:
100,255,358564,1,2,0:2:0:0:
211,246,358797,1,8,0:3:0:0:
236,136,359029,6,0,P|312:192|320:272,1,176.000005371094,4|2,0:0|0:0,0:0:0:0:
308,300,359610,1,2,0:2:0:0:
308,300,359843,1,2,0:0:0:0:
100,255,360192,2,2,B|64:260|64:260|40:276|40:276|8:280,2,88.000002685547,0|0|2,0:0|0:0|0:0,0:0:0:0:
200,224,360889,6,0,P|288:204|372:232,1,176.000005371094,6|2,0:0|0:0,0:0:0:0:
404,248,361471,2,0,P|444:240|484:200,1,88.000002685547,2|2,0:2|0:0,0:0:0:0:
496,180,361819,1,8,0:0:0:0:
392,132,362052,2,2,B|396:100|396:100|408:76|408:76|412:43,2,88.000002685547,2|0|2,0:0|0:0|0:0,0:0:0:0:
420,320,362750,6,0,P|356:372|264:368,1,176.000005371094,6|2,0:0|0:0,0:0:0:0:
236,344,363331,2,0,L|144:352,1,88.000002685547,2|2,0:2|0:0,0:0:0:0:
112,356,363680,1,8,0:0:0:0:
48,240,363913,2,2,B|40:208|40:208|52:176|52:176|44:148,2,88.000002685547,2|2|2,0:0|0:0|0:0,0:0:0:0:
8,56,364610,5,2,0:0:0:0:
24,48,365075,1,10,0:0:0:0:
40,40,365540,1,10,0:0:0:0:
148,84,365773,1,0,0:0:0:0:
256,52,366006,1,10,0:0:0:0:
364,84,366238,1,0,0:0:0:0:
472,40,366471,5,6,0:0:0:0:
448,248,366936,2,0,P|396:280|324:260,1,132.00000402832,2|2,0:0|0:0,0:0:0:0:
304,236,367401,1,8,0:0:0:0:
176,176,367633,2,2,B|144:176|144:176|120:188|120:188|88:188,2,88.000002685547,0|0|2,0:0|0:0|0:0,0:0:0:0:
384,196,368331,5,6,0:0:0:0:
492,16,368796,2,0,B|456:32|456:32|424:64|364:52,1,132.00000402832,2|2,0:0|0:0,0:0:0:0:
332,40,369261,1,8,0:0:0:0:
172,72,369494,2,2,B|140:84|140:84|116:80|116:80|88:92,2,88.000002685547,2|0|2,0:0|0:0|0:0,0:0:0:0:
332,40,370192,5,6,0:0:0:0:
332,40,370657,2,0,P|324:96|348:168,1,132.00000402832,2|2,0:0|0:0,0:0:0:0:
372,192,371122,1,8,0:0:0:0:
496,316,371354,2,2,B|484:340|484:340|456:352|456:352|444:380,2,88.000002685547,2|0|2,0:0|0:0|0:0,0:0:0:0:
480,116,372052,5,6,0:0:0:0:
464,104,372517,1,10,0:0:0:0:
448,92,372982,1,10,0:0:0:0:
324,108,373215,1,10,0:0:0:0:
204,88,373447,1,8,0:0:0:0:
240,204,373680,1,8,0:0:0:0:
384,24,373913,6,0,P|320:52|248:32,1,143.999995605469,4|2,0:1|0:2,0:0:0:0:
216,16,374378,2,0,B|172:28|172:28|120:24,2,95.9999970703126,2|2|8,0:2|0:2|0:0,0:0:0:0:
244,48,374959,2,0,L|260:192,1,143.999995605469,2|8,0:2|0:0,0:0:0:0:
284,320,375540,2,0,L|316:360,2,47.9999985351563,2|2|8,0:2|0:2|0:0,0:0:0:0:
256,288,375889,6,0,P|184:312|112:296,1,143.999995605469,2|8,0:2|0:0,0:0:0:0:
196,144,376587,1,2,0:2:0:0:
196,144,376703,2,0,P|240:124|288:128,1,95.9999970703126,8|2,0:0|0:2,0:0:0:0:
392,180,377168,1,8,0:0:0:0:
392,180,377285,2,0,P|436:200|484:196,1,95.9999970703126,2|2,0:2|0:2,0:0:0:0:
512,184,377633,6,0,L|508:328,1,143.999995605469,8|2,0:0|0:2,0:0:0:0:
508,364,378099,1,8,0:0:0:0:
388,328,378331,1,2,0:2:0:0:
264,340,378564,1,8,0:0:0:0:
264,340,378680,2,0,P|204:360|120:356,1,143.999995605469,2|8,0:2|0:0,0:0:0:0:
28,264,379261,1,2,0:2:0:0:
16,228,379378,1,2,0:2:0:0:
8,192,379494,6,0,L|28:148,1,47.9999985351563,8|2,0:0|0:2,0:0:0:0:
228,184,379959,1,8,0:0:0:0:
64,80,380308,1,2,0:2:0:0:
64,80,380424,2,0,P|100:52|148:44,1,95.9999970703126,8|2,0:0|0:2,0:0:0:0:
312,148,380889,1,8,0:0:0:0:
312,148,381005,2,0,P|276:176|228:184,1,95.9999970703126
188,172,381354,5,8,0:0:0:0:
64,80,381587,2,0,L|48:28,2,47.9999985351563,2|0|8,0:2|0:0|0:0,0:0:0:0:
84,184,382052,1,0,0:0:0:0:
68,304,382285,6,0,L|64:360,2,47.9999985351563,8|0|2,0:0|0:0|0:2,0:0:0:0:
176,264,382750,1,8,0:0:0:0:
292,280,382982,1,2,0:2:0:0:
324,292,383099,1,2,0:2:0:0:
356,304,383215,1,8,0:0:0:0:
388,316,383331,2,0,P|448:316|488:248,1,143.999995605469,2|8,0:2|0:0,0:0:0:0:
352,120,383913,5,2,0:2:0:0:
352,120,384029,2,0,P|376:188|416:248,1,143.999995605469,8|0,0:0|0:0,0:0:0:0:
444,128,384610,1,8,0:0:0:0:
444,128,384726,2,0,P|432:80|400:44,1,95.9999970703126
364,28,385075,6,0,B|320:48|320:48|272:44,1,95.9999970703126,4|2,0:2|0:2,0:0:0:0:
212,120,385540,2,0,B|168:96|168:96|120:100,1,95.9999970703126,0|2,0:0|0:2,0:0:0:0:
256,192,386006,12,8,388331,0:0:0:0:
312,152,388796,5,4,0:3:0:0:
248,320,389261,5,4,0:3:0:0:
188,360,389416,1,2,0:2:0:0:
116,360,389571,1,2,0:2:0:0:
72,304,389726,2,0,P|60:236|88:176,1,133.333333333333,4|0,0:3|0:0,0:0:0:0:
168,248,390192,2,0,P|216:284|288:276,1,133.333333333333,4|0,0:3|0:0,0:0:0:0:
312,152,390657,2,0,P|264:116|192:124,1,133.333333333333,4|0,0:3|0:0,0:0:0:0:
240,200,391122,2,0,L|372:232,1,133.333333333333,4|0,0:3|0:0,0:0:0:0:
340,316,391587,2,0,L|208:284,1,133.333333333333,4|0,0:3|0:0,0:0:0:0:
128,264,392052,2,0,P|132:200|100:136,1,133.333333333333,4|0,0:3|0:0,0:0:0:0:
40,84,392517,1,4,0:3:0:0:
360,72,392982,6,0,L|428:56,2,66.6666666666667,4|2|2,0:3|0:2|0:2,0:0:0:0:
276,96,393447,2,0,P|244:156|268:220,1,133.333333333333,4|0,0:3|0:0,0:0:0:0:
320,280,393913,2,0,P|352:220|328:156,1,133.333333333333,4|0,0:3|0:0,0:0:0:0:
192,72,394378,2,0,P|164:136|168:200,1,133.333333333333,4|0,0:3|0:0,0:0:0:0:
280,360,394843,2,0,P|348:364|396:324,1,133.333333333333,4|0,0:3|0:0,0:0:0:0:
428,236,395308,1,8,0:0:0:0:
412,144,395463,1,8,0:0:0:0:
328,108,395618,1,8,0:0:0:0:
240,144,395773,2,0,P|172:156|120:120,1,133.333333333333,4|2,0:3|0:2,0:0:0:0:
76,40,396238,1,4,0:3:0:0:
440,72,396703,6,0,P|466:91|483:119,1,66.6666666666667,4|2,0:1|0:2,0:0:0:0:
504,204,397013,1,2,0:2:0:0:
484,288,397168,2,0,P|428:324|364:320,1,133.333333333333,4|2,0:3|0:2,0:0:0:0:
284,284,397633,1,4,0:3:0:0:
204,88,397944,1,2,0:2:0:0:
204,88,398099,1,4,0:3:0:0:
404,228,398409,1,2,0:2:0:0:
404,228,398564,1,4,0:3:0:0:
192,348,398874,1,2,0:2:0:0:
192,348,399029,2,0,P|184:276|144:228,1,133.333333333333,4|2,0:3|0:2,0:0:0:0:
40,244,399494,2,0,P|84:192|80:120,1,133.333333333333,4|2,0:3|0:2,0:0:0:0:
64,52,399959,1,4,0:3:0:0:
100,320,400424,5,4,0:3:0:0:
172,256,400579,1,2,0:2:0:0:
268,248,400734,1,2,0:2:0:0:
356,288,400889,2,0,P|424:292|472:252,1,133.333333333333,4|2,0:3|0:2,0:0:0:0:
396,208,401354,2,0,P|380:144|388:76,1,133.333333333333,0|2,0:0|0:2,0:0:0:0:
292,36,401819,2,0,P|308:100|300:168,1,133.333333333333,4|2,0:3|0:2,0:0:0:0:
268,248,402285,1,4,0:3:0:0:
96,240,402595,2,0,L|20:224,1,66.6666666666667,8|8,0:2|0:2,0:0:0:0:
88,128,402905,2,0,L|164:144,1,66.6666666666667,8|8,0:0|0:0,0:0:0:0:
252,164,403215,2,0,P|340:196|340:296,1,200,4|4,0:3|0:1,0:0:0:0:
240,60,411587,5,0,0:0:0:0:
240,60,411819,1,0,0:0:0:0:
240,60,412052,2,0,B|296:76|296:76|352:60|400:88,1,160,2|0,0:2|0:0,0:0:0:0:
432,176,412750,1,0,0:0:0:0:
336,192,412982,2,0,L|176:192,1,160,2|0,0:0|0:0,0:0:0:0:
80,208,413680,1,0,0:0:0:0:
117,298,413913,2,0,B|160:324|216:308|216:308|272:324,1,160,2|0,0:0|0:0,0:0:0:0:
272,324,414843,1,4,0:2:0:0:
180,104,415540,5,2,0:0:0:0:
180,104,415657,1,0,0:0:0:0:
180,104,415773,2,0,B|216:88|256:112|256:112|296:88|332:104,2,160,2|0|2,0:0|0:0|0:0,0:0:0:0:
360,336,417866,5,2,0:0:0:0:
416,252,418099,1,2,2:0:0:0:
412,132,418331,1,2,2:0:0:0:
328,20,418564,6,0,P|288:24|248:16,1,80,2|0,0:0|0:0,0:0:0:0:
260,108,419029,2,0,P|220:96|192:72,1,80,8|0,0:0|0:0,0:0:0:0:
184,188,419494,2,0,P|152:168|132:132,1,80,8|0,0:0|0:0,0:0:0:0:
368,120,419959,2,0,P|400:140|420:184,1,80,8|0,0:0|0:0,0:0:0:0:
420,216,420308,2,0,P|372:272|320:272,1,120,8|0,0:0|0:0,0:0:0:0:
216,236,420889,1,8,0:0:0:0:
208,224,421354,1,8,0:0:0:0:
200,212,421819,5,8,0:0:0:0:
124,300,422052,1,0,0:0:0:0:
224,360,422285,2,0,P|308:376|384:360,1,160,10|8,0:0|0:0,0:0:0:0:
460,312,422982,1,0,0:0:0:0:
488,216,423215,2,0,P|488:176|500:132,1,80,8|0,0:0|0:0,0:0:0:0:
400,168,423680,2,0,P|396:128|384:80,1,80,8|0,0:0|0:0,0:0:0:0:
348,80,424029,2,0,P|352:144|336:196,1,120,8|0,0:0|0:0,0:0:0:0:
248,280,424610,1,8,0:0:0:0:
236,288,425075,1,8,0:0:0:0:
224,296,425540,5,8,0:0:0:0:
128,256,425773,1,0,0:0:0:0:
68,152,426006,2,0,P|88:116|120:96,1,80,10|0,0:0|0:0,0:0:0:0:
212,128,426471,1,8,0:0:0:0:
308,112,426703,1,0,0:0:0:0:
404,132,426936,2,0,P|428:184|416:244,1,120,10|8,0:0|0:0,0:0:0:0:
288,312,427517,2,0,P|264:260|276:200,1,120,0|8,0:0|0:0,0:0:0:0:
432,56,428331,2,0,P|472:48|508:28,2,80,8|0|8,0:0|0:0|0:0,0:0:0:0:
224,32,429261,1,8,0:0:0:0:
212,40,429726,1,12,0:0:0:0:
200,48,430192,5,8,0:0:0:0:
120,108,430424,1,0,0:0:0:0:
20,96,430657,2,0,P|-4:156|8:220,1,120,8|8,0:0|0:0,0:0:0:0:
60,300,431238,1,2,0:0:0:0:
72,308,431587,2,0,L|236:296,1,160,8|8,0:0|0:0,0:0:0:0:
232,296,432517,1,8,0:0:0:0:
232,296,432982,1,8,0:0:0:0:
440,260,433447,6,0,P|460:200|444:128,1,132.00000402832,2|0,0:1|0:0,0:0:0:0:
428,104,433913,2,0,L|296:96,1,132.00000402832,2|0,0:1|0:0,0:0:0:0:
260,92,434378,1,2,0:0:0:0:
160,136,434610,1,2,0:0:0:0:
52,96,434843,1,2,0:0:0:0:
260,92,435075,5,2,0:1:0:0:
272,84,435540,2,0,P|328:160|324:240,1,176.000005371094,2|0,0:1|0:0,0:1:0:0:
240,300,436238,1,2,0:0:0:0:
224,200,436471,1,2,0:0:0:0:
336,256,436703,2,0,P|412:264|460:240,1,132.00000402832,2|0,0:0|0:0,0:0:0:0:
488,216,437168,5,2,0:1:0:0:
332,88,437633,2,0,P|269:115|231:169,1,132.00000402832,2|0,0:1|0:0,0:0:0:0:
225,200,438099,1,2,0:0:0:0:
188,304,438331,1,2,0:0:0:0:
76,320,438564,1,2,0:0:0:0:
225,200,438796,5,2,0:1:0:0:
452,340,439261,2,0,P|368:348|300:288,1,176.000005371094,2|0,0:1|0:0,0:0:0:0:
224,200,439959,1,2,0:0:0:0:
256,84,440192,1,2,0:0:0:0:
344,168,440424,2,0,L|320:344,1,176.000005371094,2|2,0:0|0:1,0:0:0:0:
132,352,441354,6,0,L|116:216,1,132.00000402832,2|0,0:1|0:0,0:1:0:0:
112,184,441819,1,2,0:0:0:0:
36,96,442052,1,2,0:0:0:0:
0,200,442285,1,2,0:0:0:0:
172,80,442517,5,2,0:1:0:0:
172,80,442982,2,0,B|216:100|256:76|256:76|296:100|340:80,1,176.000005371094,2|0,0:1|0:0,0:0:0:0:
212,12,443680,1,2,0:2:0:0:
256,156,443913,1,2,0:2:0:0:
300,12,444145,1,2,0:2:0:0:
144,180,444610,5,2,0:1:0:0:
136,196,445075,2,0,P|208:256|288:244,1,176.000005371094,2|2,0:1|0:0,0:0:0:0:
392,240,445773,1,2,0:0:0:0:
488,288,446006,1,2,0:0:0:0:
432,144,446238,5,2,0:1:0:0:
420,132,446703,2,0,L|244:116,1,176.000005371094,2|0,0:1|0:0,0:1:0:0:
152,168,447401,1,2,0:0:0:0:
104,56,447633,1,2,0:0:0:0:
36,180,447866,1,2,0:0:0:0:
28,192,448331,5,6,0:3:0:0:
256,192,448447,12,2,455308,0:0:0:0:
344,200,455773,5,0,0:0:0:0:
256,236,456006,1,0,0:0:0:0:
168,200,456238,1,2,0:0:0:0:
72,208,456471,2,2,L|48:248,2,40,0|0|2,0:0|0:0|0:0,0:0:0:0:
124,108,456936,2,0,P|136:68|128:28,2,80,2|0|2,0:0|0:0|0:0,0:0:0:0:
72,208,457633,6,2,L|136:256,1,80,2|0,0:0|0:0,0:0:0:0:
284,280,458099,2,2,L|204:304,1,80,2|0,0:0|0:0,0:0:0:0:
376,256,458564,1,2,0:0:0:0:
392,248,459029,1,0,0:2:0:0:
408,240,459494,6,2,P|428:204|432:164,1,80,2|0,0:0|0:0,0:0:0:0:
320,168,459959,1,2,0:0:0:0:
220,196,460192,1,2,0:0:0:0:
216,168,460308,1,0,0:0:0:0:
220,140,460424,1,2,0:0:0:0:
472,196,460657,2,2,P|484:232|476:276,2,80,2|0|2,0:0|0:0|0:0,0:0:0:0:
388,84,461354,5,2,0:3:0:0:
388,84,461471,1,2,0:3:0:0:
284,96,461703,1,2,0:3:0:0:
284,96,461819,1,2,0:3:0:0:
188,52,462052,1,2,0:3:0:0:
188,52,462168,1,2,0:3:0:0:
188,52,462285,1,2,0:3:0:0:
80,84,462517,1,2,0:3:0:0:
32,188,462750,2,0,P|24:228|32:268,1,80,4|0,0:3|0:0,0:0:0:0:
112,368,463215,5,6,0:1:0:0:
216,380,463447,1,2,0:0:0:0:
296,312,463680,1,8,0:2:0:0:
380,248,463913,1,2,0:1:0:0:
380,248,464029,1,0,0:0:0:0:
380,248,464145,2,2,P|416:232|460:232,1,80,4|2,0:3|0:0,0:0:0:0:
312,340,464610,2,2,P|276:356|232:356,1,80,10|2,0:2|0:0,0:0:0:0:
168,288,465075,5,2,0:0:0:0:
167,132,465308,1,2,0:0:0:0:
259,258,465540,1,8,0:2:0:0:
111,210,465773,1,2,0:0:0:0:
259,162,466006,1,2,0:0:0:0:
184,200,466238,5,2,0:2:0:0:
188,204,466355,1,2,0:2:0:0:
192,208,466471,1,8,0:2:0:0:
336,208,466703,1,2,0:2:0:0:
444,148,466936,6,2,L|464:64,1,80,6|2,0:1|0:0,0:0:0:0:
424,224,467401,1,8,0:2:0:0:
448,332,467633,1,2,0:0:0:0:
448,332,467750,1,2,0:0:0:0:
448,332,467866,2,2,P|416:356|376:360,1,80,0|2,0:0|0:0,0:0:0:0:
280,320,468331,1,10,0:2:0:0:
176,336,468564,1,2,0:0:0:0:
56,304,468796,6,2,L|40:220,1,80,0|2,0:0|0:0,0:0:0:0:
173,111,469261,2,2,L|152:188,1,80,8|2,0:2|0:0,0:0:0:0:
268,232,469726,1,2,0:0:0:0:
388,152,469959,5,2,0:3:0:0:
384,120,470075,1,2,0:3:0:0:
368,92,470192,1,2,0:3:0:0:
340,76,470308,1,2,0:3:0:0:
308,68,470424,1,2,0:3:0:0:
276,72,470540,1,2,0:3:0:0:
248,88,470657,6,2,P|212:108|168:108,1,80,6|2,0:0|0:0,0:0:0:0:
84,60,471122,1,8,0:0:0:0:
188,124,471354,1,2,0:0:0:0:
196,140,471471,1,0,0:0:0:0:
196,156,471587,2,2,P|184:208|192:236,1,80,4|2,0:3|0:0,0:0:0:0:
256,316,472052,1,10,0:0:0:0:
360,336,472285,1,2,0:0:0:0:
480,292,472517,6,2,P|468:252|464:208,1,80,4|2,0:3|0:0,0:0:0:0:
436,72,472982,2,2,P|436:112|424:152,1,80,8|2,0:0|0:0,0:0:0:0:
480,292,473447,1,6,0:0:0:0:
500,172,473680,5,2,0:2:0:0:
504,160,473796,1,2,0:2:0:0:
504,148,473913,1,8,0:0:0:0:
384,44,474145,1,2,0:2:0:0:
260,160,474378,6,2,P|216:168|176:168,1,80,4|2,0:3|0:0,0:0:0:0:
88,212,474843,1,8,0:0:0:0:
48,308,475075,2,2,L|36:352,2,40,2|0|2,0:0|0:0|0:0,0:0:0:0:
80,196,475540,2,2,L|72:104,2,80,2|8|2,0:0|0:0|0:0,0:0:0:0:
180,108,476238,6,0,L|188:36,2,53.3333333333333,6|0|0,0:3|0:0|0:0,0:0:0:0:
176,144,476703,1,8,0:2:0:0:
224,248,476936,2,0,P|220:296|204:332,2,80,6|8|6,0:3|0:2|0:3,0:0:0:0:
292,156,477633,2,0,P|320:128|360:116,1,80,6|0,0:2|0:0,0:0:0:0:
380,236,478099,5,4,0:0:0:0:
256,192,478215,12,0,480889,2:2:0:0:
296,220,481819,5,4,0:2:0:0:
140,84,482285,1,0,0:0:0:0:
32,282,482750,2,0,L|44:364,2,80
60,204,483447,2,0,P|140:180|216:192,1,160
296,220,484145,6,0,P|374:231|450:207,1,160
360,72,485075,1,0,0:0:0:0:
232,96,485540,1,0,0:0:0:0:
136,312,486006,1,0,0:0:0:0:
264,288,486471,1,0,0:0:0:0:
32,160,486936,6,0,L|16:80,1,80
40,184,487401,2,0,P|116:208|200:192,1,160
276,144,488099,1,0,0:0:0:0:
344,76,488331,2,0,P|372:128|328:224,1,160
220,224,489029,1,0,0:0:0:0:
88,148,489261,6,0,P|80:112|100:68,1,80
108,176,489726,2,0,P|116:256|68:336,1,160
4,228,490424,1,0,0:0:0:0:
20,132,490657,1,0,0:0:0:0:
96,72,490889,2,0,B|140:44|176:84|220:92|256:72,1,160
336,124,491587,6,0,P|280:168|196:156,1,160
388,36,492517,2,0,P|432:92|420:176,1,160
228,296,493447,2,0,P|184:240|196:156,1,160
388,36,494378,6,0,L|472:32,1,80
364,40,494843,2,0,P|296:72|208:64,1,160
112,16,495773,1,0,0:0:0:0:
176,144,496238,1,0,0:0:0:0:
120,336,496703,5,4,0:2:0:0:
212,308,496936,1,0,0:0:0:0:
308,312,497168,2,0,P|304:264|320:224,1,88.000002685547,2|0,0:2|0:0,0:0:0:0:
416,196,497633,2,0,P|421:239|406:279,1,88.000002685547,2|0,0:2|0:0,0:0:0:0:
344,132,498099,1,0,0:0:0:0:
248,120,498331,1,0,0:0:0:0:
172,184,498564,6,0,P|92:204|32:140,2,176.000005371094,2|2|2,0:2|0:2|0:2,0:0:0:0:
248,120,499726,1,0,0:0:0:0:
344,131,499959,1,0,0:0:0:0:
362,226,500192,1,0,0:0:0:0:
277,273,500424,1,0,0:0:0:0:
207,207,500657,1,0,0:0:0:0:
80,140,500889,6,0,P|36:148|0:176,1,88.000002685547,2|0,0:2|0:0,0:0:0:0:
20,304,501354,2,0,P|64:296|100:268,1,88.000002685547,2|0,0:2|0:0,0:0:0:0:
184,212,501819,1,0,0:0:0:0:
288,192,502052,1,0,0:0:0:0:
400,216,502285,6,0,P|436:140|420:48,1,176.000005371094,2|0,0:2|0:0,0:0:0:0:
284,24,502982,1,0,0:0:0:0:
284,24,503215,2,0,P|248:100|264:192,1,176.000005371094,2|0,0:2|0:0,0:0:0:0:
360,292,503913,2,0,L|448:312,2,88.000002685547
236,236,504610,6,0,P|200:260|156:264,1,88.000002685547,2|0,0:2|0:0,0:0:0:0:
78,178,505075,2,0,P|44:260|76:344,1,176.000005371094,2|0,0:2|0:0,0:0:0:0:
156,264,505773,1,0,0:0:0:0:
240,192,506006,2,0,B|268:160|268:160|312:148,1,88.000002685547,2|0,0:2|0:0,0:0:0:0:
460,174,506471,2,0,P|447:216|412:240,1,88.000002685547,2|0,0:2|0:0,0:0:0:0:
456,76,506936,2,0,B|480:32|528:24,2,88.000002685547,2|0|0,0:2|0:0|0:0,0:0:0:0:
368,120,507633,2,0,L|276:132,1,88.000002685547
180,132,508099,1,0,0:0:0:0:
68,112,508331,6,0,P|40:76|44:28,1,88.000002685547,2|0,0:2|0:0,0:0:0:0:
88,128,508796,2,0,P|120:208|84:296,1,176.000005371094,2|0,0:2|0:0,0:0:0:0:
8,208,509494,1,0,0:0:0:0:
96,104,509726,6,0,P|140:96|176:68,1,88.000002685547,2|0,0:2|0:0,0:0:0:0:
256,160,510192,2,0,P|304:176|328:204,1,88.000002685547,2|0,0:2|0:0,0:0:0:0:
432,152,510657,2,0,P|472:148|512:116,1,88.000002685547,2|0,0:2|0:0,0:0:0:0:
432,40,511122,1,0,0:0:0:0:
308,92,511354,1,0,0:0:0:0:
256,240,511587,5,4,0:2:0:0:
432,324,512052,1,0,0:0:0:0:
432,324,512517,2,0,P|456:248|440:168,1,160,0|4,0:0|0:3,0:0:0:0:
384,84,513215,2,0,P|284:84|336:172,2,240,4|0|0,0:1|0:0|0:0,0:0:0:0:
440,172,514843,6,0,L|450:251,1,80,0|4,0:0|0:3,0:0:0:0:
464,336,515308,1,4,0:1:0:0:
332,324,515540,1,0,0:0:0:0:
332,324,515773,2,0,L|355:248,1,80
340,152,516238,1,0,0:0:0:0:
340,152,516471,2,0,P|276:120|192:144,1,160,0|4,0:0|0:1,0:0:0:0:
128,212,517168,6,0,P|152:292|140:368,1,160,4|0,0:3|0:0,0:0:0:0:
116,176,518099,1,0,0:0:0:0:
144,84,518331,1,0,0:0:0:0:
236,52,518564,1,0,0:0:0:0:
332,68,518796,1,2,0:3:0:0:
348,72,518913,1,2,0:3:0:0:
364,72,519029,1,4,0:1:0:0:
236,300,519494,5,0,0:0:0:0:
236,300,519959,2,0,P|312:336|384:320,1,160,0|4,0:0|0:3,0:0:0:0:
468,264,520657,2,0,P|452:180|476:108,1,160,4|0,0:1|0:0,0:0:0:0:
496,16,521354,2,0,P|448:148|280:200,1,320
160,168,522517,1,4,0:3:0:0:
160,168,522750,6,0,L|76:160,1,80,4|0,0:1|0:0,0:0:0:0:
216,112,523215,2,0,P|300:92|360:132,1,160
336,256,523913,2,0,P|252:276|192:236,1,160,4|4,0:3|0:1,0:0:0:0:
144,144,524610,6,0,L|60:160,1,80,4|0,0:3|0:0,0:0:0:0:
53,48,525075,2,0,L|132:64,1,80
228,84,525540,1,0,0:0:0:0:
324,72,525773,1,0,0:0:0:0:
412,108,526006,1,4,0:2:0:0:
500,72,526238,2,0,L|512:28,2,40,2|2|4,0:3|0:3|0:0,0:0:0:0:
308,224,526936,6,0,P|192:180|308:136,1,320,0|0,0:0|0:0,0:0:0:0:
424,324,528331,6,0,L|508:348,2,80,2|0|2,0:0|0:0|0:0,0:0:0:0:
332,296,529029,2,2,P|256:320|180:296,1,160,2|0,0:0|0:0,0:0:0:0:
204,196,529726,1,2,0:0:0:0:
308,196,529959,1,0,0:0:0:0:
256,288,530192,1,2,0:0:0:0:
216,120,530424,2,2,P|256:116|296:120,1,80,2|0,0:0|0:0,0:0:0:0:
332,296,530889,6,2,P|256:320|180:296,2,160,2|2|0,0:0|0:0|0:0,0:0:0:0:
360,196,532052,2,2,L|376:112,1,80,2|0,0:0|0:0,0:0:0:0:
256,60,532517,1,2,0:0:0:0:
137,117,532750,2,2,L|172:276,1,160,2|0,0:0|0:0,0:0:0:0:
256,196,533447,1,2,0:0:0:0:
256,196,533680,1,2,0:0:0:0:
304,108,533913,6,2,L|372:56,1,80,2|0,0:0|0:0,0:0:0:0:
457,141,534378,2,2,L|380:160,1,80,2|0,0:0|0:0,0:0:0:0:
318,254,534843,2,2,L|396:236,1,80,2|0,0:0|0:0,0:0:0:0:
472,288,535308,2,2,L|408:336,1,80,2|0,0:0|0:0,0:0:0:0:
284,360,535773,6,2,L|200:352,1,80,2|0,0:0|0:0,0:0:0:0:
160,236,536238,1,2,0:0:0:0:
188,116,536471,1,0,0:0:0:0:
160,236,536703,6,2,L|244:244,1,80,2|0,0:0|0:0,0:0:0:0:
336,256,537168,1,2,0:0:0:0:
440,196,537401,1,2,0:0:0:0:
336,256,537633,5,2,0:3:0:0:
332,228,537750,1,2,0:3:0:0:
328,200,537866,1,2,0:3:0:0:
324,172,537982,1,2,0:3:0:0:
320,144,538099,1,2,0:3:0:0:
304,120,538215,1,2,0:3:0:0:
280,104,538331,1,2,0:3:0:0:
252,108,538447,1,2,0:3:0:0:
232,128,538564,1,2,0:3:0:0:
224,156,538680,1,2,0:3:0:0:
228,184,538796,1,2,0:3:0:0:
244,208,538913,1,2,0:3:0:0:
260,232,539029,6,2,L|268:276,3,40,2|2|2|2,0:3|0:3|0:3|0:3,3:0:0:0:
272,296,539494,1,4,0:3:0:0:
256,192,539610,12,4,540889,0:3:0:0:
368,228,541354,5,4,0:3:0:0:
276,264,541703,2,0,P|228:268|180:248,1,95.9999970703126,0|0,0:0|0:0,0:0:0:0:
148,216,542052,1,2,0:2:0:0:
324,76,542285,2,0,L|392:88,1,63.9999980468751,4|0,0:3|0:0,0:0:0:0:
440,168,542595,2,0,L|376:172,1,63.9999980468751,0|4,0:0|0:3,0:0:0:0:
416,280,542905,2,0,L|480:252,1,63.9999980468751,0|0,0:0|0:0,0:0:0:0:
376,300,543215,1,4,0:1:0:0:
204,320,543564,6,0,P|164:296|116:300,1,95.9999970703126
72,324,543913,1,2,0:2:0:0:
264,260,544145,2,0,P|272:228|268:196,1,63.9999980468751,4|0,0:3|0:0,0:0:0:0:
168,152,544455,2,0,P|164:183|172:214,1,63.9999980468751,0|4,0:0|0:3,0:0:0:0:
348,192,544843,1,2,0:2:0:0:
344,160,544959,1,2,0:2:0:0:
328,128,545075,1,4,0:0:0:0:
44,204,545424,6,0,L|-4:224,2,47.9999985351563,0|4|0,0:0|0:3|0:0,0:0:0:0:
80,192,545773,1,2,0:2:0:0:
264,272,546006,2,0,L|332:292,2,63.9999980468751,4|0|0,0:3|0:0|0:0,0:0:0:0:
364,192,546471,2,0,L|432:180,2,63.9999980468751,4|0|0,0:3|0:0|0:0,0:0:0:0:
432,84,546936,5,12,0:0:0:0:
312,84,547168,1,0,0:0:0:0:
364,192,547401,1,0,0:0:0:0:
384,320,547633,1,2,0:2:0:0:
384,320,547750,1,2,0:2:0:0:
384,320,547866,1,2,0:2:0:0:
264,272,548099,1,0,0:0:0:0:
116,120,548331,2,0,P|192:112|248:144,1,143.999995605469,4|0,0:2|0:0,0:0:0:0:
272,172,548796,5,4,0:0:0:0:
384,320,549145,2,0,P|384:268|400:224,1,95.9999970703126
428,188,549494,1,2,0:2:0:0:
512,364,549726,2,0,L|452:344,1,63.9999980468751,4|0,0:3|0:0,0:0:0:0:
312,332,550036,2,0,L|248:344,1,63.9999980468751,0|4,0:0|0:3,0:0:0:0:
124,368,550347,2,0,L|64:344,1,63.9999980468751
188,276,550657,1,4,0:0:0:0:
208,264,551006,6,0,L|216:168,1,95.9999970703126
220,128,551354,2,0,P|268:144|316:136,1,95.9999970703126,2|4,0:2|0:3,0:0:0:0:
276,40,551742,2,0,L|212:28,2,63.9999980468751,0|0|4,0:0|0:0|0:3,0:0:0:0:
400,148,552285,1,2,0:2:0:0:
408,176,552401,1,2,0:2:0:0:
400,204,552517,1,4,0:0:0:0:
304,364,552750,6,0,L|309:298,1,63.9999980468751,0|2,0:0|0:2,0:0:0:0:
312,272,552982,2,0,P|276:264|252:248,1,63.9999980468751,4|2,0:3|0:2,0:0:0:0:
236,228,553215,1,2,0:2:0:0:
140,100,553447,2,0,L|76:92,2,63.9999980468751,4|0|2,0:3|0:0|0:2,0:0:0:0:
236,164,553913,2,0,L|296:124,2,63.9999980468751,4|0|2,0:3|0:0|0:2,0:0:0:0:
136,216,554378,6,8,L|144:268,11,47.9999985351563,8|0|8|0|8|0|8|0|8|0|8|0,0:2|0:2|0:2|0:2|0:2|0:2|0:2|0:2|0:2|0:2|0:2|0:2,0:2:0:0:
148,288,555773,1,8,0:1:0:0:
416,264,556238,5,4,0:3:0:0:
256,192,560192,12,2,563680,2:2:0:0:
180,156,564029,6,0,P|148:208|160:268,1,120,2|2,0:0|0:0,0:0:0:0:
276,284,564610,2,0,P|308:232|296:172,2,120,2|2|2,0:0|0:0|0:0,0:0:0:0:
192,328,565540,2,0,L|72:336,2,120,2|2|2,0:0|0:0|0:0,0:0:0:0:
320,364,566471,2,0,L|440:356,2,120,2|2|2,0:0|0:0|0:0,0:0:0:0:
292,244,567401,6,0,P|268:192|212:176,1,120,2|2,0:0|0:0,0:0:0:0:
68,304,568099,1,2,0:0:0:0:
60,312,568331,2,0,L|52:188,2,120,2|2|2,0:0|0:0|0:0,0:0:0:0:
168,228,569261,2,0,L|181:104,2,120,2|2|2,0:0|0:0|0:0,0:0:0:0:
288,160,570192,2,0,L|322:40,2,120,2|2|2,0:0|0:0|0:0,0:0:0:0:
244,276,571122,6,0,P|184:300|124:292,1,120,4|2,0:0|0:0,0:0:0:0:
104,280,571587,2,0,P|116:244|120:200,1,80,0|2,0:0|0:0,0:0:0:0:
144,76,572052,2,0,P|204:52|264:60,1,120,2|2,0:0|0:0,0:0:0:0:
284,72,572517,2,0,P|324:76|364:56,1,80,0|2,0:0|0:0,0:0:0:0:
212,28,572982,6,0,P|200:92|232:140,2,120,2|2|2,0:0|0:0|0:0,0:0:0:0:
296,92,573913,2,0,P|308:156|276:204,2,120,2|2|2,0:0|0:0|0:0,0:0:0:0:
128,124,574843,6,0,P|104:172|108:236,1,120,2|2,0:0|0:0,0:0:0:0:
120,252,575540,1,2,0:0:0:0:
232,348,575773,2,0,P|292:328|348:336,1,120,2|2,0:0|0:0,0:0:0:0:
364,344,576471,1,2,0:0:0:0:
488,256,576703,6,0,L|500:128,1,120,2|2,0:0|0:0,0:0:0:0:
504,108,577168,2,0,P|480:76|444:59,1,80,2|2,0:0|0:0,0:0:0:0:
345,127,577633,2,0,P|379:179|435:202,1,120,2|2,0:0|0:0,0:0:0:0:
458,202,578099,2,0,P|455:158|435:128,1,80,2|2,0:0|0:0,0:0:0:0:
316,20,578564,6,0,L|236:28,1,80,4|0,0:0|0:0,0:0:0:0:
208,32,578913,1,0,0:0:0:0:
208,32,579029,1,2,0:0:0:0:
152,120,579261,1,0,0:0:0:0:
96,24,579494,1,0,0:0:0:0:
52,160,579726,1,0,0:0:0:0:
52,160,579843,1,0,0:0:0:0:
52,160,579959,1,2,0:0:0:0:
88,292,580192,5,0,0:0:0:0:
184,328,580424,1,0,0:0:0:0:
288,312,580657,1,0,0:0:0:0:
288,312,580889,2,0,P|324:296|364:300,1,80,2|0,0:0|0:0,0:0:0:0:
456,348,581354,1,0,0:0:0:0:
448,248,581587,1,0,0:0:0:0:
456,144,581819,2,0,P|464:104|460:60,1,80,2|0,0:0|0:0,0:0:0:0:
440,168,582285,6,0,L|316:184,1,120,0|0,0:0|0:0,0:0:0:0:
296,188,582750,1,2,0:0:0:0:
192,204,582982,2,0,P|156:220|112:216,1,80
140,116,583447,2,0,L|180:124,2,40,0|0|2,0:0|0:0|0:0,0:0:0:0:
228,56,583913,2,0,P|268:60|308:44,2,80
200,48,584494,1,0,0:0:0:0:
172,36,584610,2,0,P|132:32|92:44,1,80,2|0,0:0|0:0,0:0:0:0:
80,204,585075,6,0,P|168:212|232:180,1,160,0|2,0:0|0:0,0:0:0:0:
320,96,585773,1,0,0:0:0:0:
432,44,586006,2,0,B|472:40|472:40|512:60,2,80,4|0|2,0:0|0:0|0:0,0:0:0:0:
328,192,586703,6,0,P|360:120|352:40,1,160
308,212,587401,2,0,P|299:133|252:68,1,160,2|0,0:0|0:0,0:0:0:0:
132,44,588099,6,0,L|88:32,2,40,0|0|2,0:0|0:0|0:0,0:0:0:0:
204,192,588564,1,0,0:0:0:0:
122,160,588796,6,0,P|176:108|256:120,1,160,2|0,0:0|0:0,0:0:0:0:
288,220,589494,2,0,P|240:272|152:264,1,160,2|0,0:0|0:0,0:0:0:0:
116,52,590192,2,0,P|195:45|270:69,1,160,2|0,0:0|0:0,0:0:0:0:
288,324,590890,2,0,P|208:331|133:307,1,160,2|0,0:0|0:0,0:0:0:0:
116,52,591587,5,2,0:1:0:0:
408,214,592052,1,2,0:2:0:0:
74,255,592517,1,2,0:1:0:0:
321,26,592982,1,2,0:2:0:0:
256,356,593447,1,4,0:1:0:0:
256,192,593564,12,2,595773,0:0:0:0:
284,264,596238,5,0,0:0:0:0:
280,272,596703,1,2,0:0:0:0:
276,280,597168,2,0,P|292:308|332:328,1,71.9999978027344,2|0,0:0|0:0,0:0:0:0:
420,320,597633,2,0,L|432:248,1,71.9999978027344,2|0,0:0|0:0,0:0:0:0:
440,212,597982,2,0,P|456:156|444:108,1,107.999996704102,2|2,0:0|0:0,0:0:0:0:
420,320,598796,1,0,0:0:0:0:
420,320,599029,6,0,L|276:344,1,143.999995605469,2|0,0:0|0:0,0:0:0:0:
76,356,599959,1,2,0:0:0:0:
80,348,600424,1,2,0:0:0:0:
84,340,600889,6,0,L|80:264,1,71.9999978027344,2|0,0:0|0:0,0:0:0:0:
176,156,601354,2,0,L|172:228,1,71.9999978027344,2|0,0:0|0:0,0:0:0:0:
172,256,601703,2,0,P|213:288|266:286,1,107.999996704102,2|0,0:0|0:0,0:0:0:0:
356,256,602285,1,0,0:0:0:0:
448,272,602517,1,2,0:0:0:0:
456,268,603215,2,0,L|468:152,1,107.999996704102,2|0,0:0|0:0,0:0:0:0:
476,56,603680,6,0,L|396:60,1,80,2|0,0:0|0:0,0:0:0:0:
256,52,604145,2,0,P|264:92|260:132,1,80,2|0,0:0|0:0,0:0:0:0:
216,264,604610,5,4,0:2:0:0:
316,236,604843,1,0,0:0:0:0:
388,312,605075,2,0,P|424:324|468:320,1,80
496,308,605424,2,0,B|480:280|484:248|484:248|488:216|468:192,1,120
356,148,606006,5,4,0:2:0:0:
260,112,606238,1,0,0:0:0:0:
204,24,606471,1,0,0:0:0:0:
308,20,606703,1,0,0:0:0:0:
260,112,606936,2,0,P|220:152|208:212,1,120
224,240,607401,5,4,0:2:0:0:
301,306,607633,1,0,0:0:0:0:
369,226,607866,1,0,0:0:0:0:
289,160,608099,1,0,0:0:0:0:
396,316,608331,6,0,P|436:332|480:328,2,88.000002685547,4|0|0,0:0|0:0|0:0,0:0:0:0:
452,236,609029,1,0,0:0:0:0:
424,144,609261,2,0,P|424:96|416:48,2,88.000002685547
356,212,609959,1,0,0:0:0:0:
304,344,610192,6,0,L|212:360,1,88.000002685547
161,252,610657,2,0,L|248:268,1,88.000002685547
220,176,611122,2,0,L|139:129,1,88.000002685547
171,16,611587,2,0,L|228:84,1,88.000002685547
316,188,612052,5,0,0:0:0:0:
413,223,612285,1,0,0:0:0:0:
449,125,612517,1,0,0:0:0:0:
351,90,612750,1,0,0:0:0:0:
404,164,612982,5,0,0:0:0:0:
505,145,613215,1,0,0:0:0:0:
487,42,613447,1,0,0:0:0:0:
385,61,613680,1,0,0:0:0:0:
256,32,613913,6,0,P|212:24|168:28,1,88.000002685547,0|0,0:0|0:0,0:0:0:0:
112,176,614378,2,0,P|156:184|200:180,1,88.000002685547,0|0,0:0|0:0,0:0:0:0:
168,28,614843,2,0,P|125:43|89:68,1,88.000002685547,0|0,0:0|0:0,0:0:0:0:
200,180,615308,2,0,P|242:164|278:139,1,88.000002685547,0|0,0:0|0:0,0:0:0:0:
340,32,615773,6,0,L|388:44,3,47.9999985351563,4|0|0|0,0:0|0:0|0:0|0:0,0:0:0:0:
424,52,616238,2,0,L|440:100,3,47.9999985351563,2|0|0|0,0:3|0:0|0:0|0:0,0:0:0:0:
448,136,616703,2,0,L|496:148,3,47.9999985351563,2|0|0|0,0:3|0:0|0:0|0:0,0:0:0:0:
480,184,617168,2,0,L|464:232,3,47.9999985351563,2|0|0|0,0:3|0:0|0:0|0:0,0:0:0:0:
448,256,617633,5,2,0:3:0:0:
432,280,617750,1,0,0:0:0:0:
408,296,617866,1,0,0:0:0:0:
380,304,617982,1,0,0:0:0:0:
352,300,618099,1,2,0:3:0:0:
324,296,618215,1,0,0:0:0:0:
296,292,618331,1,0,0:0:0:0:
268,288,618447,1,0,0:0:0:0:
240,284,618564,6,0,P|228:240|236:188,1,95.9999970703126,2|0,0:0|0:0,0:0:0:0:
376,136,619029,2,0,P|388:180|380:232,1,95.9999970703126,2|0,0:0|0:0,0:0:0:0:
176,336,619494,1,2,0:0:0:0:
256,192,619610,12,0,621354,0:0:0:0:
304,312,622285,5,0,0:0:0:0:
333,200,622517,1,0,0:0:0:0:
221,170,622750,1,0,0:0:0:0:
192,281,622982,1,2,0:2:0:0:
412,280,623215,6,0,P|444:224|436:156,1,132.00000402832,4|0,0:0|0:0,0:0:0:0:
428,128,623680,2,0,L|336:104,1,88.000002685547,4|0,0:3|0:0,0:0:0:0:
240,76,624145,1,4,0:3:0:0:
168,156,624378,2,2,P|136:184|92:192,1,88.000002685547,2|4,0:0|0:3,0:0:0:0:
52,92,624843,2,2,P|84:64|128:56,1,88.000002685547,2|4,0:0|0:3,0:0:0:0:
240,76,625308,1,0,0:0:0:0:
336,36,625540,1,4,0:3:0:0:
440,48,625773,2,0,L|452:92,2,44.0000013427735,0|0|4,0:0|0:0|0:3,0:0:0:0:
480,176,626238,6,2,P|468:220|472:264,1,88.000002685547,2|4,0:0|0:3,0:0:0:0:
392,380,626703,2,2,P|404:336|400:292,1,88.000002685547,2|4,0:0|0:3,0:0:0:0:
332,216,627168,1,2,0:0:0:0:
228,236,627401,1,4,0:3:0:0:
124,212,627633,1,2,0:0:0:0:
124,212,627750,1,2,0:2:0:0:
124,212,627866,2,0,P|80:204|36:208,2,88.000002685547,4|2|4,0:0|0:0|0:3,0:0:0:0:
228,236,628564,5,2,0:0:0:0:
332,216,628796,1,4,0:3:0:0:
400,136,629029,2,2,B|384:96|384:96|388:52,1,88.000002685547,2|4,0:0|0:3,0:0:0:0:
500,80,629494,1,2,0:2:0:0:
508,112,629610,1,2,0:2:0:0:
500,144,629726,1,2,0:0:0:0:
360,256,629959,2,2,P|392:228|440:220,1,88.000002685547,2|4,0:0|0:3,0:0:0:0:
440,328,630424,1,2,0:0:0:0:
336,360,630657,5,4,0:0:0:0:
260,288,630889,1,0,0:0:0:0:
280,184,631122,1,4,0:3:0:0:
256,80,631354,2,0,L|252:32,2,44.0000013427735,0|0|4,0:0|0:0|0:3,0:0:0:0:
176,152,631819,2,2,P|136:172|88:168,1,88.000002685547,2|4,0:0|0:3,0:0:0:0:
116,64,632285,2,2,L|208:76,1,88.000002685547,2|4,0:0|0:3,0:0:0:0:
348,84,632750,1,2,0:2:0:0:
372,72,632866,1,2,0:2:0:0:
396,60,632983,1,4,0:3:0:0:
420,172,633215,1,2,0:2:0:0:
444,160,633331,1,2,0:2:0:0:
468,148,633448,1,4,0:3:0:0:
312,188,633680,6,0,P|272:208|252:244,1,88.000002685547,0|2,0:0|0:0,0:0:0:0:
328,332,634145,2,2,P|368:312|388:276,1,88.000002685547,2|0,0:0|0:0,0:0:0:0:
308,172,634610,2,2,B|276:176|276:176|248:164|248:164|220:168,1,88.000002685547,2|2,0:0|0:2,0:0:0:0:
152,260,635075,1,2,0:0:0:0:
128,248,635191,1,0,0:0:0:0:
104,236,635308,1,2,0:2:0:0:
24,112,635540,6,2,P|12:72|20:24,1,88.000002685547,2|0,0:0|0:0,0:0:0:0:
168,112,636006,2,0,P|180:152|172:200,1,88.000002685547,2|0,0:0|0:0,0:0:0:0:
128,360,636471,2,2,P|116:320|124:272,1,88.000002685547,2|0,0:0|0:0,0:0:0:0:
304,272,636936,2,0,P|264:284|216:276,1,88.000002685547,2|0,0:0|0:0,0:0:0:0:
340,248,637401,5,2,0:0:0:0:
452,217,637633,1,2,0:3:0:0:
482,330,637866,1,4,0:2:0:0:
370,360,638099,1,4,0:0:0:0:
256,192,638215,12,0,642750,2:0:0:0:
