osu file format v12

[General]
AudioFilename: this is.mp3
AudioLeadIn: 0
PreviewTime: 159429
Countdown: 0
SampleSet: Soft
StackLeniency: 0.4
Mode: 0
LetterboxInBreaks: 0

[Editor]
DistanceSpacing: 1.3
BeatDivisor: 4
GridSize: 4

[Metadata]
Title:2012 in 10 Minutes
TitleUnicode:2012 in 10 Minutes
Artist:Dzeko & Torres
ArtistUnicode:Dzeko & Torres
Creator:Aleks719
Version:Marathon
Source:
Tags:Ivan Gough Feenixpawl Georgi Kay In My Mind Axwell Qulinez Troll Gregor Salto Azumba Those Usual Suspects Walking Alone Acapella Sultan Shepard Quila Walls Skrillex Ruffneck Bass Swedish House Mafia Greyhound Knife Party Internet Friends Sander Van Doorn Julian Jordan Kangaroo Cedric Gervais Molly Hardwell Spaceman Deniz Koyu Bong Martin Solveig Night Out Calfan Ressurection Swanky Tunes Hard Rock Sofa Here We Go Sirah Bangarang Nicky Romero Toulouse Quasar Zedd Spectrum Afrojack Shermanology Alesso Sebastian Ingrosso Matthew Koma Calling Lose My Mind Dirty South Ruben Haze Dreams Otto Knows Million Voices Nari Milani Atom Jewelz Scott Sparks Toxic Rush Generation 303 The House Rage Valley Dada Life Kick Out Gotye Somebody The Doors Breaking Sweat Thomas Gold Sing 2 Me Tommy Trash Reload Porter Robinson Language Piano Chuckie Promise Land Amanda Wilson Breaking Up Steve Aoki Wynter Gordon Ladi Dadi Cazzette Beam Me Up Kill Mode M83 Midnight City Eric Prydz Don't You Worry Child mashup progressive dubstep
BeatmapID:238121
BeatmapSetID:87116

[Difficulty]
HPDrainRate:6
CircleSize:4
OverallDifficulty:7
ApproachRate:9
SliderMultiplier:2
SliderTickRate:2

[Events]
//Background and Video events
0,0,"bg.jpg",0,0
//Break Periods
2,38320,51453
2,99272,108596
2,312605,319424
2,411653,417644
2,514510,525739
2,575463,582882
//Storyboard Layer 0 (Background)
//Storyboard Layer 1 (Fail)
//Storyboard Layer 2 (Pass)
//Storyboard Layer 3 (Foreground)
//Storyboard Sound Samples
//Background Colour Transformations
3,100,102,102,102

[TimingPoints]
25,476.190476190476,4,2,0,20,1,0
6215,-100,4,2,0,25,0,0
6691,-100,4,2,0,30,0,0
7167,-100,4,2,0,35,0,0
8358,-166.666666666667,4,2,0,30,0,0
22882,-166.666666666667,4,2,0,25,0,0
23001,-166.666666666667,4,2,0,50,0,0
38120,-133.333333333333,4,2,0,60,0,1
38239,-133.333333333333,4,2,0,50,0,0
74667,-125,4,2,0,50,0,0
75620,-111.111111111111,4,2,0,50,0,0
76572,-100,4,2,0,55,0,0
79905,-100,4,2,0,60,0,0
81810,-100,4,2,0,70,0,0
83239,-100,4,2,0,80,0,0
83834,-83.3333333333333,4,1,0,60,0,1
89548,-83.3333333333333,4,1,0,60,0,0
90917,-133.333333333333,4,1,0,50,0,0
91453,-83.3333333333333,4,1,0,60,0,1
99072,-83.3333333333333,4,1,0,60,0,0
110501,-111.111111111111,4,1,0,30,0,0
110739,-111.111111111111,4,1,0,35,0,0
111215,-111.111111111111,4,1,0,40,0,0
111691,-111.111111111111,4,1,0,45,0,0
112167,-111.111111111111,4,1,0,50,0,0
114548,-111.111111111111,4,1,0,45,0,0
137048,-111.111111111111,4,1,0,55,0,0
144667,-111.111111111111,4,1,0,65,0,0
160024,-66.6666666666667,4,1,0,80,0,1
160144,-66.6666666666667,4,1,0,60,0,1
161929,-66.6666666666667,4,1,0,80,0,1
162048,-66.6666666666667,4,1,0,60,0,1
163834,-66.6666666666667,4,1,0,80,0,1
163953,-66.6666666666667,4,1,0,60,0,1
165620,-66.6666666666667,4,1,0,50,0,1
165917,-66.6666666666667,4,1,0,55,0,1
166155,-66.6666666666667,4,1,0,60,0,1
166394,-66.6666666666667,4,1,0,65,0,1
166632,-66.6666666666667,4,1,0,70,0,1
166870,-66.6666666666667,4,1,0,75,0,1
167524,-66.6666666666667,4,1,0,60,0,0
167644,-66.6666666666667,4,1,0,80,0,1
167763,-66.6666666666667,4,1,0,60,0,1
169548,-66.6666666666667,4,1,0,80,0,1
169667,-66.6666666666667,4,1,0,60,0,1
171453,-66.6666666666667,4,1,0,80,0,1
171572,-66.6666666666667,4,1,0,60,0,1
173358,-66.6666666666667,4,1,0,80,0,1
173477,-66.6666666666667,4,1,0,60,0,1
175263,-83.3333333333333,4,1,0,60,0,0
182882,-83.3333333333333,4,1,0,70,0,1
183358,-83.3333333333333,4,1,0,10,0,0
185739,-83.3333333333333,4,1,0,20,0,0
186691,-83.3333333333333,4,1,0,30,0,0
187644,-83.3333333333333,4,1,0,40,0,0
188596,-83.3333333333333,4,1,0,50,0,0
189548,-83.3333333333333,4,1,0,60,0,0
190501,-83.3333333333333,4,1,0,70,0,0
190739,-133.333333333333,4,2,1,60,0,0
194251,-133.333333333333,4,2,1,45,0,0
194370,-133.333333333333,4,2,1,60,0,0
198060,-133.333333333333,4,2,1,45,0,0
198179,-133.333333333333,4,2,1,60,0,0
218953,-133.333333333333,4,2,1,50,0,0
219786,-133.333333333333,4,2,1,40,0,0
220858,-166.666666666667,4,2,0,60,0,0
234905,-111.111111111111,4,2,0,60,0,0
251453,-100,4,1,0,60,0,1
251572,-100,4,1,0,30,0,0
253239,-100,4,1,0,35,0,0
255144,-100,4,1,0,40,0,0
258715,-100,4,2,0,80,0,0
258953,-100,4,1,0,45,0,0
266334,-100,4,2,0,80,0,0
266691,-100,4,1,0,60,0,1
266810,-100,4,1,2,40,0,0
280739,-100,4,1,0,30,0,0
281929,-100,4,1,0,60,0,0
297108,-83.3333333333333,4,1,0,60,0,0
304251,-71.4285714285714,4,1,0,60,0,0
304846,-80,4,1,0,60,0,0
312405,-80,4,1,0,70,0,1
312524,-80,4,1,0,60,0,0
320024,-166.666666666667,4,1,0,25,0,0
335263,-166.666666666667,4,1,0,45,0,0
350501,-133.333333333333,4,1,0,45,0,0
358477,-133.333333333333,4,1,0,25,0,0
358715,-133.333333333333,4,1,0,45,0,0
359489,-133.333333333333,4,1,0,30,0,0
359608,-133.333333333333,4,1,0,45,0,0
360441,-133.333333333333,4,1,0,30,0,0
360560,-133.333333333333,4,1,0,45,0,0
361394,-133.333333333333,4,1,0,35,0,0
361513,-133.333333333333,4,1,0,45,0,0
362346,-133.333333333333,4,1,0,35,0,0
362465,-133.333333333333,4,1,0,45,0,0
363298,-133.333333333333,4,1,0,35,0,0
363417,-133.333333333333,4,1,0,45,0,0
364251,-133.333333333333,4,1,0,40,0,0
364370,-133.333333333333,4,1,0,45,0,0
365203,-133.333333333333,4,1,0,40,0,0
365322,-133.333333333333,4,1,0,45,0,0
379013,-111.111111111111,4,1,0,20,0,0
379132,-111.111111111111,4,1,0,50,0,0
379489,-111.111111111111,4,1,0,30,0,0
379608,-111.111111111111,4,1,0,50,0,0
379965,-111.111111111111,4,1,0,40,0,0
380084,-111.111111111111,4,1,0,50,0,0
380977,-100,4,1,0,60,0,1
381096,-100,4,1,0,45,0,1
395977,-100,4,1,0,50,0,0
396215,-83.3333333333333,4,1,0,60,0,1
396334,-83.3333333333333,4,1,0,50,0,1
410977,-83.3333333333333,4,1,0,50,0,0
411453,-83.3333333333333,4,1,0,60,0,1
411572,-100,4,2,1,50,0,0
449548,-100,4,1,0,60,0,1
449667,-100,4,2,0,50,0,0
468834,-100,4,2,0,10,0,0
469548,-100,4,2,0,20,0,0
470501,-100,4,2,0,30,0,0
471453,-100,4,2,0,40,0,0
472405,-100,4,2,0,55,0,0
472644,-100,4,2,0,25,0,0
473358,-100,4,2,0,35,0,0
474310,-100,4,2,0,45,0,0
475024,-100,4,2,0,50,0,0
475739,-100,4,2,0,60,0,0
476215,-90.9090909090909,4,2,0,50,0,0
479429,-90.9090909090909,4,1,0,80,0,0
480024,-80,4,1,1,50,0,1
494786,-80,4,1,0,80,0,0
495263,-80,4,1,1,50,0,1
510024,-80,4,1,0,80,0,0
510501,-100,4,1,0,70,0,1
510620,-100,4,1,0,60,0,0
510977,-100,4,1,0,50,0,0
511453,-100,4,1,0,40,0,0
511929,-100,4,1,0,30,0,0
512405,-100,4,1,0,20,0,0
512882,-100,4,1,0,25,0,0
513358,-100,4,1,0,30,0,0
513834,-100,4,1,0,35,0,0
514310,-100,4,2,0,40,0,0
525739,-133.333333333333,4,2,1,50,0,0
544786,-111.111111111111,4,2,0,50,0,0
560024,-100,4,2,0,50,0,0
590501,-90.9090909090909,4,2,0,60,0,1
605263,-90.9090909090909,4,2,0,60,0,0
605739,-90.9090909090909,4,2,0,60,0,1
620620,-90.9090909090909,4,2,0,60,0,0

[Colours]
Combo1 : 255,111,255
Combo2 : 217,217,0
Combo3 : 102,179,255
Combo4 : 217,0,217
Combo5 : 255,255,53
Combo6 : 0,105,210

[HitObjects]
256,192,5739,12,2,7644,0:0:0:0:
304,216,8358,5,0,0:0:0:0:
304,216,8596,2,0,P|352:252|416:236,2,119.999996337891,2|0|2,0:3|0:0|0:0,0:0:0:0:
96,56,10501,1,2,0:3:0:0:
48,192,10977,1,0,0:0:0:0:
96,328,11453,1,2,0:0:0:0:
241,259,12405,5,2,0:3:0:0:
380,176,12882,1,2,0:0:0:0:
316,324,13358,1,0,0:0:0:0:
280,167,13834,1,0,0:0:0:0:
402,273,14310,1,2,0:3:0:0:
240,264,14786,1,2,0:0:0:0:
240,264,15263,2,0,P|176:268|124:252,1,119.999996337891,0|0,0:0|0:0,0:0:0:0:
24,152,15977,5,0,0:0:0:0:
24,152,16215,1,2,0:3:0:0:
56,288,16691,1,2,0:0:0:0:
56,288,17167,2,0,P|72:232|120:192,1,119.999996337891
256,152,17882,5,0,0:0:0:0:
256,152,18120,1,2,0:3:0:0:
372,88,18596,1,2,0:0:0:0:
348,328,19072,2,0,P|376:276|368:212,1,119.999996337891,2|0,0:0|0:0,0:0:0:0:
192,260,20024,6,0,P|164:312|172:376,1,119.999996337891,2|0,0:0|0:0,0:0:0:0:
339,147,20977,2,0,P|291:182|232:184,2,119.999996337891,2|0|2,0:0|0:0|0:0,0:0:0:0:
60,108,22405,1,2,0:0:0:0:
60,108,22882,2,0,P|113:132|144:182,1,119.999996337891,4|0,0:0|0:0,0:0:0:0:
160,328,23596,5,0,0:0:0:0:
164,336,23834,2,0,L|284:360,1,119.999996337891,2|0,0:0|0:0,0:0:0:0:
176,196,24786,2,0,L|296:220,1,119.999996337891,2|0,0:0|0:0,0:0:0:0:
52,208,25739,5,0,0:0:0:0:
180,80,26215,1,2,0:0:0:0:
180,80,26453,1,2,0:0:0:0:
180,80,26691,2,0,B|224:140|312:68|352:128,1,179.999994506836,2|0,0:0|0:0,0:0:0:0:
416,180,27644,5,0,0:3:0:0:
332,40,28120,1,0,0:0:0:0:
318,201,28596,1,2,0:0:0:0:
424,79,29072,1,0,0:3:0:0:
267,115,29548,1,2,0:0:0:0:
416,180,30024,1,0,0:0:0:0:
296,300,30501,2,0,P|236:316|172:304,1,119.999996337891,2|0,0:0|0:0,0:0:0:0:
80,240,31215,5,2,0:0:0:0:
80,240,31453,2,0,B|56:184|56:184|68:120,1,119.999996337891,2|0,0:0|0:0,0:0:0:0:
320,196,32405,2,0,B|344:252|344:252|332:316,1,119.999996337891,2|0,0:0|0:0,0:0:0:0:
220,268,33120,5,2,2:3:0:0:
212,276,33358,2,0,P|196:216|212:156,1,119.999996337891,2|0,0:0|0:0,0:0:0:0:
284,88,34072,1,2,0:0:0:0:
316,184,34310,2,0,P|240:216|144:200,1,179.999994506836,2|0,0:0|0:0,0:0:0:0:
40,128,35263,5,2,0:0:0:0:
40,128,35739,1,2,0:3:0:0:
140,295,36215,1,2,0:0:0:0:
157,102,36691,1,0,0:0:0:0:
30,248,37167,1,2,0:0:0:0:
218,205,37644,1,2,0:0:0:0:
40,128,38120,5,4,0:1:0:0:
256,336,53358,6,0,P|312:320|364:336,1,112.500004291535,4|0,0:3|0:0,0:0:0:0:
440,364,53834,2,0,L|448:280,1,75.0000028610231,0|0,0:0|0:0,0:0:0:0:
428,96,54310,2,0,L|420:170,2,75.0000028610231,0|8|8,0:0|0:3|0:3,0:0:0:0:
320,236,55144,5,0,0:0:0:0:
320,236,55263,2,0,P|272:260|212:256,1,112.500004291535,2|0,0:0|0:0,0:0:0:0:
136,224,55739,2,0,P|116:192|84:172,1,75.0000028610231
52,256,56215,1,0,0:0:0:0:
120,312,56453,1,2,0:0:0:0:
208,324,56691,1,2,0:0:0:0:
444,72,57048,5,0,0:0:0:0:
444,72,57167,2,0,L|328:56,1,112.500004291535,2|0,0:0|0:0,0:0:0:0:
268,116,57644,2,0,L|236:40,1,75.0000028610231
296,264,58120,2,0,L|328:340,1,75.0000028610231,0|8,0:0|0:3,0:0:0:0:
268,116,58596,1,8,0:3:0:0:
44,320,58953,5,0,0:0:0:0:
44,320,59072,2,0,L|160:336,1,112.500004291535,2|0,0:0|0:0,0:0:0:0:
220,276,59548,2,0,L|252:352,1,75.0000028610231
192,128,60024,2,0,L|160:52,1,75.0000028610231,0|2,0:0|0:0,0:0:0:0:
220,276,60501,6,0,P|280:276|328:252,1,112.500004291535,2|0,0:0|0:0,0:0:0:0:
400,288,60977,2,0,L|408:172,1,112.500004291535,4|0,0:3|0:0,0:0:0:0:
488,160,61453,2,0,L|492:240,1,75.0000028610231
376,96,61929,2,0,L|372:16,1,75.0000028610231
296,212,62405,5,0,0:0:0:0:
296,212,62644,1,0,0:0:0:0:
128,168,62882,1,2,0:0:0:0:
128,168,63120,1,0,0:0:0:0:
260,40,63358,2,0,L|340:28,1,75.0000028610231
252,344,63834,2,0,L|172:356,1,75.0000028610231,2|0,0:0|0:0,0:0:0:0:
228,128,64310,2,0,L|308:116,1,75.0000028610231
392,100,64786,5,4,0:3:0:0:
104,320,65263,2,0,P|76:296|60:256,2,75.0000028610231
192,340,65977,1,0,0:0:0:0:
276,312,66215,1,0,0:0:0:0:
276,312,66334,1,0,0:0:0:0:
364,320,66572,2,0,L|400:336,3,37.5000014305115,0|0|0|0,0:0|0:0|0:0|0:0,0:0:0:0:
448,188,67167,5,0,0:0:0:0:
360,204,67405,1,0,0:0:0:0:
272,180,67644,2,0,P|232:192|196:184,1,75.0000028610231,2|0,0:0|0:0,0:0:0:0:
116,152,68120,1,0,0:0:0:0:
116,152,68239,1,0,0:0:0:0:
36,112,68477,2,0,L|-4:116,3,37.5000014305115,0|8|0|8,0:0|0:3|0:0|0:3,0:0:0:0:
136,52,69072,6,0,P|168:36|212:36,1,75.0000028610231
364,136,69548,2,0,P|396:152|440:152,1,75.0000028610231,2|0,0:0|0:0,0:0:0:0:
312,48,70024,1,0,0:0:0:0:
312,48,70144,2,0,L|280:120,1,75.0000028610231
272,136,70501,1,8,0:3:0:0:
264,152,70620,1,0,0:0:0:0:
256,168,70739,1,8,0:3:0:0:
164,344,70977,6,0,P|196:328|240:332,1,75.0000028610231
96,268,71453,2,0,L|24:244,1,75.0000028610231,2|0,0:0|0:0,0:0:0:0:
184,256,71929,1,0,0:0:0:0:
184,256,72048,1,0,0:0:0:0:
336,344,72286,2,0,L|380:340,3,37.5000014305115,0|8|0|8,0:0|0:3|0:0|0:3,0:0:0:0:
444,200,72882,5,0,0:0:0:0:
444,200,73120,1,0,0:0:0:0:
444,200,73358,2,0,L|436:124,1,75.0000028610231,2|0,0:0|0:0,0:0:0:0:
260,152,73834,5,0,0:0:0:0:
260,152,74072,1,0,0:0:0:0:
260,152,74310,2,0,L|268:228,1,75.0000028610231,2|0,0:0|0:0,0:0:0:0:
80,344,74786,5,0,0:0:0:0:
80,344,75024,1,0,0:0:0:0:
80,344,75263,2,0,L|164:348,1,80,2|0,0:0|0:0,0:0:0:0:
28,260,75739,5,0,0:0:0:0:
28,260,75977,1,0,0:0:0:0:
28,260,76215,2,0,L|120:252,1,89.9999972534181,2|0,0:0|0:0,0:0:0:0:
68,148,76691,5,0,0:0:0:0:
68,148,76929,1,0,0:0:0:0:
68,148,77167,2,0,L|168:132,2,100,2|0|0,0:0|0:0|0:0,0:0:0:0:
144,216,77763,2,0,P|200:216|236:188,1,100
252,168,78120,1,2,0:0:0:0:
256,192,78239,12,2,79905,0:0:0:0:
256,192,80024,12,2,81810,0:0:0:0:
256,192,81929,12,6,83358,0:0:0:0:
456,44,83715,5,2,0:0:0:0:
456,116,83834,1,4,0:0:0:0:
480,184,83953,1,0,0:0:0:0:
476,256,84072,2,0,P|472:312|416:320,1,119.999996337891,0|8,0:0|0:2,0:0:0:0:
256,268,84548,2,0,P|200:276|136:296,1,119.999996337891
328,196,85024,2,2,L|340:136,1,59.9999981689454,2|0,0:0|0:0,0:0:0:0:
356,64,85263,1,0,0:0:0:0:
356,64,85382,1,0,0:0:0:0:
132,64,85620,5,2,0:0:0:0:
152,132,85739,1,0,0:0:0:0:
128,200,85858,1,0,0:0:0:0:
156,268,85977,2,0,P|208:296|268:284,1,119.999996337891,0|8,0:0|0:2,0:0:0:0:
440,212,86453,2,0,P|388:184|328:196,1,119.999996337891
472,140,86929,6,2,P|428:116|356:112,1,119.999996337891,2|0,0:0|0:0,0:0:0:0:
264,48,87286,2,0,L|284:172,1,119.999996337891,0|2,0:0|0:0,0:0:0:0:
200,208,87644,2,0,L|180:84,1,119.999996337891,0|0,0:0|0:0,0:0:0:0:
368,76,88120,1,8,0:2:0:0:
424,192,88358,1,0,0:0:0:0:
376,304,88596,1,0,0:0:0:0:
508,368,88834,1,2,0:0:0:0:
424,192,89072,1,0,0:0:0:0:
424,192,89191,1,0,0:0:0:0:
256,140,89429,5,0,0:0:0:0:
256,140,89548,1,4,0:2:0:0:
40,36,89786,1,2,0:2:0:0:
56,36,89905,1,2,0:2:0:0:
72,36,90024,1,2,0:3:0:0:
232,332,90263,1,2,0:2:0:0:
216,332,90382,1,2,0:2:0:0:
200,332,90501,1,2,0:3:0:0:
412,108,90739,1,2,0:2:0:0:
428,108,90858,1,2,0:2:0:0:
444,108,90977,2,0,P|492:136|512:192,1,112.500004291535,4|0,0:0|0:0,0:0:0:0:
496,352,91453,6,0,L|376:328,1,119.999996337891,4|0,0:0|0:0,0:0:0:0:
236,296,91929,1,8,0:2:0:0:
48,368,92167,2,0,P|52:312|40:248,1,119.999996337891
0,52,92644,2,2,L|60:64,1,59.9999981689454,2|0,0:0|0:0,0:0:0:0:
132,80,92882,1,0,0:0:0:0:
204,96,93001,1,0,0:0:0:0:
476,116,93239,5,2,0:0:0:0:
408,136,93358,1,0,0:0:0:0:
340,112,93477,1,0,0:0:0:0:
272,140,93596,2,0,P|244:192|256:252,1,119.999996337891,0|8,0:0|0:2,0:0:0:0:
436,224,94072,2,0,P|384:196|324:208,1,119.999996337891
72,284,94548,6,2,P|124:312|184:300,1,119.999996337891,2|0,0:0|0:0,0:0:0:0:
256,212,94905,2,0,L|132:232,1,119.999996337891,0|2,0:0|0:0,0:0:0:0:
236,188,95263,2,0,L|360:168,1,119.999996337891,0|0,0:0|0:0,0:0:0:0:
264,96,95739,1,8,0:2:0:0:
116,124,95977,1,0,0:0:0:0:
216,36,96215,1,0,0:0:0:0:
408,88,96453,1,2,0:0:0:0:
192,112,96691,1,0,0:0:0:0:
192,112,96810,2,0,L|212:236,1,119.999996337891,0|2,0:0|0:0,0:0:0:0:
232,320,97167,6,0,P|288:344|348:332,2,119.999996337891,0|0|8,0:0|0:0|0:2,0:0:0:0:
300,236,97882,2,0,P|356:212|416:224,1,119.999996337891
512,328,98358,2,2,L|504:204,1,119.999996337891,2|4,0:0|0:0,0:0:0:0:
500,180,98715,1,8,0:3:0:0:
504,152,98834,1,8,0:3:0:0:
500,124,98953,1,8,0:3:0:0:
504,96,99072,5,4,0:0:0:0:
124,40,110501,5,2,0:2:0:0:
128,76,110977,1,2,0:2:0:0:
132,112,111453,1,2,0:2:0:0:
136,148,111929,1,2,0:2:0:0:
140,184,112405,6,2,P|224:220|308:192,1,179.999994506836,2|0,0:0|0:0,0:0:0:0:
344,112,113120,2,2,P|304:200|336:280,1,179.999994506836,2|0,0:0|0:0,0:0:0:0:
424,328,113834,1,2,0:2:0:0:
424,220,114072,1,0,0:0:0:0:
332,276,114310,5,4,0:0:0:0:
300,272,114786,1,2,0:2:0:0:
264,268,115263,1,4,0:2:0:0:
228,264,115739,1,2,0:2:0:0:
196,260,116215,5,4,0:2:0:0:
196,260,116453,2,2,B|144:256|112:284|112:284|60:280|24:308,2,179.999994506836,0|2|2,0:0|0:0|0:0,0:0:0:0:
300,224,117644,1,2,0:0:0:0:
336,124,117882,1,2,0:0:0:0:
288,28,118120,5,2,0:2:0:0:
252,32,118596,1,2,0:2:0:0:
216,36,119072,1,2,0:2:0:0:
180,40,119548,1,2,0:2:0:0:
144,44,120024,6,2,P|168:140|128:212,1,179.999994506836,2|0,0:0|0:0,0:0:0:0:
44,272,120739,2,2,L|228:248,1,179.999994506836,2|0,0:0|0:0,0:0:0:0:
340,236,121453,1,2,0:2:0:0:
144,312,121691,1,2,0:2:0:0:
464,288,121929,5,4,0:1:0:0:
464,288,122405,1,2,0:2:0:0:
464,288,122882,1,2,0:2:0:0:
464,288,123358,1,2,0:2:0:0:
464,288,123834,6,2,P|488:248|484:192,1,89.9999972534181,6|0,0:0|0:0,0:0:0:0:
372,220,124310,1,0,0:0:0:0:
268,276,124548,2,2,P|184:304|104:264,1,179.999994506836,2|0,0:0|0:0,0:0:0:0:
136,160,125263,1,2,0:2:0:0:
80,340,125501,1,2,0:2:0:0:
160,84,125739,6,0,P|244:56|324:96,1,179.999994506836,2|0,0:0|0:0,0:0:0:0:
388,192,126453,1,0,0:0:0:0:
388,192,126572,1,2,0:2:0:0:
384,308,126810,1,0,0:0:0:0:
384,308,126929,1,2,0:2:0:0:
148,232,127167,6,0,L|132:132,1,89.9999972534181
160,260,127644,2,2,P|232:320|316:312,1,179.999994506836,2|0,0:0|0:0,0:0:0:0:
416,236,128358,1,0,0:0:0:0:
432,108,128596,1,4,0:2:0:0:
132,56,129072,1,2,0:2:0:0:
268,144,129548,6,2,P|252:196|256:244,1,89.9999972534181,2|0,0:0|0:0,0:0:0:0:
264,264,129905,1,0,0:0:0:0:
148,328,130144,2,0,P|164:276|160:228,1,89.9999972534181,0|2,0:0|0:0,0:0:0:0:
152,208,130501,1,4,0:2:0:0:
172,92,130739,1,2,0:0:0:0:
284,60,130977,1,0,0:0:0:0:
368,140,131215,1,2,0:0:0:0:
468,76,131453,6,0,P|484:128|480:176,1,89.9999972534181,0|2,0:0|0:0,0:0:0:0:
472,196,131810,1,0,0:0:0:0:
376,380,132048,2,0,P|360:328|364:280,1,89.9999972534181,0|0,0:0|0:0,0:0:0:0:
372,260,132405,1,2,0:0:0:0:
256,176,132644,1,0,0:0:0:0:
112,264,132882,1,2,0:0:0:0:
256,176,133120,1,0,0:0:0:0:
24,324,133358,6,0,P|8:272|12:224,1,89.9999972534181,2|0,0:2|0:0,0:0:0:0:
20,204,133715,1,2,0:2:0:0:
160,96,133953,1,2,0:2:0:0:
352,96,134191,1,2,0:0:0:0:
492,204,134429,1,0,0:0:0:0:
502,236,134548,2,0,P|504:272|488:324,2,89.9999972534181,2|2|2,0:0|0:2|0:0,0:0:0:0:
320,320,135263,6,0,P|276:308|224:316,1,89.9999972534181,2|0,0:2|0:0,0:0:0:0:
192,328,135620,2,0,L|104:300,2,89.9999972534181,2|2|2,0:2|0:2|0:0,0:0:0:0:
208,184,136334,1,0,0:0:0:0:
184,148,136453,2,0,L|176:52,2,89.9999972534181,2|2|2,0:0|0:2|0:0,0:0:0:0:
304,232,137167,6,2,P|320:180|316:132,1,89.9999972534181,2|0,0:0|0:0,0:0:0:0:
308,112,137525,1,0,0:0:0:0:
476,300,137763,2,0,P|424:284|376:288,1,89.9999972534181,2|0,0:0|0:0,0:0:0:0:
356,296,138120,1,0,0:0:0:0:
184,176,138358,1,2,0:0:0:0:
280,332,138596,1,0,0:0:0:0:
160,304,138834,1,2,0:0:0:0:
36,240,139072,6,0,P|20:188|24:140,1,89.9999972534181,0|2,0:0|0:0,0:0:0:0:
32,120,139429,1,0,0:0:0:0:
256,120,139667,2,2,P|272:172|268:220,1,89.9999972534181,0|0,0:0|0:0,0:0:0:0:
260,240,140025,1,2,0:0:0:0:
200,372,140263,1,0,0:0:0:0:
184,176,140501,1,2,0:0:0:0:
384,236,140739,1,0,0:0:0:0:
480,64,140977,6,0,P|496:116|492:164,1,89.9999972534181,2|0,0:2|0:0,0:0:0:0:
492,180,141334,1,2,0:2:0:0:
384,312,141572,1,2,0:2:0:0:
384,312,141810,1,2,0:0:0:0:
220,296,142048,1,0,0:0:0:0:
187,285,142167,2,0,B|148:300|148:300|99:299,2,89.9999972534181,2|2|2,0:0|0:2|0:0,0:0:0:0:
172,64,142882,6,0,B|212:72|212:72|224:80|224:80|260:72,1,89.9999972534181,2|2,0:2|0:0,0:0:0:0:
336,80,143239,2,0,L|424:108,2,89.9999972534181,2|2|2,0:2|0:2|0:0,0:0:0:0:
284,236,143953,1,0,0:0:0:0:
284,236,144072,2,0,B|288:188|288:188|284:176|284:176|288:140,2,89.9999972534181,2|2|2,0:0|0:2|0:0,0:0:0:0:
160,312,144786,6,2,P|108:296|60:300,1,89.9999972534181,2|0,0:0|0:0,0:0:0:0:
40,308,145144,1,0,0:0:0:0:
252,352,145382,2,0,P|268:300|264:252,1,89.9999972534181,2|2,0:0|0:0,0:0:0:0:
256,232,145739,1,0,0:0:0:0:
236,204,145858,1,2,0:0:0:0:
224,172,145977,1,2,0:0:0:0:
292,36,146215,1,0,0:0:0:0:
412,224,146453,1,2,0:0:0:0:
488,48,146691,6,0,P|504:100|500:148,1,89.9999972534181,0|0,0:0|0:0,0:0:0:0:
492,168,147048,1,0,0:0:0:0:
248,116,147286,2,0,P|300:100|348:104,1,89.9999972534181,0|0,0:0|0:0,0:0:0:0:
368,112,147644,1,2,0:0:0:0:
460,300,147882,1,0,0:0:0:0:
196,244,148120,1,2,0:0:0:0:
324,336,148358,1,0,0:0:0:0:
24,324,148596,6,0,P|8:272|12:224,1,89.9999972534181,2|0,0:2|0:0,0:0:0:0:
20,204,148953,1,2,0:2:0:0:
152,64,149191,1,2,0:2:0:0:
196,244,149429,1,2,0:0:0:0:
372,56,149667,1,0,0:0:0:0:
382,88,149786,2,0,P|383:123|367:175,2,89.9999972534181,2|2|2,0:0|0:2|0:0,0:0:0:0:
296,240,150501,6,0,P|284:284|292:336,1,89.9999972534181,2|0,0:2|0:0,0:0:0:0:
221,363,150858,2,0,L|136:336,2,89.9999972534181,2|2|2,0:2|0:2|0:0,0:0:0:0:
388,288,151572,1,0,0:0:0:0:
388,288,151691,2,0,L|416:200,2,89.9999972534181,2|2|2,0:0|0:2|0:0,0:0:0:0:
72,272,152405,6,0,P|56:220|60:172,1,89.9999972534181,2|0,0:2|0:0,0:0:0:0:
68,152,152762,1,2,0:2:0:0:
224,320,153000,1,2,0:2:0:0:
288,64,153238,1,2,0:0:0:0:
388,288,153476,1,0,0:0:0:0:
398,256,153595,2,0,P|399:221|383:169,2,89.9999972534181,2|2|2,0:0|0:2|0:0,0:0:0:0:
276,232,154310,6,0,P|264:188|272:136,1,89.9999972534181,2|0,0:2|0:0,0:0:0:0:
144,192,154667,2,0,L|116:280,2,89.9999972534181,2|2|2,0:2|0:2|0:0,0:0:0:0:
460,136,155381,1,0,0:0:0:0:
460,136,155500,2,0,L|488:48,2,89.9999972534181,2|2|2,0:0|0:2|0:0,0:0:0:0:
256,192,156215,12,10,157644,0:0:0:0:
284,252,157882,5,2,0:0:0:0:
169,261,158120,1,8,0:2:0:0:
169,261,158239,1,2,0:3:0:0:
364,170,158477,1,8,0:2:0:0:
364,170,158596,1,2,0:3:0:0:
70,210,158834,1,8,0:2:0:0:
70,210,158953,1,2,0:3:0:0:
389,61,159191,1,8,0:2:0:0:
389,61,159310,1,2,0:3:0:0:
284,252,160024,6,0,B|282:246|282:246|275:251|275:251|277:239|277:239|266:250|266:250|274:228|274:228|257:250|257:250|267:224|267:224|250:246|250:246|260:220|260:220|245:238|245:238|251:219|251:219|240:231|240:231|242:219|242:219|235:223|235:223|200:203,1,300.000011444092,0|4,0:0|0:3,0:0:0:0:
392,60,160739,5,2,0:0:0:0:
392,60,160858,2,2,P|334:91|338:167,1,150.000005722046,0|2,0:0|0:0,0:0:0:0:
324,364,161334,1,0,0:0:0:0:
324,364,161453,2,2,P|381:332|377:256,1,150.000005722046,2|0,0:0|0:0,0:0:0:0:
228,132,161929,6,0,B|229:137|229:137|236:132|236:132|234:144|234:144|245:133|245:133|237:155|237:155|254:133|254:133|244:159|244:159|261:137|261:137|251:163|251:163|266:145|266:145|260:164|260:164|271:152|271:152|269:164|269:164|276:160|276:160|311:180,1,300.000011444092,4|4,0:0|0:3,0:0:0:0:
120,324,162644,5,2,0:0:0:0:
120,324,162763,2,0,P|177:292|173:216,1,150.000005722046,2|2,0:0|0:0,0:0:0:0:
188,20,163239,1,0,0:0:0:0:
188,20,163358,2,2,P|130:51|134:127,1,150.000005722046,2|0,0:0|0:0,0:0:0:0:
336,288,163834,6,0,B|328:320|328:320|312:304|312:304|300:336|300:336|276:328|276:328|272:344|272:344|257:335|257:335|240:344|240:344|236:328|236:328|212:336|212:336|200:304|200:304|184:320|184:320|176:288,1,300.000011444092,4|4,0:0|0:3,0:0:0:0:
84,148,164548,6,2,P|116:168|156:168,1,75.0000028610231,2|0,0:0|0:0,0:0:0:0:
372,88,164905,1,2,0:0:0:0:
428,148,165144,2,0,P|396:168|356:168,1,75.0000028610231,0|2,0:0|0:0,0:0:0:0:
140,88,165501,1,2,0:0:0:0:
56,324,165739,6,0,L|36:252,1,75.0000028610231,4|0,0:0|0:0,0:0:0:0:
152,240,165977,2,0,L|160:164,1,75.0000028610231,0|0,0:0|0:0,0:0:0:0:
292,80,166215,2,0,B|256:104|218:79,1,75.0000028610231,0|0,0:0|0:0,0:0:0:0:
352,165,166453,2,0,L|360:240,1,75.0000028610231,0|0,0:0|0:0,0:0:0:0:
188,328,166691,2,2,P|256:356|324:328,1,150.000005722046,2|2,0:0|0:0,0:0:0:0:
476,252,167048,2,2,L|456:324,1,75.0000028610231,0|2,0:0|0:0,0:0:0:0:
152,240,167405,1,4,0:3:0:0:
360,240,167644,1,4,0:0:0:0:
256,260,168120,5,4,0:3:0:0:
104,128,168358,2,2,P|68:124|32:108,1,75.0000028610231,2|0,0:0|0:0,0:0:0:0:
208,104,168715,1,2,0:0:0:0:
408,128,168953,2,0,P|444:124|480:108,1,75.0000028610231,0|2,0:0|0:0,0:0:0:0:
304,104,169311,1,2,0:0:0:0:
220,308,169548,6,0,P|256:200|292:308,1,300.000011444092,4|4,0:0|0:3,0:0:0:0:
124,244,170263,5,2,0:0:0:0:
124,244,170382,2,0,P|160:168|224:132,1,150.000005722046,2|2,0:0|0:0,0:0:0:0:
388,244,170858,1,2,0:0:0:0:
388,244,170977,2,0,P|352:168|288:132,1,150.000005722046,2|2,0:0|0:0,0:0:0:0:
44,44,171453,6,0,B|96:68|108:148|44:180|44:180|16:248|48:308,1,300.000011444092,4|0,0:0|0:0,0:0:0:0:
220,344,172167,6,2,L|208:268,1,75.0000028610231,2|0,0:0|0:0,0:0:0:0:
184,92,172524,1,2,0:0:0:0:
204,356,172762,2,0,P|168:356|136:336,1,75.0000028610231,0|2,0:0|0:0,0:0:0:0:
12,112,173120,1,2,0:0:0:0:
468,44,173358,6,0,B|416:68|404:148|468:180|468:180|496:248|464:308,1,300.000011444092,4|0,0:0|0:0,0:0:0:0:
292,344,174072,6,2,L|304:268,1,75.0000028610231,2|0,0:0|0:0,0:0:0:0:
328,92,174429,1,2,0:0:0:0:
308,356,174667,2,0,P|344:356|376:336,1,75.0000028610231,0|2,0:0|0:0,0:0:0:0:
500,112,175024,1,2,0:0:0:0:
131,174,175263,5,4,0:0:0:0:
175,133,175382,1,0,0:0:0:0:
235,130,175501,1,0,0:0:0:0:
283,166,175620,1,0,0:0:0:0:
296,224,175739,1,2,0:0:0:0:
269,278,175858,1,0,0:0:0:0:
214,301,175977,1,2,0:0:0:0:
156,284,176096,1,2,0:0:0:0:
124,234,176215,1,0,0:0:0:0:
68,224,176334,5,2,0:0:0:0:
76,164,176453,1,0,0:0:0:0:
108,113,176572,1,2,0:0:0:0:
157,80,176691,1,2,0:0:0:0:
216,69,176810,1,0,0:0:0:0:
275,84,176929,1,2,0:0:0:0:
322,121,177048,1,0,0:0:0:0:
350,174,177167,1,4,0:0:0:0:
354,234,177286,1,0,0:0:0:0:
334,290,177405,1,0,0:0:0:0:
292,333,177524,1,0,0:0:0:0:
236,356,177644,1,2,0:0:0:0:
177,353,177763,1,0,0:0:0:0:
123,327,177882,1,2,0:0:0:0:
84,281,178001,1,2,0:0:0:0:
124,234,178120,5,0,0:0:0:0:
156,284,178239,1,2,0:0:0:0:
214,301,178358,1,0,0:0:0:0:
269,278,178477,1,2,0:0:0:0:
296,224,178596,1,2,0:0:0:0:
283,166,178715,1,0,0:0:0:0:
235,130,178834,1,2,0:0:0:0:
175,133,178953,1,0,0:0:0:0:
131,174,179072,1,4,0:0:0:0:
84,281,179191,5,0,0:0:0:0:
123,327,179310,1,0,0:0:0:0:
177,353,179429,1,0,0:0:0:0:
236,356,179548,1,2,0:0:0:0:
292,333,179668,1,0,0:0:0:0:
334,290,179787,1,2,0:0:0:0:
354,234,179906,1,2,0:0:0:0:
350,174,180025,1,0,0:0:0:0:
322,121,180144,1,2,0:0:0:0:
275,84,180263,1,0,0:0:0:0:
216,69,180382,1,2,0:0:0:0:
157,80,180501,1,2,0:0:0:0:
108,113,180620,1,0,0:0:0:0:
76,164,180739,1,2,0:0:0:0:
68,224,180858,1,0,0:0:0:0:
192,156,180977,5,8,0:1:0:0:
192,156,181096,1,2,0:3:0:0:
380,304,181334,1,8,0:1:0:0:
380,304,181453,1,2,0:3:0:0:
212,324,181691,1,8,0:1:0:0:
212,324,181810,1,2,0:3:0:0:
360,136,182048,1,8,0:1:0:0:
360,136,182167,1,2,0:3:0:0:
212,324,182405,1,8,0:0:0:0:
436,60,182882,5,4,0:3:0:0:
256,192,184786,12,4,190501,0:0:0:0:
148,192,190977,6,0,L|144:112,1,75.0000028610231,2|0,0:0|0:0,0:0:0:0:
136,28,191453,1,2,0:0:0:0:
152,224,191929,2,0,P|216:264|296:256,1,150.000005722046,0|2,0:0|0:0,0:0:0:0:
488,112,192882,5,0,0:0:0:0:
512,24,193120,1,0,0:0:0:0:
424,48,193358,2,0,P|352:72|268:64,1,150.000005722046,2|0,0:0|0:0,0:0:0:0:
236,56,194310,1,4,0:0:0:0:
60,116,194786,5,0,0:0:0:0:
16,196,195024,1,0,0:0:0:0:
28,288,195263,1,2,0:0:0:0:
128,48,195739,1,0,0:0:0:0:
168,156,195977,1,0,0:0:0:0:
136,268,196215,1,2,0:0:0:0:
136,268,196691,5,0,0:0:0:0:
292,224,196929,1,0,0:0:0:0:
436,300,197167,1,2,0:0:0:0:
436,300,197644,1,0,0:0:0:0:
248,332,197882,1,0,0:0:0:0:
148,168,198120,1,4,0:0:0:0:
148,168,198596,6,0,L|128:88,1,75.0000028610231
156,192,199072,2,0,P|224:224|304:200,1,150.000005722046,2|0,0:0|0:0,0:0:0:0:
464,108,199786,1,0,0:0:0:0:
464,108,200024,2,0,L|476:260,1,150.000005722046,2|0,0:0|0:0,0:0:0:0:
376,288,200739,1,0,0:0:0:0:
376,288,200977,2,0,L|364:136,1,150.000005722046,2|0,0:0|0:0,0:0:0:0:
276,316,201691,1,0,0:0:0:0:
276,316,201929,1,2,0:0:0:0:
256,192,202167,12,2,204310,2:0:0:0:
116,224,204786,6,0,L|68:144,1,75.0000028610231,2|0,0:0|0:0,0:0:0:0:
172,228,205263,2,0,L|188:144,1,75.0000028610231,2|0,0:0|0:0,0:0:0:0:
220,256,205739,2,2,P|272:280|328:272,2,112.500004291535,4|2|2,0:0|0:0|0:0,0:0:0:0:
184,56,206810,2,0,P|132:40|76:60,1,112.500004291535,0|2,0:0|0:0,0:0:0:0:
20,228,207644,1,2,0:0:0:0:
20,228,208120,1,0,0:0:0:0:
104,264,208358,1,0,0:0:0:0:
196,264,208596,6,0,L|276:248,1,75.0000028610231,2|0,0:0|0:0,0:0:0:0:
336,116,209073,2,0,L|320:200,1,75.0000028610231,2|0,0:0|0:0,0:0:0:0:
449,285,209549,2,0,P|392:292|348:264,2,112.500004291535,2|2|2,0:0|0:0|0:0,0:0:0:0:
144,196,210620,2,0,P|200:212|248:184,1,112.500004291535,0|2,0:0|0:0,0:0:0:0:
360,32,211453,1,2,0:0:0:0:
360,32,211929,1,0,0:0:0:0:
372,124,212167,1,0,0:0:0:0:
384,216,212405,6,0,P|352:240|316:256,1,75.0000028610231,2|0,0:0|0:0,0:0:0:0:
96,268,212882,2,0,L|112:184,1,75.0000028610231,2|0,0:0|0:0,0:0:0:0:
132,92,213358,1,2,0:0:0:0:
372,124,213715,1,2,0:0:0:0:
144,64,214072,1,2,0:0:0:0:
384,96,214429,1,0,0:0:0:0:
156,32,214786,1,2,0:0:0:0:
472,200,215263,1,2,0:0:0:0:
120,136,215739,6,0,P|112:208|136:280,2,150.000005722046,2|2|0,0:0|0:0|0:0,0:0:0:0:
368,168,216929,2,0,L|220:148,1,150.000005722046,2|2,0:0|0:0,0:0:0:0:
88,240,217644,1,0,0:0:0:0:
200,356,217882,2,0,L|348:376,2,150.000005722046,2|2|0,0:0|0:0|0:0,0:0:0:0:
96,340,219072,5,2,0:0:0:0:
322,258,219548,1,0,0:0:0:0:
14,115,220024,1,2,0:0:0:0:
240,33,220501,1,2,0:0:0:0:
96,340,220977,6,2,P|136:240|32:192,1,239.999992675781,4|0,0:0|0:0,0:0:0:0:
64,268,222167,1,2,0:0:0:0:
152,280,222405,1,0,0:0:0:0:
240,296,222644,1,2,0:0:0:0:
240,296,223120,2,0,P|344:312|284:180,1,299.999990844727,2|0,0:0|0:0,0:0:0:0:
300,252,224786,6,0,B|256:204|200:220|172:264|172:264|132:288|60:280|52:204,1,299.999990844727,2|0,0:0|0:0,0:0:0:0:
104,148,226215,1,0,0:0:0:0:
188,136,226453,1,2,0:0:0:0:
188,136,226929,2,0,B|238:137|279:165|279:165|324:194|377:200|377:200|422:204|466:237,1,299.999990844727,2|0,0:0|0:0,0:0:0:0:
428,316,228596,6,0,B|377:314|336:286|336:286|291:257|238:251|238:251|193:247|149:214,1,299.999990844727,2|0,0:0|0:0,0:0:0:0:
104,148,230024,1,0,0:0:0:0:
188,136,230263,1,2,0:0:0:0:
188,136,230739,2,0,P|200:272|112:288,1,239.999992675781,2|0,0:0|0:0,0:0:0:0:
144,208,231929,1,0,0:0:0:0:
140,56,232167,6,0,B|176:44|216:52|216:52|244:80|284:88|312:84,1,179.999994506836,2|2,0:0|0:0,0:0:0:0:
464,52,233120,1,2,0:0:0:0:
436,328,233596,2,0,P|408:280|416:212,1,119.999996337891,0|2,0:0|0:0,0:0:0:0:
192,216,234786,5,2,0:0:0:0:
192,216,235024,2,0,B|240:256|256:280|256:280|272:256|320:216,2,179.999994506836,2|0|2,0:0|0:0|0:0,0:0:0:0:
256,192,236215,12,2,238120,0:0:0:0:
332,176,238834,6,0,B|308:132|256:168|256:168|204:132|180:176,2,179.999994506836,2|0|2,0:0|0:0|0:0,0:0:0:0:
256,192,240024,12,2,241929,0:0:0:0:
316,101,242644,5,2,0:0:0:0:
147,184,243120,1,0,0:0:0:0:
303,289,243596,1,2,0:0:0:0:
256,192,243834,12,2,245739,0:0:0:0:
168,62,246453,5,2,0:0:0:0:
411,181,246929,1,0,0:0:0:0:
187,332,247405,1,2,0:0:0:0:
256,192,247644,12,2,250501,0:0:0:0:
132,84,250977,5,8,0:0:0:0:
396,314,251453,5,4,0:0:0:0:
325,169,251810,1,2,0:0:0:0:
468,245,252167,1,2,0:0:0:0:
308,268,252524,1,2,0:0:0:0:
424,155,252882,1,2,0:0:0:0:
384,228,253358,5,2,0:1:0:0:
226,195,253716,1,2,0:1:0:0:
374,129,254073,1,2,0:1:0:0:
293,268,254430,1,2,0:1:0:0:
276,108,254787,1,2,0:1:0:0:
308,184,255263,5,2,0:1:0:0:
133,270,255620,1,2,0:1:0:0:
225,98,255977,1,2,0:1:0:0:
252,290,256334,1,2,0:1:0:0:
117,151,256692,1,2,0:1:0:0:
204,196,257167,5,2,0:1:0:0:
14,156,257525,1,2,0:1:0:0:
192,77,257882,1,2,0:1:0:0:
94,244,258239,1,2,0:1:0:0:
74,52,258596,1,2,0:1:0:0:
80,60,258834,1,2,0:2:0:0:
84,68,259072,5,2,0:1:0:0:
104,260,259429,1,2,0:1:0:0:
202,93,259786,1,2,0:1:0:0:
24,172,260143,1,2,0:1:0:0:
214,212,260501,1,2,0:1:0:0:
128,160,260977,5,2,0:1:0:0:
263,299,261335,1,2,0:1:0:0:
236,107,261692,1,2,0:1:0:0:
144,279,262049,1,2,0:1:0:0:
319,193,262406,1,2,0:1:0:0:
220,208,262882,5,2,0:1:0:0:
441,254,263240,1,2,0:1:0:0:
289,86,263597,1,2,0:1:0:0:
313,310,263954,1,2,0:1:0:0:
427,115,264311,1,2,0:1:0:0:
344,192,264786,5,2,0:0:0:0:
414,9,265143,1,2,0:0:0:0:
464,198,265500,1,2,0:0:0:0:
312,76,265857,1,2,0:0:0:0:
507,85,266215,1,2,0:0:0:0:
488,92,266453,1,2,0:0:0:0:
468,100,266691,6,0,P|421:146|452:220,2,150,4|2|2,0:0|0:0|0:0,0:0:0:0:
464,316,267763,2,2,P|400:352|324:332,1,150,0|2,0:0|0:0,0:0:0:0:
64,156,268596,6,2,L|40:304,1,150,0|2,0:0|0:0,0:0:0:0:
204,72,269310,1,2,0:0:0:0:
24,112,269667,2,2,L|0:260,1,150,0|2,0:0|0:0,0:0:0:0:
152,232,270501,6,2,P|156:312|128:380,1,150,0|2,0:0|0:0,0:0:0:0:
292,148,271215,1,2,0:0:0:0:
112,188,271572,2,2,P|84:252|88:336,1,150,0|2,0:0|0:0,0:0:0:0:
304,236,272405,6,2,P|340:288|296:356,1,150,0|2,0:0|0:0,0:0:0:0:
232,100,273119,1,2,0:0:0:0:
380,208,273477,2,2,P|412:284|400:352,1,150,0|2,0:0|0:0,0:0:0:0:
140,196,274310,5,2,0:0:0:0:
64,104,274548,2,0,L|12:84,2,50,0|0|8,0:0|0:0|0:0,0:0:0:0:
252,168,275024,1,2,0:0:0:0:
368,136,275263,2,0,L|392:80,2,50
292,320,275739,1,10,0:0:0:0:
152,356,275977,6,0,L|104:368,2,50,0|0|2,0:0|0:0|0:0,0:0:0:0:
328,224,276453,1,0,0:0:0:0:
348,220,276572,1,0,0:0:0:0:
368,216,276691,2,2,P|408:188|432:136,1,100,8|2,0:0|0:0,0:0:0:0:
176,88,277167,1,2,0:0:0:0:
192,76,277286,2,2,L|288:104,1,100,10|0,0:0|0:0,0:0:0:0:
424,88,277644,2,2,L|328:116,1,100,10|0,0:0|0:0,0:0:0:0:
256,192,278120,12,4,280024,0:3:0:0:
196,208,280977,6,0,P|292:144|260:256,1,300,2|2,1:2|0:0,0:0:0:0:
108,228,281929,5,4,1:3:0:0:
104,212,282048,1,0,1:0:0:0:
100,196,282167,1,0,1:0:0:0:
248,80,282405,1,4,1:3:0:0:
248,96,282524,1,0,1:0:0:0:
248,112,282644,1,0,1:0:0:0:
420,184,282882,1,4,1:3:0:0:
424,168,283001,1,0,1:0:0:0:
376,328,283239,2,0,P|336:356|284:348,1,100,8|0,0:0|1:0,0:0:0:0:
268,340,283596,5,0,1:0:0:0:
248,332,283715,1,0,1:0:0:0:
228,324,283834,1,4,1:3:0:0:
208,316,283953,1,0,1:0:0:0:
188,308,284072,1,0,1:0:0:0:
216,88,284310,1,4,1:3:0:0:
236,96,284429,1,0,1:0:0:0:
256,104,284548,1,0,1:0:0:0:
88,196,284786,1,4,1:3:0:0:
68,188,284905,1,0,1:0:0:0:
360,144,285144,1,8,1:0:0:0:
360,144,285382,5,0,1:0:0:0:
364,168,285501,1,0,0:3:0:0:
368,192,285620,1,0,0:3:0:0:
372,216,285739,1,4,0:3:0:0:
376,240,285858,1,0,0:3:0:0:
380,264,285977,2,0,B|384:292|384:292|372:312|376:336|376:336|352:352,1,100,0|4,1:0|0:3,0:0:0:0:
332,360,286334,1,0,0:0:0:0:
308,368,286453,1,0,0:0:0:0:
120,344,286691,1,4,0:3:0:0:
120,344,286810,1,0,0:0:0:0:
448,328,287048,1,8,0:0:0:0:
256,80,287286,5,0,0:0:0:0:
240,112,287405,1,0,0:0:0:0:
212,132,287524,1,0,0:0:0:0:
176,140,287644,1,4,0:3:0:0:
140,132,287763,1,0,0:0:0:0:
112,112,287882,1,0,0:0:0:0:
360,104,288120,1,4,0:3:0:0:
368,136,288239,1,0,0:3:0:0:
368,172,288358,1,0,0:3:0:0:
220,372,288596,1,4,0:3:0:0:
216,336,288715,1,0,0:3:0:0:
176,48,288953,1,0,0:0:0:0:
176,48,289072,6,2,B|185:42|185:42|193:60|193:60|211:40|211:40|215:70|215:70|235:57|235:57|245:74|245:74|262:71,1,150,6|0,1:1|0:0,0:0:0:0:
360,104,289548,5,4,0:3:0:0:
380,144,289667,1,0,0:0:0:0:
392,188,289786,1,0,0:0:0:0:
280,336,290024,1,4,0:3:0:0:
260,296,290143,1,0,0:0:0:0:
248,252,290262,1,0,0:0:0:0:
80,296,290501,1,4,0:3:0:0:
72,252,290620,1,0,0:0:0:0:
60,40,290858,1,8,0:0:0:0:
60,40,291096,5,0,0:0:0:0:
108,32,291215,1,0,0:0:0:0:
140,72,291334,1,0,0:0:0:0:
188,64,291453,1,4,0:3:0:0:
224,100,291572,1,0,0:0:0:0:
272,92,291691,1,0,0:0:0:0:
380,336,291929,1,4,0:3:0:0:
340,304,292048,1,0,0:0:0:0:
320,256,292167,1,0,0:0:0:0:
456,96,292405,1,4,0:3:0:0:
468,144,292524,1,0,0:0:0:0:
256,364,292763,1,8,0:0:0:0:
256,364,293001,5,0,0:0:0:0:
316,360,293120,1,0,0:0:0:0:
356,316,293239,1,0,0:0:0:0:
364,256,293358,1,4,0:3:0:0:
332,204,293477,1,0,0:0:0:0:
276,180,293596,1,0,0:0:0:0:
32,184,293834,1,4,0:3:0:0:
72,228,293953,1,0,0:0:0:0:
128,248,294072,1,0,0:0:0:0:
384,288,294310,1,4,0:3:0:0:
384,288,294429,2,0,P|440:288|476:260,1,100,0|8,0:0|0:0,0:0:0:0:
472,88,294905,5,0,0:0:0:0:
404,56,295024,1,0,0:0:0:0:
336,84,295143,1,0,0:0:0:0:
260,80,295263,1,4,0:3:0:0:
192,52,295382,1,0,0:0:0:0:
120,68,295501,1,0,0:0:0:0:
280,304,295739,1,4,0:3:0:0:
352,288,295858,1,0,0:0:0:0:
424,300,295977,1,0,0:0:0:0:
184,212,296215,1,4,0:3:0:0:
112,228,296334,1,0,0:0:0:0:
360,168,296572,1,0,0:0:0:0:
360,168,296691,6,2,B|344:160|344:160|376:160|376:160|352:148|352:148|384:148|384:148|360:136|360:136|392:136|392:136|368:124,1,150,2|0,0:0|0:0,0:0:0:0:
392,36,297167,1,4,0:0:0:0:
184,64,297405,6,0,P|148:108|84:120,1,119.999996337891,8|0,0:0|0:0,0:0:0:0:
112,196,297763,2,0,L|48:204,1,59.9999981689454,8|0,0:0|0:0,0:0:0:0:
272,140,298120,2,0,P|356:112|420:172,1,179.999994506836,8|8,0:0|0:0,0:0:0:0:
453,254,298596,2,0,L|472:136,2,119.999996337891,0|8|4,0:0|0:0|0:0,0:0:0:0:
256,308,299310,6,0,L|264:368,2,59.9999981689454,8|0|0,0:0|0:0|0:0,0:0:0:0:
188,280,299667,1,8,0:0:0:0:
136,228,299786,1,0,0:0:0:0:
120,48,300024,2,0,B|184:8|232:84|296:40,1,179.999994506836,8|8,0:0|0:0,0:0:0:0:
472,44,300501,2,0,P|412:48|368:92,2,119.999996337891,0|8|4,0:0|0:0|0:0,0:0:0:0:
472,272,301215,5,8,0:0:0:0:
416,324,301334,1,0,0:0:0:0:
340,336,301453,1,0,0:0:0:0:
264,312,301572,1,8,0:0:0:0:
188,320,301691,1,0,0:0:0:0:
188,320,301929,2,0,P|228:240|200:152,1,179.999994506836,8|8,0:0|0:0,0:0:0:0:
148,100,302405,1,0,0:0:0:0:
392,140,302644,1,8,0:0:0:0:
56,80,302882,1,4,0:0:0:0:
0,348,303120,5,8,0:0:0:0:
76,316,303239,1,0,0:0:0:0:
160,324,303358,1,0,0:0:0:0:
240,348,303477,1,8,0:0:0:0:
324,332,303596,1,0,0:0:0:0:
468,120,303834,2,0,P|400:64|324:104,1,179.999994506836,8|8,0:0|0:0,0:0:0:0:
252,260,304310,6,2,L|224:192,1,69.9999978637696,0|2,0:0|0:0,0:0:0:0:
8,252,304548,2,2,L|152:260,1,139.999995727539,0|6,0:0|0:0,0:0:0:0:
420,248,305024,6,0,L|360:268,1,62.5,2|2,0:2|0:2,0:0:0:0:
440,240,305263,2,0,P|460:180|436:120,2,125,8|2|8,0:0|0:2|0:0,0:0:0:0:
424,288,305858,1,2,0:2:0:0:
392,324,305977,1,2,0:2:0:0:
344,336,306096,1,2,0:2:0:0:
296,340,306215,1,8,0:0:0:0:
92,304,306453,1,2,0:2:0:0:
296,340,306691,1,8,0:0:0:0:
196,112,306929,6,0,L|184:48,2,62.5,2|2|8,0:2|0:2|0:0,0:0:0:0:
92,304,307405,1,2,0:2:0:0:
320,264,307644,1,8,0:0:0:0:
320,264,307763,1,2,0:2:0:0:
4,320,308001,1,2,0:2:0:0:
4,320,308120,1,8,0:0:0:0:
408,248,308358,1,2,0:2:0:0:
408,248,308596,1,8,0:0:0:0:
140,188,308834,5,2,0:2:0:0:
168,120,308953,1,2,0:2:0:0:
228,76,309072,1,8,0:0:0:0:
300,92,309191,1,2,0:2:0:0:
360,136,309310,2,0,P|416:176|476:168,1,125,2|8,0:2|0:0,0:0:0:0:
508,92,309667,2,0,B|460:68|460:68|436:40|396:36,1,125,2|2,0:2|0:2,0:0:0:0:
312,60,310024,2,0,P|300:120|268:176,1,125,8|2,0:0|0:2,0:0:0:0:
120,312,310501,1,8,0:0:0:0:
512,324,310977,5,2,0:0:0:0:
20,256,311453,1,0,0:0:0:0:
472,184,311929,1,2,0:0:0:0:
60,112,312405,1,4,0:0:0:0:
60,236,320024,6,0,L|176:276,1,119.999996337891,4|2,0:0|0:2,0:0:0:0:
380,288,320977,2,0,L|328:316,2,59.9999981689454,0|2|0,0:0|0:2|0:0,0:0:0:0:
380,204,321691,1,2,0:2:0:0:
456,244,321929,2,0,L|468:120,1,119.999996337891,2|0,0:2|0:0,0:0:0:0:
448,336,322882,1,0,0:0:0:0:
308,216,323358,6,0,L|316:144,1,59.9999981689454,2|0,0:2|0:0,0:0:0:0:
324,80,323834,2,0,P|260:84|208:60,1,119.999996337891,2|0,0:2|0:0,0:0:0:0:
68,156,324786,2,0,P|132:160|184:136,1,119.999996337891,0|0,0:0|0:0,0:0:0:0:
312,244,325739,2,0,P|248:248|196:224,1,119.999996337891
56,320,326691,2,0,P|120:324|172:300,1,119.999996337891
448,236,327644,5,0,0:0:0:0:
512,292,327882,1,0,0:0:0:0:
432,320,328120,2,0,P|380:292|364:236,1,119.999996337891,2|0,0:2|0:0,0:0:0:0:
316,100,328834,2,0,L|276:164,2,59.9999981689454,2|2|0,0:2|0:2|0:0,0:0:0:0:
448,40,329548,2,0,P|464:104|508:140,2,119.999996337891,2|0|0,0:2|0:0|0:0,0:0:0:0:
360,224,330977,5,0,0:0:0:0:
360,224,331215,2,0,P|288:268|196:256,1,179.999994506836,2|0,0:2|0:0,0:0:0:0:
48,152,332405,2,0,L|40:84,2,59.9999981689454,0|2|0,0:0|0:2|0:0,0:0:0:0:
96,240,333120,2,0,L|104:308,1,59.9999981689454,2|0,0:2|0:0,0:0:0:0:
68,28,333834,1,0,0:0:0:0:
232,104,334310,2,0,L|296:92,1,59.9999981689454,2|0,0:2|0:0,0:0:0:0:
228,196,334786,2,0,L|292:184,1,59.9999981689454,2|0,0:2|0:0,0:0:0:0:
224,288,335263,6,0,L|348:264,1,119.999996337891,2|0,0:2|0:0,0:0:0:0:
428,248,335977,1,2,0:2:0:0:
428,248,336215,2,0,P|448:188|440:132,1,119.999996337891
416,48,336929,1,2,0:2:0:0:
416,48,337167,2,0,B|372:40|340:72|296:64,1,119.999996337891
212,56,337882,1,2,0:2:0:0:
212,56,338120,2,0,B|216:84|216:84|212:120|212:120|196:148,1,89.9999972534181,0|2,0:0|0:2,0:0:0:0:
168,172,338596,2,0,L|172:236,2,59.9999981689454,0|2|0,0:0|0:2|0:0,0:0:0:0:
184,320,339310,5,0,0:0:0:0:
264,344,339548,1,2,0:2:0:0:
348,336,339786,1,0,0:0:0:0:
412,280,340024,2,0,P|404:220|432:168,1,119.999996337891,0|2,0:0|0:2,0:0:0:0:
256,36,340739,1,0,0:0:0:0:
256,36,340977,6,0,P|264:96|236:148,1,119.999996337891,0|2,0:0|0:2,0:0:0:0:
116,196,341691,2,0,L|236:224,1,119.999996337891,0|2,0:0|0:2,0:0:0:0:
316,240,342405,1,2,0:2:0:0:
360,344,342644,1,0,0:0:0:0:
316,240,342882,1,2,0:2:0:0:
344,160,343120,5,0,0:0:0:0:
352,76,343358,2,0,B|280:60|280:60|232:72,1,119.999996337891,2|0,0:2|0:0,0:0:0:0:
156,204,344072,1,2,0:2:0:0:
168,120,344310,1,2,0:2:0:0:
188,280,344548,1,2,0:2:0:0:
252,336,344786,6,0,B|324:352|324:352|372:340,2,119.999996337891,2|0|0,0:2|0:2|0:2,0:2:0:0:
364,136,345977,1,2,0:2:0:0:
264,252,346215,1,2,0:2:0:0:
360,48,346453,1,2,0:2:0:0:
344,216,346691,2,0,B|356:248|380:264|380:264|408:264|440:248,2,119.999996337891,2|0|0,0:2|0:2|0:2,0:2:0:0:
228,64,347882,5,2,0:2:0:0:
212,72,348001,1,2,0:2:0:0:
196,80,348120,2,2,P|200:116|196:144,1,59.9999981689454,2|0,0:2|0:0,0:0:0:0:
164,320,348596,2,2,P|160:284|164:256,1,59.9999981689454,0|0,0:0|0:0,0:0:0:0:
196,80,349072,1,2,0:2:0:0:
376,80,349310,1,2,0:2:0:0:
396,92,349429,1,2,0:2:0:0:
416,104,349548,2,2,L|424:168,1,59.9999981689454
436,300,350024,1,2,0:2:0:0:
420,316,350144,1,2,0:2:0:0:
396,324,350263,1,2,0:2:0:0:
368,324,350382,1,2,0:2:0:0:
344,316,350501,6,0,B|308:320|308:320|276:296|276:296|236:300,1,112.500004291535,6|0,0:0|0:0,0:0:0:0:
200,304,350977,1,2,0:0:0:0:
64,320,351215,1,0,0:0:0:0:
56,324,351453,2,2,P|80:272|72:216,1,112.500004291535,0|2,0:0|0:0,0:0:0:0:
72,176,351929,2,0,L|116:112,1,75.0000028610231,0|2,0:0|0:0,0:0:0:0:
256,48,352405,5,2,0:0:0:0:
256,280,352644,1,0,0:0:0:0:
160,164,352882,1,0,0:0:0:0:
352,164,353120,1,0,0:0:0:0:
388,148,353239,1,0,0:0:0:0:
424,132,353358,2,2,P|428:192|456:236,1,112.500004291535,2|0,0:0|0:0,0:0:0:0:
512,300,353834,2,0,L|496:380,2,75.0000028610231,0|0|0,0:0|0:0|0:0,0:0:0:0:
280,340,354548,1,0,0:0:0:0:
280,340,354786,6,2,P|240:352|204:348,1,75.0000028610231,2|0,0:0|0:0,0:0:0:0:
68,80,355263,2,2,P|120:52|172:48,1,112.500004291535,2|2,0:0|0:0,0:0:0:0:
304,116,355739,2,2,L|228:136,1,75.0000028610231,2|0,0:0|0:0,0:0:0:0:
56,176,356215,5,2,0:0:0:0:
280,204,356453,1,2,0:0:0:0:
164,224,356691,1,0,0:0:0:0:
388,252,356929,1,2,0:0:0:0:
280,204,357167,1,0,0:0:0:0:
512,232,357405,1,2,0:0:0:0:
508,196,357524,1,0,0:0:0:0:
504,160,357644,1,0,0:0:0:0:
424,360,357882,2,2,L|348:368,1,75.0000028610231,0|2,0:0|0:0,0:0:0:0:
492,312,358596,1,8,0:0:0:0:
40,356,359072,6,2,L|152:348,1,112.500004291535,6|0,0:0|0:0,0:0:0:0:
248,340,359548,2,0,P|236:304|240:268,1,75.0000028610231,8|0,0:0|0:0,0:0:0:0:
288,120,360024,1,2,0:0:0:0:
288,120,360501,1,8,0:0:0:0:
388,88,360739,1,2,0:0:0:0:
488,56,360977,2,2,P|500:108|492:168,1,112.500004291535,2|0,0:0|0:0,0:0:0:0:
476,204,361453,1,8,0:0:0:0:
284,340,361691,5,0,0:0:0:0:
400,300,361929,2,2,P|376:272|368:232,1,75.0000028610231,2|0,0:0|0:0,0:0:0:0:
272,84,362405,2,0,P|296:112|304:152,1,75.0000028610231,8|0,0:0|0:0,0:0:0:0:
120,288,362882,2,2,B|176:292|176:292|228:264,1,112.500004291535,2|0,0:0|0:0,0:0:0:0:
260,240,363358,1,8,0:0:0:0:
364,68,363596,5,0,0:0:0:0:
364,68,363834,2,0,B|324:48|256:88|216:68,2,150.000005722046,2|8|2,0:0|0:0|0:0,0:0:0:0:
140,100,365144,1,0,0:0:0:0:
140,100,365263,2,0,P|108:88|68:92,2,75.0000028610231,8|0|0,0:0|0:0|0:0,0:0:0:0:
280,212,365977,5,0,0:0:0:0:
280,212,366215,1,10,0:0:0:0:
388,264,366453,1,0,0:0:0:0:
388,264,366691,1,2,0:0:0:0:
508,244,366929,1,2,0:0:0:0:
508,244,367048,1,0,0:0:0:0:
508,244,367167,2,0,L|520:168,1,75.0000028610231,8|0,0:0|0:0,0:0:0:0:
492,344,367644,5,2,0:0:0:0:
372,364,367882,1,0,0:0:0:0:
256,328,368120,1,8,0:0:0:0:
20,344,368358,1,2,0:0:0:0:
140,364,368596,1,2,0:0:0:0:
256,328,368834,2,0,L|252:372,2,37.5000014305115,0|0|8,0:0|0:0|0:0,0:0:0:0:
216,128,369310,1,0,0:0:0:0:
300,40,369548,1,0,0:0:0:0:
300,216,369786,1,0,0:0:0:0:
60,288,370024,5,10,0:0:0:0:
184,244,370263,1,0,0:0:0:0:
60,288,370501,1,2,0:0:0:0:
296,204,370739,2,0,L|284:152,1,37.5000014305115,0|0,0:0|0:0,0:0:0:0:
300,216,370977,2,2,P|336:236|380:232,1,75.0000028610231,8|0,0:0|0:0,0:0:0:0:
496,212,371453,1,2,0:0:0:0:
392,84,371691,5,0,0:0:0:0:
400,72,371810,1,0,0:0:0:0:
408,60,371929,1,10,0:0:0:0:
204,108,372167,1,0,0:0:0:0:
44,208,372405,2,0,P|108:208|120:224,1,75.0000028610231,2|0,0:0|0:0,0:0:0:0:
124,244,372763,1,2,0:0:0:0:
136,276,372882,2,0,P|200:276|212:260,1,75.0000028610231,8|2,0:0|0:0,0:0:0:0:
348,192,373358,6,2,L|329:231,1,37.5000014305115,2|0,0:0|0:0,0:0:0:0:
385,196,373596,2,0,L|398:233,1,37.5000014305115
411,168,373834,2,0,L|450:186,1,37.5000014305115,8|0,0:0|0:0,0:0:0:0:
417,127,374072,2,0,L|454:113,1,37.5000014305115
388,104,374310,2,2,L|403:70,1,37.5000014305115,2|0,0:0|0:0,0:0:0:0:
350,100,374548,2,0,L|336:62,1,37.5000014305115
324,128,374786,2,0,L|284:109,1,37.5000014305115,8|0,0:0|0:0,0:0:0:0:
320,165,375024,2,0,L|282:178,1,37.5000014305115
180,212,375263,6,2,L|144:224,1,37.5000014305115,2|0,0:0|0:0,0:0:0:0:
175,278,375501,2,0,L|141:262,1,37.5000014305115
128,326,375739,2,0,L|115:290,1,37.5000014305115,8|0,0:0|0:0,0:0:0:0:
61,320,375977,2,0,L|76:286,1,37.5000014305115,2|0,0:0|0:0,0:0:0:0:
13,276,376215,2,2,L|48:263,1,37.5000014305115,2|0,0:0|0:0,0:0:0:0:
20,206,376453,2,0,L|53:221,1,37.5000014305115
67,159,376691,2,0,L|79:194,1,37.5000014305115,8|0,0:0|0:0,0:0:0:0:
133,164,376929,2,0,L|117:197,1,37.5000014305115
236,72,377167,6,0,L|249:44,16,18.7500007152558,0|0|0|0|0|0|0|0|8|0|0|0|0|0|0|0|0,0:0|0:0|0:0|0:0|0:0|0:0|0:0|0:0|0:0|0:0|0:0|0:0|0:0|0:0|0:0|0:0|0:0,0:0:0:0:
300,204,378358,1,2,0:0:0:0:
360,312,378596,1,8,0:0:0:0:
488,296,378834,1,2,0:0:0:0:
428,188,379072,6,0,L|456:144,3,44.999998626709,2|0|0|0,0:0|0:0|0:0|0:0,0:0:0:0:
356,120,379548,2,0,L|400:100,3,44.999998626709,2|0|0|0,0:0|0:0|0:0|0:0,0:0:0:0:
208,112,380024,2,0,L|252:92,3,44.999998626709,2|0|0|0,0:0|0:0|0:0|0:0,0:0:0:0:
148,58,380500,2,0,L|176:16,3,44.999998626709,0|0|0|0,0:0|0:0|0:0|0:0,0:0:0:0:
100,132,380977,6,0,P|108:184|100:232,1,100,4|0,0:0|0:0,0:0:0:0:
88,268,381334,1,0,0:0:0:0:
72,304,381453,1,8,0:0:0:0:
240,344,381691,1,0,0:0:0:0:
280,324,381810,1,2,0:0:0:0:
320,304,381929,1,0,0:0:0:0:
364,312,382048,1,0,0:0:0:0:
404,320,382167,2,0,P|468:292|464:216,2,150,2|2|2,0:0|0:0|0:0,0:0:0:0:
292,100,383120,5,0,0:0:0:0:
256,96,383239,1,0,0:0:0:0:
220,100,383358,1,8,0:0:0:0:
72,304,383596,1,0,0:0:0:0:
108,308,383715,1,2,0:0:0:0:
144,304,383834,2,0,P|188:280|236:288,2,100,0|2|0,0:0|0:0|0:0,0:0:0:0:
200,352,384429,2,0,L|312:336,1,100,2|0,0:0|0:0,0:0:0:0:
372,324,384786,2,0,P|376:276|352:228,1,100,2|0,0:0|0:0,0:0:0:0:
336,200,385143,1,0,0:0:0:0:
328,164,385262,1,8,0:0:0:0:
488,40,385501,5,0,0:0:0:0:
492,76,385620,1,2,0:0:0:0:
488,112,385739,2,0,P|496:160|468:208,2,100,0|2|0,0:0|0:0|0:0,0:0:0:0:
424,148,386334,2,0,P|400:192|408:240,1,100,2|0,0:0|0:0,0:0:0:0:
444,304,386691,6,0,L|336:328,1,100,2|0,0:0|0:0,0:0:0:0:
312,332,387048,1,0,0:0:0:0:
276,336,387167,1,8,0:0:0:0:
116,320,387405,1,0,0:0:0:0:
116,320,387524,1,0,0:0:0:0:
116,320,387644,1,0,0:0:0:0:
88,160,387882,1,0,0:0:0:0:
116,320,388120,1,8,0:0:0:0:
68,56,388358,6,2,P|112:40|164:48,1,100,0|2,0:0|0:0,0:0:0:0:
312,108,388834,2,0,L|304:48,2,50,0|0|8,0:0|0:0|0:0,0:0:0:0:
480,196,389310,2,0,L|492:144,1,50,0|2,0:0|0:0,0:0:0:0:
416,276,389548,2,0,L|404:224,1,50,0|0,0:0|0:0,0:0:0:0:
356,340,389786,2,0,P|312:356|260:348,1,100,2|0,0:0|0:0,0:0:0:0:
204,276,390144,2,0,P|248:260|300:268,1,100,2|0,0:0|0:0,0:0:0:0:
388,296,390501,6,0,B|404:248|404:248|400:196,1,100,2|0,0:0|0:0,0:0:0:0:
392,160,390858,1,0,0:0:0:0:
392,120,390977,1,8,0:0:0:0:
192,80,391215,2,0,L|144:64,2,50,0|2|0,0:0|0:0|0:0,0:0:0:0:
484,152,391691,5,2,0:0:0:0:
28,232,392048,1,2,0:0:0:0:
484,296,392405,1,2,0:0:0:0:
172,300,392643,5,0,0:0:0:0:
172,300,392762,1,0,0:0:0:0:
172,300,392881,1,8,0:0:0:0:
340,300,393120,2,0,L|360:248,1,50,0|2,0:0|0:0,0:0:0:0:
288,232,393358,2,0,L|268:284,1,50,0|0,0:0|0:0,0:0:0:0:
256,164,393596,2,0,P|220:128|216:80,1,100,2|0,0:0|0:0,0:0:0:0:
288,96,393953,2,0,P|324:132|328:180,1,100,2|0,0:0|0:0,0:0:0:0:
312,252,394310,6,0,L|212:264,1,100,2|0,0:0|0:0,0:0:0:0:
176,268,394667,1,0,0:0:0:0:
140,272,394786,1,8,0:0:0:0:
380,328,395024,2,0,L|432:348,2,50,0|0|2,0:0|0:0|0:2,0:0:0:0:
128,176,395501,2,0,L|76:156,2,50,0|0|8,0:0|0:0|0:0,0:0:0:0:
380,200,395977,1,0,0:0:0:0:
380,200,396215,5,12,0:0:0:0:
200,48,396453,1,0,0:0:0:0:
200,48,396572,1,0,0:0:0:0:
200,48,396691,1,8,0:0:0:0:
192,248,396929,2,0,P|228:192|220:140,1,119.999996337891,0|8,0:0|0:0,0:0:0:0:
128,300,397405,1,2,0:0:0:0:
308,156,397644,2,0,L|344:100,1,59.9999981689454,8|2,0:0|0:0,0:0:0:0:
352,92,398120,1,10,0:0:0:0:
372,340,398358,5,0,0:0:0:0:
372,340,398477,1,0,0:0:0:0:
372,340,398596,1,8,0:0:0:0:
380,140,398834,2,0,P|344:196|352:248,1,119.999996337891,0|8,0:0|0:0,0:0:0:0:
444,88,399310,1,2,0:0:0:0:
264,232,399549,2,0,L|228:288,1,59.9999981689454,8|2,0:0|0:0,0:0:0:0:
220,296,400025,1,10,0:0:0:0:
12,352,400263,5,0,0:0:0:0:
12,352,400382,1,0,0:0:0:0:
12,352,400501,1,8,0:0:0:0:
116,140,400739,2,0,P|84:92|92:16,2,119.999996337891,0|8|2,0:0|0:0|0:0,0:0:0:0:
296,300,401454,1,8,0:0:0:0:
296,300,401573,1,2,0:0:0:0:
296,300,401929,1,10,0:0:0:0:
488,340,402167,6,0,L|492:280,2,59.9999981689454,0|0|8,0:0|0:0|0:0,0:0:0:0:
508,112,402643,1,0,0:0:0:0:
352,180,402882,1,8,0:0:0:0:
188,144,403119,1,2,0:0:0:0:
28,200,403358,1,8,0:0:0:0:
28,200,403477,1,2,0:0:0:0:
352,180,403834,1,6,0:2:0:0:
64,40,404072,6,0,L|0:32,2,59.9999981689454,0|0|8,0:0|0:0|0:0,0:0:0:0:
448,76,404548,1,0,0:0:0:0:
448,76,404786,1,0,0:0:0:0:
64,120,405024,1,2,0:0:0:0:
64,120,405263,1,8,0:0:0:0:
448,152,405501,1,0,0:0:0:0:
448,152,405739,1,2,0:0:0:0:
40,240,405977,6,0,L|24:304,2,59.9999981689454,0|0|8,0:0|0:0|0:0,0:0:0:0:
84,24,406453,1,0,0:0:0:0:
132,304,406691,1,0,0:0:0:0:
208,36,406929,1,2,0:0:0:0:
376,304,407168,1,8,0:0:0:0:
136,152,407406,1,0,0:0:0:0:
464,92,407644,6,2,P|488:148|480:212,1,119.999996337891,2|0,0:0|0:0,0:0:0:0:
48,292,408120,2,0,P|24:236|32:172,1,119.999996337891,8|0,0:0|0:0,0:0:0:0:
376,304,408596,2,0,P|320:328|264:316,1,119.999996337891
136,80,409072,2,0,P|192:56|248:68,1,119.999996337891,8|0,0:0|0:0,0:0:0:0:
256,192,409548,12,2,410977,0:3:0:0:
204,176,411453,5,4,2:1:0:0:
52,52,419072,5,4,1:2:0:0:
52,52,419548,1,0,1:0:0:0:
132,304,420024,1,2,0:0:0:0:
204,161,420263,1,0,0:0:0:0:
291,295,420501,1,2,0:0:0:0:
292,296,420977,5,0,1:0:0:0:
292,296,421453,1,0,1:0:0:0:
464,172,421929,2,0,P|388:156|356:92,1,150,2|0,0:0|0:0,0:0:0:0:
348,56,422405,1,2,0:0:0:0:
304,204,422644,1,2,0:0:0:0:
304,204,422882,5,2,1:2:0:0:
304,204,423358,1,0,1:0:0:0:
40,188,423834,1,2,0:0:0:0:
119,345,424073,1,0,0:0:0:0:
215,197,424311,1,2,0:0:0:0:
215,197,424786,6,0,P|256:236|296:248,1,100,0|2,1:0|0:0,0:0:0:0:
380,148,425263,2,0,P|339:109|299:97,1,100,0|2,1:0|0:0,0:0:0:0:
432,256,425739,1,2,0:0:0:0:
168,64,426215,1,2,0:0:0:0:
168,64,426691,5,2,1:2:0:0:
168,64,427167,1,0,1:0:0:0:
32,268,427644,1,2,0:0:0:0:
392,196,428120,1,2,0:0:0:0:
220,260,428596,5,0,1:0:0:0:
220,260,429072,1,0,1:0:0:0:
20,356,429548,2,0,P|-12:288|20:220,1,150,2|2,0:0|0:0,0:0:0:0:
76,288,430024,2,0,P|104:240|100:192,1,100,0|2,0:0|0:0,0:0:0:0:
40,24,430501,5,2,1:2:0:0:
40,24,430977,1,0,1:0:0:0:
96,144,431215,2,0,P|104:192|144:224,1,100,2|2,0:0|0:0,0:0:0:0:
292,144,431691,2,0,P|284:96|244:64,1,100,0|2,0:0|0:0,0:0:0:0:
196,216,432405,6,0,B|168:288|220:296|192:368,2,150,2|2|2,1:2|1:2|1:2,0:0:0:0:
328,32,433358,1,2,0:0:0:0:
352,32,433477,1,0,0:0:0:0:
376,40,433596,1,2,0:0:0:0:
436,332,433834,1,2,0:0:0:0:
308,172,434072,1,2,0:0:0:0:
72,36,434310,5,4,0:2:0:0:
72,36,434786,2,0,L|176:48,1,100
292,64,435263,1,2,0:0:0:0:
40,124,435739,2,0,L|137:162,1,100
245,207,436216,1,2,0:0:0:0:
32,228,436691,6,0,L|116:290,1,100
336,356,437167,2,0,L|251:293,1,100,2|0,0:0|0:0,0:0:0:0:
156,228,437644,1,2,0:0:0:0:
440,36,438120,5,2,0:2:0:0:
440,36,438596,2,0,L|336:48,1,100
220,64,439073,1,2,0:0:0:0:
472,124,439548,2,0,L|374:162,1,100
267,207,440024,1,2,0:0:0:0:
480,228,440501,6,0,L|395:290,1,100
176,356,440977,2,0,L|260:293,1,100,2|0,0:0|0:0,0:0:0:0:
356,228,441454,1,2,0:0:0:0:
256,36,441930,5,2,0:0:0:0:
4,332,442405,1,2,0:0:0:0:
104,248,442644,1,0,0:0:0:0:
144,124,442882,1,2,0:0:0:0:
508,332,443358,1,2,0:0:0:0:
408,248,443597,1,0,0:0:0:0:
368,124,443835,1,2,0:0:0:0:
104,248,444310,6,0,P|112:296|160:312,1,100,2|0,0:0|0:0,0:0:0:0:
408,248,444786,2,0,P|400:296|352:312,1,100,2|0,0:0|0:0,0:0:0:0:
256,176,445263,1,2,0:0:0:0:
44,284,445739,6,0,P|36:232|60:194,1,100,2|0,0:0|0:0,0:0:0:0:
451,190,446215,2,0,P|476:228|468:280,2,100,2|0|0,0:0|0:0|0:0,0:0:0:0:
147,301,447167,6,0,P|172:264|164:212,1,100,2|0,0:0|0:0,0:0:0:0:
348,211,447644,2,0,P|340:264|364:301,2,100,2|0|0,0:0|0:0|0:0,0:0:0:0:
104,248,448596,5,2,0:0:0:0:
348,104,448834,1,0,0:0:0:0:
256,376,449072,1,2,0:0:0:0:
168,104,449310,1,2,0:0:0:0:
408,248,449548,1,4,0:0:0:0:
504,320,449786,6,0,L|492:372,2,50,0|0|2,0:0|0:0|0:0,0:0:0:0:
512,200,450263,1,0,0:0:0:0:
504,80,450501,2,0,B|452:96|452:96|404:64|356:88,1,150,2|0,0:0|0:0,0:0:0:0:
396,160,450977,2,0,P|340:168|300:144,1,100,2|0,0:0|0:0,0:0:0:0:
212,32,451453,6,0,B|152:28|152:28|100:24|68:72,1,150,2|0,0:0|0:0,0:0:0:0:
144,116,451929,2,0,P|156:168|140:216,1,100,2|0,0:0|0:0,0:0:0:0:
92,344,452405,1,2,0:0:0:0:
168,344,452524,2,0,P|212:320|260:328,1,100,0|2,0:0|0:0,0:0:0:0:
336,340,452882,2,0,P|388:336|436:300,2,100,0|2|10,0:0|0:0|0:0,0:0:0:0:
132,244,453715,5,0,0:0:0:0:
132,244,453834,2,0,P|80:240|32:204,2,100,2|0|2,0:0|0:0|0:0,0:0:0:0:
424,176,454667,1,2,0:0:0:0:
424,176,454905,2,0,L|396:104,1,75,8|8,0:0|0:0,0:0:0:0:
236,180,455263,2,0,B|176:188|172:256|112:264,1,150,10|0,0:0|0:0,0:0:0:0:
96,184,455739,6,0,B|136:148|128:92,1,100,2|0,0:0|0:0,0:0:0:0:
304,56,456215,2,0,B|264:92|272:148,1,100,2|0,0:0|0:0,0:0:0:0:
444,228,456691,2,0,B|484:192|476:136,1,100,2|0,0:0|0:0,0:0:0:0:
368,308,457167,6,0,P|304:348|232:320,1,150,10|0,0:0|0:0,0:0:0:0:
196,248,457644,2,0,L|300:260,1,100,2|0,0:0|0:0,0:0:0:0:
266,86,458120,2,0,P|200:64|136:104,1,150,2|2,0:0|0:0,0:0:0:0:
208,152,458597,2,0,L|308:164,1,100,0|2,0:0|0:0,0:0:0:0:
432,320,459072,6,0,P|404:252|428:180,1,150,2|0,0:0|0:0,0:0:0:0:
476,124,459548,1,2,0:0:0:0:
256,168,459786,1,2,0:0:0:0:
80,320,460024,2,0,P|108:252|84:180,1,150,0|2,0:0|0:0,0:0:0:0:
36,124,460501,1,0,0:0:0:0:
256,168,460739,1,2,0:0:0:0:
328,336,460977,6,0,P|256:316|184:336,1,150,10|0,0:0|0:0,0:0:0:0:
215,148,461453,2,0,P|197:219|144:272,1,150,2|0,0:0|0:0,0:0:0:0:
374,272,461929,2,0,P|322:220|304:148,1,150,2|2,0:0|0:0,0:0:0:0:
124,116,462524,2,0,P|124:156|108:188,1,75,10|8,0:0|0:0,0:0:0:0:
116,40,462882,1,10,0:0:0:0:
396,124,463358,6,0,P|448:136|496:116,1,100,2|0,0:0|0:0,0:0:0:0:
256,148,463834,2,0,P|176:136|116:168,2,150,2|2|2,0:0|0:0|0:0,0:0:0:0:
380,280,464786,1,8,0:0:0:0:
380,280,465263,6,0,P|324:352|220:340,1,200,2|8,0:0|0:0,0:0:0:0:
36,164,466215,2,0,P|92:92|200:108,1,200,0|8,0:0|0:0,0:0:0:0:
44,316,467167,2,0,B|80:264|192:308|232:248,1,200,2|8,0:0|0:0,0:0:0:0:
412,72,468119,2,0,P|388:172|452:232,1,200,0|8,0:0|0:0,0:0:0:0:
256,192,468834,12,10,472405,0:0:0:0:
256,192,472644,12,10,475739,0:0:0:0:
256,260,476215,6,0,P|208:288|152:280,1,110.000003356934,2|0,0:0|0:0,0:0:0:0:
256,164,476691,2,0,P|304:136|360:144,1,110.000003356934,2|0,0:0|0:0,0:0:0:0:
144,356,477167,6,0,P|116:308|124:252,1,110.000003356934,2|0,0:0|0:0,0:0:0:0:
368,28,477644,2,0,P|396:76|388:132,1,110.000003356934,2|0,0:0|0:0,0:0:0:0:
284,368,478120,5,2,0:0:0:0:
64,113,478358,1,0,0:0:0:0:
80,324,478596,1,2,0:0:0:0:
393,189,478834,1,0,0:0:0:0:
256,32,479072,1,2,0:0:0:0:
432,324,479548,5,8,0:0:0:0:
80,324,480024,5,6,0:0:0:0:
56,180,480263,2,0,L|48:116,1,62.5,2|2,0:0|0:0,0:0:0:0:
36,36,480501,2,0,P|96:20|160:36,1,125,8|2,0:0|0:0,0:0:0:0:
364,128,480977,2,0,P|424:144|488:128,2,125,0|2|8,0:0|0:0|0:0,0:0:0:0:
156,132,481691,1,0,0:0:0:0:
340,340,481929,5,0,0:0:0:0:
356,300,482048,1,2,0:0:0:0:
364,256,482167,1,0,0:0:0:0:
356,212,482286,1,2,0:0:0:0:
340,172,482405,1,8,0:0:0:0:
76,216,482644,2,2,P|128:252|196:248,1,125,2|0,0:0|0:0,0:0:0:0:
432,96,483120,2,2,P|380:60|312:64,1,125,2|8,0:0|0:0,0:0:0:0:
72,312,483596,1,0,0:0:0:0:
72,312,483834,5,0,0:0:0:0:
112,328,483953,1,2,0:0:0:0:
156,336,484072,1,0,0:0:0:0:
200,328,484191,1,2,0:0:0:0:
240,312,484310,1,8,0:0:0:0:
400,212,484548,2,2,P|336:217|280:179,1,125,2|0,0:0|0:0,0:0:0:0:
56,60,485024,2,2,P|119:54|175:92,1,125,2|8,0:0|0:0,0:0:0:0:
404,320,485501,6,0,L|472:336,2,62.5,0|0|2,0:0|0:0|0:0,0:0:0:0:
120,268,485977,2,0,L|52:284,2,62.5,0|2|8,0:0|0:0|0:0,0:0:0:0:
444,84,486453,1,2,0:0:0:0:
444,84,486691,1,0,0:0:0:0:
272,148,486929,1,2,0:0:0:0:
300,200,487048,1,2,0:0:0:0:
356,220,487167,1,8,0:0:0:0:
160,32,487405,2,0,L|168:96,1,62.5
180,172,487644,5,0,0:0:0:0:
200,224,487763,1,2,0:0:0:0:
252,248,487882,1,0,0:0:0:0:
308,248,488001,1,2,0:0:0:0:
356,216,488120,1,8,0:0:0:0:
64,184,488358,2,2,B|100:204|100:204|136:224|128:276,2,125,2|0|2,0:0|0:0|0:0,0:0:0:0:
48,356,489072,2,2,P|132:388|220:344,1,187.5,10|0,0:0|0:0,0:0:0:0:
272,288,489548,5,0,0:0:0:0:
332,268,489667,1,2,0:0:0:0:
396,268,489786,1,0,0:0:0:0:
456,244,489905,1,2,0:0:0:0:
480,184,490024,1,8,0:0:0:0:
372,48,490263,2,2,P|308:44|256:72,1,125,2|0,0:0|0:0,0:0:0:0:
272,288,490739,1,2,0:0:0:0:
88,364,490977,2,2,P|20:312|8:216,1,187.5,10|0,0:0|0:0,0:0:0:0:
36,124,491453,5,0,0:0:0:0:
36,124,491572,1,2,0:0:0:0:
36,124,491691,1,0,0:0:0:0:
36,124,491810,1,2,0:0:0:0:
36,124,491929,1,8,0:0:0:0:
316,152,492167,1,2,0:0:0:0:
168,160,492405,1,0,0:0:0:0:
436,88,492644,1,2,0:0:0:0:
340,328,492882,2,2,B|316:364|256:332|256:332|196:364|172:328,1,187.5,10|0,0:0|0:0,0:0:0:0:
144,204,493358,6,2,L|84:228,1,62.5,0|2,0:0|0:0,0:0:0:0:
116,132,493596,2,2,L|48:124,1,62.5,0|2,0:0|0:0,0:0:0:0:
176,84,493834,2,2,P|232:20|336:40,1,187.5,0|0,0:0|0:0,0:0:0:0:
420,152,494310,6,2,L|480:128,1,62.5,0|2,0:0|0:0,0:0:0:0:
448,224,494548,2,2,L|516:232,1,62.5,0|2,0:0|0:0,0:0:0:0:
388,272,494786,2,2,P|332:336|228:316,1,187.5,8|0,0:0|0:0,0:0:0:0:
172,288,495263,5,6,0:0:0:0:
64,136,495501,2,0,L|128:144,1,62.5,2|2,0:0|0:0,0:0:0:0:
204,116,495739,2,0,P|264:100|328:116,1,125,8|2,0:0|0:0,0:0:0:0:
400,292,496215,2,0,P|340:308|276:292,2,125,0|2|8,0:0|0:0|0:0,0:0:0:0:
416,104,496929,1,0,0:0:0:0:
172,44,497167,5,0,0:0:0:0:
156,84,497286,1,2,0:0:0:0:
148,128,497405,1,0,0:0:0:0:
156,172,497524,1,2,0:0:0:0:
172,212,497643,1,8,0:0:0:0:
436,168,497882,2,2,P|384:132|316:136,1,125,2|0,0:0|0:0,0:0:0:0:
80,288,498358,2,2,P|132:324|200:320,1,125,2|8,0:0|0:0,0:0:0:0:
440,72,498834,1,0,0:0:0:0:
440,72,499072,5,0,0:0:0:0:
400,56,499191,1,2,0:0:0:0:
356,48,499310,1,0,0:0:0:0:
312,56,499429,1,2,0:0:0:0:
272,72,499548,1,8,0:0:0:0:
136,180,499786,2,2,P|200:175|256:213,1,125,2|0,0:0|0:0,0:0:0:0:
388,352,500262,2,2,P|325:358|269:320,1,125,2|8,0:0|0:0,0:0:0:0:
88,88,500739,6,0,L|104:20,2,62.5,0|0|2,0:0|0:0|0:0,0:0:0:0:
204,296,501215,2,2,L|188:364,2,62.5,0|2|8,0:0|0:0|0:0,0:0:0:0:
380,100,501691,2,2,L|396:32,2,62.5,2|0|0,0:0|0:0|0:0,0:0:0:0:
496,308,502167,2,2,L|480:376,2,62.5,2|0|8,0:0|0:0|0:0,0:0:0:0:
312,308,502643,2,0,L|304:244,1,62.5
292,168,502882,5,0,0:0:0:0:
272,116,503001,1,2,0:0:0:0:
220,92,503120,1,0,0:0:0:0:
164,92,503239,1,2,0:0:0:0:
116,124,503358,1,8,0:0:0:0:
104,316,503596,2,2,B|56:368|-16:356,2,125,2|0|2,0:0|0:0|0:0,0:0:0:0:
312,308,504310,2,2,P|216:316|160:248,1,187.5,10|0,0:0|0:0,0:0:0:0:
144,172,504786,5,0,0:0:0:0:
152,164,504905,1,2,0:0:0:0:
160,156,505024,1,0,0:0:0:0:
168,148,505143,1,2,0:0:0:0:
176,140,505263,2,2,P|200:88|192:20,1,125,8|2,0:0|0:0,0:0:0:0:
224,244,505739,2,2,P|200:296|208:364,1,125,0|2,0:0|0:0,0:0:0:0:
464,256,506215,2,2,P|496:168|464:80,1,187.5,10|0,0:0|0:0,0:0:0:0:
408,16,506691,5,0,0:0:0:0:
408,16,506810,1,2,0:0:0:0:
408,16,506929,1,0,0:0:0:0:
408,16,507048,1,2,0:0:0:0:
408,16,507167,2,2,L|280:20,1,125,8|2,0:0|0:0,0:0:0:0:
52,80,507644,2,2,P|120:84|180:76,1,125,0|2,0:0|0:0,0:0:0:0:
220,72,508001,1,0,0:0:0:0:
260,56,508120,2,2,P|292:144|260:232,1,187.5,10|0,0:0|0:0,0:0:0:0:
200,296,508596,6,2,L|132:280,1,62.5,0|2,0:0|0:0,0:0:0:0:
20,352,508834,2,2,L|88:344,1,62.5,0|2,0:0|0:0,0:0:0:0:
200,380,509072,2,2,P|288:352|380:368,1,187.5,2|0,0:0|0:0,0:0:0:0:
480,380,509548,6,2,L|496:312,1,62.5,0|2,0:0|0:0,0:0:0:0:
424,264,509786,2,2,L|408:192,1,62.5,0|2,0:0|0:0,0:0:0:0:
388,116,510024,1,8,0:0:0:0:
124,268,510501,5,4,0:0:0:0:
256,192,510739,12,2,514310,2:2:0:0:
276,236,528120,6,0,B|192:268|192:268|136:248,2,150.000005722046,2|2|0,0:0|0:0|0:0,0:0:0:0:
352,204,529310,1,0,0:0:0:0:
428,168,529548,2,0,P|460:120|448:68,2,112.500004291535,2|2|2,0:0|0:0|0:0,0:0:0:0:
84,212,530739,6,0,P|52:260|64:312,2,112.500004291535,2|2|2,0:0|0:0|0:0,0:0:0:0:
152,168,531691,2,0,L|148:120,1,37.5000014305115,0|2,0:0|0:0,0:0:0:0:
156,184,531929,2,0,P|184:208|224:216,1,75.0000028610231,0|2,0:0|0:0,0:0:0:0:
340,192,532405,1,2,0:0:0:0:
180,88,532644,6,0,B|136:56|136:56|72:48,1,112.500004291535,0|2,0:0|0:0,0:0:0:0:
332,296,533358,1,2,0:0:0:0:
332,296,533715,2,0,B|376:328|376:328|440:336,1,112.500004291535,2|2,0:0|0:0,0:0:0:0:
228,192,534548,5,2,0:0:0:0:
348,56,534905,1,0,0:0:0:0:
228,192,535263,2,0,P|184:224|124:224,2,112.500004291535,2|0|2,0:0|0:0|0:0,0:0:0:0:
312,80,536215,1,2,0:0:0:0:
268,292,536572,2,0,P|320:320|372:316,1,112.500004291535,2|0,0:0|0:0,0:0:0:0:
492,284,537167,5,2,0:0:0:0:
240,372,537524,1,2,0:0:0:0:
492,284,537882,1,2,0:0:0:0:
444,360,538358,5,0,0:0:0:0:
144,240,538715,1,2,0:0:0:0:
444,360,539072,1,2,0:0:0:0:
408,240,539310,6,0,P|420:200|412:164,1,75.0000028610231
256,216,539786,2,0,P|244:256|252:292,1,75.0000028610231,0|2,0:0|0:0,0:0:0:0:
408,240,540263,1,0,0:0:0:0:
440,84,540501,2,0,P|380:84|340:120,1,112.500004291535,2|0,0:0|0:0,0:0:0:0:
316,148,540977,2,0,P|256:148|216:112,1,112.500004291535,2|2,0:0|0:0,0:0:0:0:
188,88,541453,5,0,0:0:0:0:
292,56,541691,1,2,0:0:0:0:
396,88,541929,1,0,0:0:0:0:
460,176,542167,2,0,L|464:292,2,112.500004291535,2|2|2,0:0|0:0|0:0,0:0:0:0:
308,328,543239,5,2,0:0:0:0:
308,328,543358,2,0,L|228:308,1,75.0000028610231,0|2,0:0|0:0,0:0:0:0:
120,276,543834,2,0,P|180:240|176:168,1,150.000005722046,2|0,0:0|0:0,0:0:0:0:
140,72,544548,1,2,0:0:0:0:
116,204,544786,5,8,0:3:0:0:
296,208,545144,2,0,L|344:220,1,44.999998626709,0|2,0:0|0:0,0:0:0:0:
456,244,545501,1,0,0:0:0:0:
412,136,545739,2,0,L|364:124,1,44.999998626709,2|0,0:0|0:0,0:0:0:0:
256,100,546096,1,2,0:0:0:0:
256,100,546215,6,0,P|244:56|256:8,1,89.9999972534181,0|0,0:0|0:0,0:0:0:0:
180,212,546691,2,0,P|192:168|180:120,1,89.9999972534181,8|0,0:3|0:0,0:0:0:0:
100,252,547167,2,0,P|88:208|100:160,1,89.9999972534181,2|2,0:0|0:0,0:0:0:0:
16,352,547643,2,0,P|28:308|16:260,1,89.9999972534181,0|0,0:0|0:0,0:0:0:0:
0,140,548120,5,2,0:0:0:0:
0,140,548358,1,0,0:0:0:0:
0,140,548596,2,0,P|20:76|80:60,2,134.999995880127,8|2|2,0:3|0:0|0:0,0:0:0:0:
100,200,549548,1,0,0:0:0:0:
192,272,549786,2,0,P|172:336|112:352,2,134.999995880127,2|2|8,0:0|0:0|0:3,0:0:0:0:
484,180,550977,5,2,0:0:0:0:
484,180,551215,2,0,B|392:180|436:272|344:272,1,179.999994506836,0|2,0:0|0:0,0:0:0:0:
148,128,551929,1,0,0:0:0:0:
248,216,552167,1,0,0:0:0:0:
356,136,552405,2,0,P|356:204|344:272,1,134.999995880127,8|2,0:3|0:0,0:0:0:0:
136,304,553120,2,0,P|128:216|152:120,1,179.999994506836,2|2,0:0|0:0,0:0:0:0:
68,348,553834,5,0,0:0:0:0:
48,232,554072,1,2,0:0:0:0:
80,120,554310,2,0,B|116:92|116:92|128:44,1,89.9999972534181,8|2,0:3|0:0,0:0:0:0:
156,192,554786,1,0,0:0:0:0:
303,150,555024,1,2,0:0:0:0:
303,150,555501,1,0,0:0:0:0:
450,108,555739,1,2,0:0:0:0:
248,364,556215,6,0,L|388:336,1,134.999995880127,4|2,0:2|0:0,0:0:0:0:
432,328,556691,2,0,L|440:232,1,89.9999972534181,0|2,0:0|0:0,0:0:0:0:
348,120,557167,2,0,L|348:216,1,89.9999972534181,8|2,0:3|0:0,0:0:0:0:
228,120,557644,2,0,L|220:64,1,44.999998626709,0|2,0:0|0:0,0:0:0:0:
40,264,558120,6,0,P|64:328|124:340,2,134.999995880127,4|2|2,0:0|0:0|0:0,0:0:0:0:
176,236,559072,1,8,0:3:0:0:
284,324,559310,2,0,B|312:328|344:312|344:312|368:296|368:296|416:304,1,134.999995880127,2|2,0:0|0:0,0:0:0:0:
296,216,560024,6,0,P|240:168|156:164,1,150,4|2,0:1|0:0,0:0:0:0:
104,196,560501,2,0,L|88:304,1,100,0|2,0:0|0:0,0:0:0:0:
104,124,560977,2,0,L|120:16,1,100,0|2,0:0|0:0,0:0:0:0:
40,160,561453,2,0,L|-4:192,2,50,0|2|0,0:0|0:0|0:0,0:0:0:0:
192,64,561929,5,8,0:3:0:0:
332,40,562167,1,2,0:0:0:0:
284,172,562405,1,0,0:0:0:0:
144,196,562644,1,2,0:0:0:0:
324,112,562882,5,0,0:0:0:0:
464,88,563120,1,0,0:0:0:0:
416,220,563358,1,2,0:0:0:0:
256,192,563477,12,2,564548,0:0:0:0:
122,209,565024,5,2,0:0:0:0:
85,344,565263,1,0,1:0:0:0:
220,380,565501,1,2,0:0:0:0:
256,244,565739,2,0,P|312:204|396:220,1,150,8|0,0:3|0:0,0:0:0:0:
436,240,566215,2,0,L|424:136,1,100,2|2,0:0|0:0,0:0:0:0:
408,20,566691,5,2,0:0:0:0:
32,148,567167,1,2,1:2:0:0:
408,20,567644,2,0,L|388:172,1,150,8|2,0:3|0:0,0:0:0:0:
380,224,568120,1,0,0:0:0:0:
220,124,568358,1,2,0:0:0:0:
32,148,568596,1,0,0:0:0:0:
108,300,568834,5,2,0:0:0:0:
244,340,569072,1,0,1:0:0:0:
324,224,569310,1,2,0:0:0:0:
184,212,569548,1,0,0:0:0:0:
244,340,569786,1,0,0:0:0:0:
380,376,570024,5,0,0:0:0:0:
480,276,570263,1,2,0:0:0:0:
420,148,570501,2,0,P|376:152|324:136,1,100,2|0,0:0|0:0,0:0:0:0:
204,64,570977,1,2,1:2:0:0:
256,192,571096,12,2,573120,0:0:0:0:
212,336,574072,5,2,0:0:0:0:
212,336,574310,1,0,1:0:0:0:
424,228,574786,1,0,1:0:0:0:
40,148,575263,1,4,1:1:0:0:
68,280,584310,6,0,L|172:264,1,100
304,248,584786,1,2,0:0:0:0:
184,172,585024,1,2,0:0:0:0:
420,140,585263,6,0,L|316:156,1,100
184,172,585739,1,2,0:0:0:0:
304,248,585977,1,2,0:0:0:0:
264,384,586215,6,0,P|328:344|400:348,1,150,2|0,0:0|0:0,0:0:0:0:
468,372,586691,1,2,0:0:0:0:
476,208,586929,1,2,0:3:0:0:
476,208,587048,1,2,0:3:0:0:
476,208,587167,2,0,P|424:216|376:192,1,100,2|0,0:3|0:0,0:0:0:0:
272,60,587644,1,2,0:3:0:0:
272,60,587763,1,2,0:3:0:0:
272,60,587882,1,2,0:3:0:0:
272,60,588001,1,2,0:3:0:0:
272,60,588120,2,0,P|224:64|176:84,1,100,2|0,0:3|0:0,0:0:0:0:
256,192,588596,12,4,590024,0:3:0:0:
208,220,590501,6,0,B|224:148|288:164|304:92,2,165.000005035401,4|0|2,0:1|1:0|0:0,0:0:0:0:
320,256,591453,1,0,0:0:0:0:
208,312,591691,1,0,1:0:0:0:
76,312,591929,1,4,0:3:0:0:
76,312,592048,1,0,1:0:0:0:
304,220,592405,6,0,B|288:148|224:164|208:92,2,165.000005035401,2|2|2,0:0|1:2|0:0,0:0:0:0:
192,256,593358,1,0,0:0:0:0:
304,312,593596,1,0,1:0:0:0:
436,312,593834,1,4,0:3:0:0:
436,312,593953,1,0,1:0:0:0:
208,220,594310,6,0,P|152:164|176:88,2,165.000005035401,2|0|2,0:0|1:0|0:0,0:0:0:0:
316,36,595263,1,0,0:0:0:0:
80,68,595501,2,0,P|64:148|80:228,1,165.000005035401,0|0,1:0|1:0,0:0:0:0:
304,220,596215,6,0,P|360:164|336:88,2,165.000005035401,2|0|2,0:0|1:0|0:0,0:0:0:0:
196,36,597167,1,0,0:0:0:0:
432,68,597405,2,0,P|448:148|432:228,1,165.000005035401,0|0,1:0|1:0,0:0:0:0:
256,168,598120,5,2,0:0:0:0:
344,320,598477,1,0,1:0:0:0:
344,320,598596,1,0,0:0:0:0:
256,256,598834,1,2,0:0:0:0:
192,144,599072,5,0,0:0:0:0:
192,144,599310,2,0,P|256:100|320:144,1,165.000005035401,0|0,1:0|1:0,0:0:0:0:
256,340,600024,5,2,0:0:0:0:
123,111,600381,1,0,1:0:0:0:
123,111,600501,1,0,0:0:0:0:
256,192,600738,1,2,0:0:0:0:
192,316,600977,5,0,0:0:0:0:
192,316,601215,2,0,P|256:272|320:316,1,165.000005035401,2|0,1:2|1:0,0:0:0:0:
76,272,601929,5,2,0:0:0:0:
76,272,602286,1,2,1:2:0:0:
76,272,602405,2,0,P|108:228|100:176,1,110.000003356934,2|0,0:0|0:0,0:0:0:0:
64,52,602882,1,0,0:0:0:0:
192,36,603120,2,0,P|272:72|352:52,1,165.000005035401,2|0,1:2|1:0,0:0:0:0:
436,272,603834,5,2,0:0:0:0:
436,272,604191,1,2,1:2:0:0:
436,272,604310,2,0,P|404:228|412:176,1,110.000003356934,2|0,0:0|0:0,0:0:0:0:
344,56,604786,1,0,0:0:0:0:
224,116,605024,2,0,P|176:144|120:140,2,110.000003356934,2|4|0,0:0|0:3|0:0,0:0:0:0:
16,124,605739,6,0,P|96:136|104:216,1,165.000005035401,4|2,0:1|1:2,0:0:0:0:
92,288,606215,2,0,P|144:264|200:276,1,110.000003356934,0|2,0:0|0:0,0:0:0:0:
384,360,606691,1,0,0:0:0:0:
264,232,606929,6,0,P|236:180|244:128,1,110.000003356934,0|0,1:0|0:0,0:0:0:0:
324,168,607286,2,0,P|348:88|316:16,2,165.000005035401,0|2|2,1:0|0:0|1:2,0:0:0:0:
264,232,608120,1,0,0:0:0:0:
104,352,608358,1,2,0:0:0:0:
256,336,608596,1,0,0:0:0:0:
408,352,608834,6,0,P|464:352|512:316,1,110.000003356934,0|0,1:0|0:0,0:0:0:0:
440,272,609191,2,0,P|432:192|440:108,2,165.000005035401,0|0|0,0:0|0:0|1:0,0:0:0:0:
408,352,610024,6,0,P|368:320|308:308,1,110.000003356934,0|2,0:0|0:0,0:0:0:0:
160,328,610501,1,0,0:0:0:0:
104,184,610739,6,0,B|140:196|140:196|180:188|212:208,1,110.000003356934,0|0,1:0|0:0,0:0:0:0:
268,256,611096,1,0,1:0:0:0:
56,164,611453,2,0,P|136:120|212:128,1,165.000005035401,2|2,0:0|1:2,0:0:0:0:
284,140,611929,2,0,P|344:144|392:116,1,110.000003356934,0|2,0:0|0:0,0:0:0:0:
276,232,612405,6,0,P|264:292|232:332,1,110.000003356934,2|0,0:0|1:0,0:0:0:0:
144,312,612763,2,0,L|104:204,1,110.000003356934,0|0,0:0|1:0,0:0:0:0:
72,292,613120,2,0,P|80:122|179:257,1,440.000013427735,2|2,0:0|0:0,0:0:0:0:
308,152,614548,1,2,0:0:0:0:
348,240,614786,6,0,L|460:252,1,110.000003356934,0|0,0:0|0:0,0:0:0:0:
308,152,615263,2,0,L|420:164,1,110.000003356934,0|2,0:0|0:0,0:0:0:0:
94,163,615739,2,0,L|204:152,1,110.000003356934,0|0,0:0|0:0,0:0:0:0:
54,251,616216,2,0,L|164:240,1,110.000003356934,0|2,0:0|0:0,0:0:0:0:
256,64,616691,5,0,0:0:0:0:
256,64,616810,1,2,0:0:0:0:
256,64,616929,2,0,P|312:72|376:56,1,110.000003356934,0|0,0:0|0:0,0:0:0:0:
52,252,617524,1,2,0:0:0:0:
452,24,617882,1,2,0:0:0:0:
60,24,618358,5,2,0:0:0:0:
456,252,618715,1,0,0:0:0:0:
140,120,619072,1,2,0:0:0:0:
372,120,619429,1,0,0:0:0:0:
256,324,619786,1,2,0:0:0:0:
184,152,620144,5,0,0:0:0:0:
184,152,620263,1,2,0:0:0:0:
328,152,620501,1,0,0:0:0:0:
328,152,620620,1,2,0:0:0:0:
