osu file format v14

[General]
AudioFilename: transparent.mp3
AudioLeadIn: 0
PreviewTime: 62929
Countdown: 1
SampleSet: Normal
StackLeniency: 0.7
Mode: 0
LetterboxInBreaks: 1
WidescreenStoryboard: 1

[Editor]
Bookmarks: 86642,98139,167121,178618,190115,205923,208798
DistanceSpacing: 0.7
BeatDivisor: 4
GridSize: 4
TimelineZoom: 1

[Metadata]
Title:Transparent Stardust
TitleUnicode:Transparent Stardust
Artist:DystopiaGround
ArtistUnicode:DystopiaGround
Creator:Skystar
Version:Zweib
Source:
Tags:Zweib Kodora alacat nao skystar
BeatmapID:304844
BeatmapSetID:96695

[Difficulty]
HPDrainRate:5
CircleSize:4
OverallDifficulty:7
ApproachRate:9
SliderMultiplier:1.6
SliderTickRate:1

[Events]
//Background and Video events
0,0,"BBG.jpg",0,0
//Break Periods
2,86842,95265
2,167321,178018
//Storyboard Layer 0 (Background)
//Storyboard Layer 1 (Fail)
//Storyboard Layer 2 (Pass)
//Storyboard Layer 3 (Foreground)
//Storyboard Sound Samples

[TimingPoints]
415,359.281437125748,4,1,1,5,1,0
4906,-100,4,1,1,45,0,0
17660,-100,4,1,1,35,0,0
62211,-200,4,1,1,35,0,0
63289,-66.6666666666667,4,1,1,35,0,0
63648,-100,4,1,1,55,0,1
86642,-100,4,1,1,45,0,0
144127,-100,4,1,1,55,0,1
167121,-100,4,1,1,45,0,0
204486,-83.3333333333333,4,1,1,45,0,0
205025,-66.6666666666667,4,1,1,55,0,0
205564,-55.5555555555556,4,1,1,65,0,0
205744,-166.666666666667,4,1,1,45,0,0
206373,-166.666666666667,4,2,1,25,0,0
208798,-125,4,2,1,35,0,0
218139,-100,4,2,1,45,0,0
219935,-66.6666666666667,4,1,1,45,0,0
220295,-100,4,1,1,55,0,1
231792,-100,4,1,1,45,0,0
247600,-100,4,1,1,45,0,0
249037,-100,4,1,1,30,0,0
250474,-100,4,1,1,15,0,0
251912,-100,4,2,1,5,0,0

[Colours]
Combo1 : 150,150,150
Combo2 : 255,255,255
Combo3 : 221,221,221
Combo4 : 191,191,191

[HitObjects]
256,192,415,12,0,4726,0:0:0:0:
136,208,5444,6,0,P|104:260|124:344,1,120,2|2,2:2|2:2,0:0:0:0:
376,168,5983,2,0,P|400:112|398:94,1,80,2|2,2:2|2:2,0:0:0:0:
248,204,7420,1,2,2:2:0:0:
252,196,7510,1,2,2:2:0:0:
256,188,7600,5,2,2:2:0:0:
120,104,8139,1,2,2:0:0:0:
388,148,8678,1,2,2:0:0:0:
176,256,9037,6,0,P|104:288|24:252,1,160,2|0,2:0|0:0,2:0:0:0:
256,192,9576,1,0,2:0:0:0:
336,128,9756,2,0,P|408:96|488:132,1,160,2|0,2:0|0:0,2:0:0:0:
268,168,10295,1,0,2:0:0:0:
264,176,10385,1,0,2:0:0:0:
260,184,10474,6,0,P|356:212|420:168,1,160
296,248,11013,2,0,P|216:228|128:260,1,160
36,304,11552,2,0,L|32:360,2,40
48,104,11912,6,0,P|92:144|192:168,2,160
356,8,12989,1,0,0:0:0:0:
392,144,13169,1,0,0:0:0:0:
404,152,13259,1,0,0:0:0:0:
416,160,13349,6,0,P|336:200|320:268,1,160
184,192,13888,2,0,P|236:216|344:196,1,160
268,88,14426,1,0,0:0:0:0:
192,208,14606,1,0,0:0:0:0:
188,200,14696,1,0,0:0:0:0:
184,192,14786,6,0,P|148:264|72:304,2,160
56,172,15684,1,0,0:0:0:0:
184,64,15864,1,0,0:0:0:0:
348,104,16043,6,0,L|400:120,2,40
436,220,16403,2,0,L|476:236,2,40
352,336,16762,1,0,0:0:0:0:
336,328,16852,1,0,0:0:0:0:
320,320,16941,1,0,0:0:0:0:
256,212,17121,1,0,0:0:0:0:
240,204,17211,1,0,0:0:0:0:
224,196,17301,2,0,L|236:256,1,40
432,200,17480,1,0,0:0:0:0:
416,192,17570,1,0,0:0:0:0:
400,184,17660,6,0,P|436:152|440:40,1,160,2|2,0:0|0:0,0:0:0:0:
504,124,18199,2,0,P|424:132|352:92,1,160,0|0,0:0|0:0,0:0:0:0:
308,8,18738,1,0,0:0:0:0:
444,48,18917,1,0,0:0:0:0:
400,184,19097,5,2,0:0:0:0:
264,148,19277,1,0,0:0:0:0:
356,96,19456,1,2,0:0:0:0:
400,184,19636,1,0,0:0:0:0:
308,244,19816,1,2,0:0:0:0:
296,240,19906,1,0,0:0:0:0:
284,236,19995,2,0,P|248:264|232:312,2,80,0|2|0,0:0|0:0|0:0,0:0:0:0:
376,144,20534,6,0,P|304:176|220:144,1,160,2|2,0:0|0:0,0:0:0:0:
96,252,21073,2,0,P|136:212|256:212,2,160,0|0|0,0:0|0:0|0:0,0:0:0:0:
0,72,21971,6,0,L|92:60,1,80,2|0,0:0|0:0,0:0:0:0:
216,112,22331,2,0,L|116:124,1,80,2|0,0:0|0:0,0:0:0:0:
292,152,22690,1,2,0:0:0:0:
324,148,22780,1,0,0:0:0:0:
360,144,22870,1,0,0:0:0:0:
508,180,23049,2,0,L|408:192,1,80,2|0,0:0|0:0,0:0:0:0:
168,300,23409,6,0,P|148:240|60:188,1,160,0|2,0:0|0:0,0:0:0:0:
60,368,23947,2,0,P|101:294|183:315,1,160,0|0,0:0|0:0,0:0:0:0:
16,228,24486,1,0,0:0:0:0:
168,300,24666,1,0,0:0:0:0:
152,160,24846,6,0,P|120:192|104:236,1,80,2|0,0:0|0:0,0:0:0:0:
320,168,25205,2,0,P|352:140|368:104,1,80,2|0,0:0|0:0,0:0:0:0:
240,0,25564,1,2,0:0:0:0:
192,152,25744,1,0,0:0:0:0:
367,106,25923,1,2,0:0:0:0:
464,192,26103,6,0,P|476:224|476:276,2,80,0|2|0,0:0|0:0|0:0,0:0:0:0:
367,106,26642,1,2,0:0:0:0:
256,160,26822,2,0,P|232:188|220:232,2,80,2|0|2,0:0|0:0|0:0,0:0:0:0:
367,106,27361,2,0,P|387:158|339:194,1,120,2|0,0:0|0:0,0:0:0:0:
353,160,27720,6,0,L|324:264,1,80,2|0,0:0|0:0,0:0:0:0:
280,276,27989,6,0,P|272:220|260:188,1,80,0|0,0:0|0:0,0:0:0:0:
204,168,28259,5,0,0:0:0:0:
88,304,28438,6,0,P|48:304|8:292,1,80,2|0,0:0|0:0,0:0:0:0:
108,368,28708,6,0,L|147:373,2,40,0|2|0,0:0|0:0|0:0,0:0:0:0:
224,275,28977,6,0,L|264:283,1,40,0|0,0:0|0:0,0:0:0:0:
368,288,29157,6,0,P|440:304|480:212,1,160,2|2,0:0|0:0,0:0:0:0:
340,360,29696,2,0,P|368:280|336:204,1,160
264,284,30235,1,0,0:0:0:0:
448,344,30414,1,0,0:0:0:0:
304,176,30594,5,2,0:0:0:0:
340,360,30774,1,0,0:0:0:0:
487,242,30953,1,2,0:0:0:0:
412,156,31133,1,0,0:0:0:0:
304,176,31313,1,2,0:0:0:0:
232,92,31492,1,0,0:0:0:0:
56,104,31672,2,0,P|92:84|144:76,1,80,2|0,0:0|0:0,0:0:0:0:
152,312,32031,6,0,P|112:332|68:332,1,80,2|0,0:0|0:0,0:0:0:0:
216,196,32391,1,2,0:0:0:0:
316,348,32570,2,0,P|320:296|308:248,1,80,0|0,0:0|0:0,0:0:0:0:
216,196,32929,2,0,P|256:156|304:144,2,80,0|0|0,0:0|0:0|0:0,0:0:0:0:
440,244,33468,6,0,P|428:196|404:168,1,80,2|0,0:0|0:0,0:0:0:0:
256,48,33828,1,2,0:0:0:0:
384,64,34007,2,0,P|444:84|512:160,1,160
496,272,34546,1,2,0:0:0:0:
400,352,34726,2,0,L|388:384,3,20,0|0|0|2,0:0|2:2|2:2|2:0,0:0:0:0:
392,344,34906,6,0,P|342:343|296:328,1,80,2|0,0:0|0:0,0:0:0:0:
268,156,35265,1,2,0:0:0:0:
228,336,35444,2,0,P|184:288|148:276,1,80,0|0,0:0|0:0,0:0:0:0:
272,144,35804,1,0,0:0:0:0:
76,256,35983,1,0,0:0:0:0:
168,160,36163,1,0,0:0:0:0:
160,152,36253,1,0,0:0:0:0:
152,144,36343,6,0,P|144:100|144:56,1,80,2|0,0:0|0:0,0:0:0:0:
380,112,36702,2,0,P|388:152|384:208,1,80,2|0,0:0|0:0,0:0:0:0:
276,132,37061,1,2,0:0:0:0:
444,28,37241,1,0,0:0:0:0:
376,208,37420,1,2,0:0:0:0:
320,24,37600,1,0,0:0:0:0:
480,148,37780,6,0,P|496:220|496:316,1,160,2|2,0:0|0:0,0:0:0:0:
497,305,38319,1,0,0:0:0:0:
497,305,38678,1,0,0:0:0:0:
316,364,38858,1,2,0:0:0:0:
136,344,39037,6,0,P|124:268|124:266,2,80,0|2|0,0:0|0:0|0:0,0:0:0:0:
144,332,39486,1,0,0:0:0:0:
152,320,39576,1,0,0:0:0:0:
260,252,39756,1,0,0:0:0:0:
248,228,39846,1,0,0:0:0:0:
236,204,39935,2,0,L|216:160,1,40,2|0,0:0|0:0,0:0:0:0:
48,172,40115,1,0,0:0:0:0:
56,136,40205,1,0,0:0:0:0:
64,100,40295,2,0,P|116:120|188:92,1,120,2|0,0:0|0:0,0:0:0:0:
212,72,40654,6,0,P|300:64|364:144,1,160,0|0,0:0|0:0,0:0:0:0:
384,200,41193,1,2,0:0:0:0:
452,120,41373,2,0,P|481:157|492:208,2,80,8|0|0,0:0|0:0|0:0,0:0:0:0:
384,200,41912,2,0,P|312:216|264:296,1,160,2|0,0:0|0:0,0:0:0:0:
364,296,42450,1,0,0:0:0:0:
192,208,42630,2,0,P|164:288|176:388,1,160,2|0,0:0|0:0,0:0:0:0:
168,361,43079,1,0,0:0:0:0:
168,361,43169,1,0,0:0:0:0:
192,208,43349,1,0,0:0:0:0:
60,148,43528,6,0,P|100:196|212:200,1,160,2|0,0:0|0:0,0:0:0:0:
268,132,44067,1,2,0:0:0:0:
156,112,44247,2,0,P|150:89|158:33,2,80,8|0|0,0:0|0:0|0:0,0:0:0:0:
192,208,44786,2,0,P|120:216|60:296,1,160,2|0,0:0|0:0,0:0:0:0:
167,312,45325,1,0,0:0:0:0:
264,284,45504,1,2,0:0:0:0:
336,368,45684,5,0,0:0:0:0:
364,368,45774,1,0,0:0:0:0:
380,348,45864,1,0,0:0:0:0:
408,336,45953,1,0,0:0:0:0:
412,312,46043,1,0,0:0:0:0:
440,296,46133,1,0,0:0:0:0:
440,272,46223,1,0,0:0:0:0:
456,252,46313,1,0,0:0:0:0:
452,228,46403,6,0,P|468:152|432:60,1,160,2|0,0:0|0:0,0:0:0:0:
356,8,46941,1,2,0:0:0:0:
308,96,47121,2,0,P|320:128|356:168,2,80,8|0|0,0:0|0:0|0:0,0:0:0:0:
208,56,47660,2,0,P|104:80|52:124,1,160,2|0,0:0|0:0,0:0:0:0:
4,216,48199,1,0,0:0:0:0:
164,168,48379,1,2,0:0:0:0:
108,272,48558,1,0,0:0:0:0:
96,300,48648,1,0,0:0:0:0:
84,328,48738,2,0,L|128:328,1,40
256,280,48917,1,0,0:0:0:0:
272,288,49007,1,0,0:0:0:0:
288,296,49097,1,2,0:0:0:0:
448,264,49277,6,0,P|408:240|356:224,1,80,2|0,0:0|0:0,0:0:0:0:
256,192,49636,1,0,0:0:0:0:
64,188,49816,2,0,P|112:180|156:160,1,80,0|2,0:0|0:0,0:0:0:0:
320,48,50175,2,0,P|368:24|416:8,2,80
236,176,50714,6,0,P|244:244|252:272,1,80,2|0,0:0|0:0,0:0:0:0:
96,88,51073,2,0,P|92:44|92:0,1,80,2|2,0:0|0:0,0:0:0:0:
4,116,51343,2,0,L|12:76,1,40,0|8,0:0|0:0,0:0:0:0:
160,228,51612,1,0,0:0:0:0:
164,244,51702,1,0,0:0:0:0:
168,256,51792,2,0,P|220:284|268:292,1,80,2|0,0:0|0:0,0:0:0:0:
160,368,52151,6,0,P|216:324|320:312,1,160,2|2,0:0|0:0,0:0:0:0:
400,360,52690,1,0,0:0:0:0:
445,262,52870,2,0,P|453:206|449:166,2,80,2|0|2,0:0|0:0|0:0,0:0:0:0:
512,204,53409,2,0,P|436:164|424:76,1,160
452,184,53947,2,0,P|356:160|276:188,1,160,2|2,0:0|0:0,0:0:0:0:
220,240,54486,1,0,0:0:0:0:
148,172,54666,2,0,P|128:124|128:76,1,80,2|0,0:0|0:0,0:0:0:0:
244,156,55025,6,0,P|235:216|140:276,1,160,0|2,0:0|0:0,0:0:0:0:
0,212,55564,1,0,0:0:0:0:
16,232,55654,1,0,0:0:0:0:
32,252,55744,2,0,L|40:344,1,80,2|0,0:0|0:0,0:0:0:0:
68,236,56013,2,0,L|80:152,1,80
136,112,56283,1,0,0:0:0:0:
248,56,56462,6,0,P|336:48|392:80,2,120,2|0|0,0:0|0:0|0:0,0:0:0:0:
464,136,57181,2,0,P|364:144|336:128,2,120,2|0|0,0:0|0:0|0:0,0:0:0:0:
476,152,57810,1,0,0:0:0:0:
488,168,57900,5,2,0:0:0:0:
472,320,58079,1,0,0:0:0:0:
488,296,58169,1,0,0:0:0:0:
504,272,58259,1,2,0:0:0:0:
368,268,58438,1,0,0:0:0:0:
336,276,58528,1,0,0:0:0:0:
304,284,58618,1,2,0:0:0:0:
152,200,58798,1,0,0:0:0:0:
176,228,58888,1,0,0:0:0:0:
200,256,58977,2,0,L|207:295,1,40,2|0,0:0|0:0,0:0:0:0:
312,148,59157,2,0,L|305:109,1,40
160,72,59337,6,0,P|64:84|20:120,1,120,2|0,0:0|0:0,0:0:0:0:
4,140,59696,1,2,0:0:0:0:
220,72,59876,2,0,P|268:64|312:40,2,80,0|2|0,0:0|0:0|0:0,0:0:0:0:
128,200,60414,2,0,L|124:252,1,40,2|0,0:0|0:0,0:0:0:0:
256,232,60594,2,0,L|292:196,1,40
344,128,60774,5,2,0:0:0:0:
448,256,60953,2,0,L|388:264,1,40
280,336,61133,2,0,L|340:328,1,40
288,180,61313,5,2,0:0:0:0:
124,272,61492,2,0,L|132:216,1,40
136,80,61672,2,0,L|164:128,1,40
256,248,61852,6,0,P|248:196|256:164,1,80,2|0,0:0|0:0,0:0:0:0:
256,300,62211,6,0,P|284:220|248:100,1,200,0|0,0:0|0:0,0:0:0:0:
244,148,63289,6,0,P|232:195|248:272,1,120.000004577637
368,384,63558,1,0,0:0:0:0:
368,384,63648,6,0,P|373:342|396:288,1,80,6|0,0:0|0:0,0:0:0:0:
472,220,63917,1,0,0:0:0:0:
472,220,64007,2,0,P|424:218|384:212,1,80,2|0,0:0|0:0,0:0:0:0:
232,64,64367,2,0,P|292:68|320:72,2,80,2|0|2,0:0|0:0|0:0,0:0:0:0:
48,128,64906,1,0,0:0:0:0:
40,136,64995,1,0,0:0:0:0:
32,144,65085,2,0,P|92:132|120:132,1,80,2|0,0:0|0:0,0:0:0:0:
304,256,65444,1,2,0:0:0:0:
136,292,65624,2,0,P|168:256|188:220,1,80,0|2,0:0|0:0,0:0:0:0:
12,280,65983,2,0,P|12:328|20:360,2,80,0|2|0,0:0|0:0|0:0,0:0:0:0:
448,196,66522,6,0,P|392:196|336:228,1,120,2|0,0:0|0:0,0:0:0:0:
408,172,66882,2,0,P|456:136|476:104,1,80,2|0,0:0|0:0,0:0:0:0:
324,132,67241,1,2,0:0:0:0:
336,224,67420,1,0,0:0:0:0:
408,172,67600,1,2,0:0:0:0:
248,188,67780,1,0,0:0:0:0:
420,264,67959,5,2,0:0:0:0:
396,80,68139,1,0,0:0:0:0:
292,316,68319,1,2,0:0:0:0:
512,160,68498,1,0,0:0:0:0:
260,60,68678,2,0,L|252:12,1,40,2|0,0:0|0:0,0:0:0:0:
100,120,68858,2,0,L|104:68,1,40
204,216,69037,1,2,0:0:0:0:
64,264,69217,1,0,0:0:0:0:
352,296,69397,6,0,P|284:292|208:320,1,120,2|0,0:0|0:0,0:0:0:0:
172,344,69756,2,0,P|216:344|264:356,1,80,2|0,0:0|0:0,0:0:0:0:
424,372,70115,1,2,0:0:0:0:
352,296,70295,1,0,0:0:0:0:
496,192,70474,1,2,0:0:0:0:
492,328,70654,1,0,0:0:0:0:
356,160,70834,6,0,P|272:188|240:176,1,120,2|0,0:0|0:0,0:0:0:0:
212,160,71193,1,2,0:0:0:0:
372,112,71373,2,0,P|412:88|488:100,1,120,0|0,0:0|0:0,0:0:0:0:
512,116,71732,1,0,0:0:0:0:
432,212,71912,1,2,0:0:0:0:
280,76,72091,2,0,L|272:28,1,40,0|0,0:0|0:0,0:0:0:0:
136,44,72271,6,0,P|92:52|52:72,1,80,2|0,0:0|0:0,0:0:0:0:
12,196,72540,1,0,0:0:0:0:
12,196,72630,2,0,P|64:188|108:164,1,80,2|0,0:0|0:0,0:0:0:0:
244,208,72900,1,0,0:0:0:0:
244,208,72989,2,0,P|276:152|244:92,1,120,2|0,0:0|0:0,0:0:0:0:
128,256,73349,2,0,L|132:296,1,40,2|0,0:0|0:0,0:0:0:0:
304,304,73528,2,0,L|312:348,1,40,0|0,0:0|0:0,0:0:0:0:
244,208,73708,2,0,P|312:188|400:240,1,160,2|2,0:0|0:0,0:0:0:0:
480,344,74157,2,0,L|492:384,2,40,0|0|0,0:0|0:0|0:0,0:0:0:0:
456,164,74426,6,0,P|400:184|352:180,1,80,2|0,0:0|0:0,0:0:0:0:
296,180,74696,1,0,0:0:0:0:
296,180,74786,1,2,0:0:0:0:
248,20,74965,2,0,L|260:64,1,40,0|0,0:0|0:0,0:0:0:0:
384,72,75145,5,2,0:0:0:0:
160,128,75325,1,0,0:0:0:0:
248,20,75504,1,2,0:0:0:0:
296,180,75684,1,0,0:0:0:0:
88,52,75864,2,0,P|132:36|184:32,1,80,2|0,0:0|0:0,0:0:0:0:
224,204,76223,2,0,P|192:216|128:220,1,80,2|0,0:0|0:0,0:0:0:0:
16,200,76492,1,0,0:0:0:0:
16,200,76582,6,0,P|18:248|12:300,1,80,2|0,0:0|0:0,0:0:0:0:
160,128,76941,1,2,0:0:0:0:
340,192,77121,2,0,P|356:152|360:104,1,80,0|2,0:0|0:0,0:0:0:0:
408,320,77480,2,0,P|340:284|228:308,1,160,0|0,0:0|0:0,0:0:0:0:
96,328,78019,2,0,P|168:336|224:308,1,120,2|0,0:0|0:0,0:0:0:0:
210,318,78379,1,2,0:0:0:0:
172,176,78558,1,0,0:0:0:0:
296,224,78738,2,0,P|304:188|300:140,2,80,2|0|2,0:0|0:0|0:0,0:0:0:0:
210,318,79277,1,0,0:0:0:0:
80,272,79456,6,0,P|40:192|52:112,2,160,2|2|2,0:0|0:0|0:0,0:0:0:0:
160,344,80355,1,0,0:0:0:0:
192,336,80444,1,0,0:0:0:0:
224,328,80534,2,0,L|224:376,1,40,2|0,0:0|0:0,0:0:0:0:
328,300,80714,2,0,L|332:256,1,40,0|0,0:0|0:0,0:0:0:0:
436,268,80894,6,0,L|464:168,1,80,2|0,0:0|0:0,0:0:0:0:
296,68,81253,1,2,0:0:0:0:
480,216,81432,2,0,L|448:120,1,80,0|2,0:0|0:0,0:0:0:0:
264,88,81792,1,0,0:0:0:0:
484,148,81971,2,0,L|412:92,1,80,2|0,0:0|0:0,0:0:0:0:
248,120,82331,5,2,0:0:0:0:
52,160,82510,1,0,0:0:0:0:
60,196,82600,1,0,0:0:0:0:
68,228,82690,1,2,0:0:0:0:
64,92,82870,2,0,L|128:180,1,80,0|2,0:0|0:0,0:0:0:0:
240,160,83229,1,0,0:0:0:0:
80,32,83409,1,2,0:0:0:0:
228,20,83588,1,0,0:0:0:0:
240,160,83768,6,0,P|296:160|336:148,1,80,2|0,0:0|0:0,0:0:0:0:
396,128,84037,1,0,0:0:0:0:
396,128,84127,1,2,0:0:0:0:
332,264,84307,1,0,0:0:0:0:
212,268,84486,2,0,P|168:272|120:288,1,80,2|0,0:0|0:0,0:0:0:0:
64,324,84756,1,0,0:0:0:0:
64,324,84846,1,2,0:0:0:0:
232,360,85025,1,0,0:0:0:0:
244,348,85115,1,0,0:0:0:0:
256,336,85205,6,0,L|296:324,1,40,2|0,0:0|0:0,0:0:0:0:
424,284,85385,1,0,0:0:0:0:
404,264,85474,1,0,0:0:0:0:
380,244,85564,2,0,L|330:234,1,40,2|0,0:0|0:0,0:0:0:0:
244,196,85744,5,0,0:0:0:0:
288,176,85834,1,0,0:0:0:0:
320,136,85923,1,2,0:0:0:0:
308,88,86013,1,0,0:0:0:0:
268,60,86103,1,0,0:0:0:0:
220,80,86193,1,0,0:0:0:0:
216,128,86283,1,2,0:0:0:0:
256,160,86373,1,0,0:0:0:0:
300,144,86462,1,0,0:0:0:0:
348,144,86552,1,0,0:0:0:0:
388,176,86642,5,2,0:0:0:0:
104,36,96163,6,0,L|84:84,1,40,0|0,0:0|0:0,0:0:0:0:
56,104,96343,2,0,L|60:144,1,40,2|0,0:0|0:0,0:0:0:0:
40,188,96522,2,0,L|48:227,3,40,0|0|2|0,0:0|0:0|0:0|0:0,0:0:0:0:
44,268,96882,2,0,L|88:292,3,40,0|0|2|0,0:0|0:0|0:0|0:0,0:0:0:0:
120,280,97241,5,0,0:0:0:0:
144,308,97331,1,0,0:0:0:0:
192,320,97420,1,2,0:0:0:0:
240,316,97510,1,0,0:0:0:0:
284,296,97600,1,0,0:0:0:0:
312,256,97690,1,0,0:0:0:0:
352,228,97780,1,2,0:0:0:0:
400,224,97870,1,0,0:0:0:0:
444,204,97959,1,0,0:0:0:0:
464,160,98049,1,0,0:0:0:0:
456,112,98139,6,0,P|380:92|360:48,1,120,2|0,0:0|0:0,0:0:0:0:
348,12,98498,1,2,0:0:0:0:
456,112,98678,2,0,P|388:135|288:148,1,160,0|0,0:0|0:0,0:0:0:0:
140,192,99217,1,2,0:0:0:0:
252,288,99397,1,0,0:0:0:0:
301,147,99576,6,0,P|282:101|266:73,1,80,2|0,0:0|0:0,0:0:0:0:
104,36,99935,2,0,P|120:80|136:108,1,80,2|0,0:0|0:0,0:0:0:0:
0,272,100295,1,2,0:0:0:0:
8,244,100385,1,0,0:0:0:0:
16,216,100474,1,0,0:0:0:0:
192,232,100654,1,2,0:0:0:0:
128,348,100834,2,0,L|113:333,3,20,0|0|0|0,0:0|2:0|2:0|2:0,0:0:0:0:
160,352,101013,6,0,P|204:348|254:338,1,80,2|0,0:0|0:0,0:0:0:0:
288,160,101373,1,2,0:0:0:0:
456,264,101552,2,0,P|411:270|372:280,1,80,0|2,0:0|0:0,0:0:0:0:
512,88,101912,2,0,L|505:167,1,80,0|2,0:0|0:0,0:0:0:0:
276,52,102271,1,0,0:0:0:0:
284,48,102361,1,0,0:0:0:0:
292,44,102450,6,0,P|352:48|380:52,1,80,2|0,0:0|0:0,0:0:0:0:
500,176,102810,2,0,P|426:190|400:192,1,80,2|0,0:0|0:0,0:0:0:0:
240,180,103169,2,0,L|200:160,1,40,2|0,0:0|0:0,0:0:0:0:
240,180,103349,1,0,0:0:0:0:
184,296,103528,1,2,0:0:0:0:
72,236,103708,2,0,L|60:252,1,20,0|0,0:0|2:0,0:0:0:0:
64,220,103798,2,0,L|48:236,1,20,0|0,2:0|2:0,0:0:0:0:
64,204,103888,6,0,P|54:159|64:116,1,80,2|0,0:0|0:0,0:0:0:0:
200,232,104247,1,2,0:0:0:0:
388,284,104426,2,0,L|272:300,1,80,0|2,0:0|0:0,0:0:0:0:
292,148,104786,1,0,0:0:0:0:
464,276,104965,1,2,0:0:0:0:
312,292,105145,1,0,0:0:0:0:
292,148,105325,5,2,0:0:0:0:
444,132,105504,1,0,0:0:0:0:
512,192,105684,5,2,0:0:0:0:
364,92,105864,1,0,0:0:0:0:
252,228,106043,2,0,P|291:233|332:236,1,80,2|0,0:0|0:0,0:0:0:0:
124,248,106403,2,0,P|96:256|32:248,1,80,2|0,0:0|0:0,0:0:0:0:
80,144,106762,6,0,P|72:124|64:92,2,40,2|0|0,0:0|0:0|0:0,0:0:0:0:
172,92,107121,2,0,P|204:84|256:84,1,80,2|0,0:0|0:0,0:0:0:0:
496,136,107480,2,0,L|504:80,2,40,2|0|0,0:0|0:0|0:0,0:0:0:0:
508,236,107840,2,0,P|444:252|416:276,1,80,2|0,0:0|0:0,0:0:0:0:
368,364,108199,5,2,0:0:0:0:
368,364,108289,1,0,0:0:0:0:
504,368,108468,1,0,0:0:0:0:
504,368,108558,1,2,0:0:0:0:
508,236,108738,1,0,0:0:0:0:
300,128,108917,5,2,0:0:0:0:
300,128,109007,2,0,L|296:60,1,40,0|0,0:0|0:0,0:0:0:0:
192,220,109187,1,0,0:0:0:0:
192,220,109277,2,0,L|204:168,1,40,2|0,0:0|0:0,0:0:0:0:
76,204,109456,2,0,L|60:144,1,40,0|0,0:0|0:0,0:0:0:0:
12,352,109636,6,0,P|36:312|124:304,1,120,2|0,0:0|0:0,0:0:0:0:
163,343,109995,2,0,P|144:360|92:372,1,80,2|0,0:0|0:0,0:0:0:0:
24,248,110355,2,0,P|8:214|0:144,1,80,2|0,0:0|0:0,0:0:0:0:
0,100,110624,1,0,0:0:0:0:
0,100,110714,1,2,0:0:0:0:
228,100,110894,6,0,L|164:164,1,80,0|2,0:0|0:0,0:0:0:0:
372,64,111253,2,0,L|344:139,1,80,0|2,0:0|0:0,0:0:0:0:
504,20,111612,2,0,L|496:100,2,80,0|2|0,0:0|0:0|0:0,0:0:0:0:
344,140,112151,1,2,0:0:0:0:
504,20,112331,1,0,0:0:0:0:
512,196,112510,2,0,L|480:288,1,80,2|0,0:0|0:0,0:0:0:0:
344,140,112870,1,2,0:0:0:0:
372,280,113049,6,0,L|356:360,1,80,0|2,0:0|0:0,0:0:0:0:
208,192,113409,2,0,L|216:284,1,80,0|2,0:0|0:0,0:0:0:0:
28,228,113768,2,0,L|20:308,1,80,0|2,0:0|0:0,0:0:0:0:
108,156,114127,1,0,0:0:0:0:
84,56,114307,1,2,0:0:0:0:
4,128,114486,1,0,0:0:0:0:
132,256,114666,1,2,0:0:0:0:
184,84,114846,1,0,0:0:0:0:
28,228,115025,1,2,0:0:0:0:
232,288,115205,2,0,L|236:316,3,20,0|0|0|0,0:0|2:0|2:0|2:0,0:0:0:0:
248,252,115385,6,0,P|302:258|364:228,1,120,2|0,0:0|0:0,0:0:0:0:
376,188,115744,1,2,0:0:0:0:
280,136,115923,2,0,P|280:236|324:288,1,160,0|0,0:0|0:0,0:0:0:0:
168,168,116462,1,2,0:0:0:0:
280,136,116642,6,0,P|312:88|316:56,1,80,0|2,0:0|0:0,0:0:0:0:
200,60,117001,1,0,0:0:0:0:
172,36,117091,1,0,0:0:0:0:
140,24,117181,1,2,0:0:0:0:
72,152,117361,1,0,0:0:0:0:
68,184,117450,1,0,0:0:0:0:
72,216,117540,2,0,P|92:260|88:312,1,80,2|0,0:0|0:0,0:0:0:0:
208,164,117900,1,2,0:0:0:0:
196,280,118079,6,0,P|292:256|324:200,1,160,0|0,0:0|0:0,0:0:0:0:
308,100,118618,1,2,0:0:0:0:
416,136,118798,2,0,P|472:176|479:279,1,160,0|0,0:0|0:0,0:0:0:0:
452,300,119247,1,0,0:0:0:0:
452,300,119337,1,2,0:0:0:0:
284,232,119516,5,0,0:0:0:0:
292,220,119606,1,0,0:0:0:0:
300,208,119696,1,2,0:0:0:0:
232,344,119876,1,0,0:0:0:0:
212,336,119965,1,0,0:0:0:0:
192,328,120055,2,0,L|152:325,1,40,2|0,0:0|0:0,0:0:0:0:
52,232,120235,2,0,L|92:236,1,40,0|0,0:0|0:0,0:0:0:0:
176,164,120414,2,0,L|132:160,1,40,2|0,0:0|0:0,0:0:0:0:
52,72,120594,2,0,L|92:76,1,40,0|0,0:0|0:0,0:0:0:0:
280,40,120774,2,0,P|228:56|196:128,1,120,2|0,0:0|0:0,0:0:0:0:
288,132,121133,6,0,P|336:112|364:8,1,160,2|2,0:0|0:0,0:0:0:0:
280,40,121672,1,0,0:0:0:0:
288,132,121852,2,0,L|296:240,2,80,2|0|2,0:0|0:0|0:0,0:0:0:0:
372,76,122391,6,0,P|420:88|508:28,1,160,0|0,0:0|0:0,0:0:0:0:
512,172,122929,2,0,P|480:132|448:112,2,80,2|0|2,0:0|0:0|0:0,0:0:0:0:
492,288,123468,2,0,L|476:336,1,40,0|0,0:0|0:0,0:0:0:0:
380,352,123648,2,0,L|396:304,1,40,2|0,0:0|0:0,0:0:0:0:
324,232,123828,1,0,0:0:0:0:
232,312,124007,6,0,P|200:232|228:160,1,160,2|2,0:0|0:0,0:0:0:0:
152,212,124546,2,0,P|233:145|244:92,1,160,0|0,0:0|0:0,0:0:0:0:
208,24,125085,1,2,0:0:0:0:
200,20,125265,6,0,P|292:84|360:68,1,160,0|0,0:0|0:0,0:0:0:0:
192,16,125804,2,0,L|208:112,1,80,2|0,0:0|0:0,0:0:0:0:
224,176,126073,1,0,0:0:0:0:
224,176,126163,1,2,0:0:0:0:
176,272,126343,1,0,0:0:0:0:
168,292,126432,1,0,0:0:0:0:
160,312,126522,2,0,L|164:368,1,40,2|0,0:0|0:0,0:0:0:0:
60,284,126702,1,0,0:0:0:0:
52,252,126792,1,0,0:0:0:0:
44,216,126882,6,0,L|24:128,1,80,2|0,0:0|0:0,0:0:0:0:
0,28,127241,1,2,0:0:0:0:
176,80,127420,2,0,P|120:88|76:76,1,80,0|2,0:0|0:0,0:0:0:0:
288,32,127780,2,0,P|336:24|380:24,1,80,0|2,0:0|0:0,0:0:0:0:
176,80,128139,6,0,B|192:128|244:152|244:152|256:176|264:208,1,160,0|0,0:0|0:0,0:0:0:0:
392,320,128678,2,0,P|404:288|408:232,1,80,2|0,0:0|0:0,0:0:0:0:
328,104,129037,1,2,0:0:0:0:
259,207,129217,2,0,L|267:255,1,40,0|0,0:0|0:0,0:0:0:0:
160,192,129397,2,0,P|110:169|64:164,1,80,2|0,0:0|0:0,0:0:0:0:
40,296,129756,6,0,L|72:384,1,80,2|0,0:0|0:0,0:0:0:0:
280,272,130115,2,0,L|307:196,1,80,2|0,0:0|0:0,0:0:0:0:
128,72,130474,2,0,L|160:160,1,80,2|0,0:0|0:0,0:0:0:0:
432,192,130834,2,0,L|459:116,1,80,2|0,0:0|0:0,0:0:0:0:
264,56,131193,5,2,0:0:0:0:
192,240,131373,1,0,0:0:0:0:
388,312,131552,1,2,0:0:0:0:
459,115,131732,2,0,L|443:59,1,40,0|0,0:0|0:0,0:0:0:0:
312,140,131912,2,0,P|264:160|212:156,1,80,2|0,0:0|0:0,0:0:0:0:
172,152,132181,1,0,0:0:0:0:
172,152,132271,1,2,0:0:0:0:
48,60,132450,1,0,0:0:0:0:
88,56,132540,1,0,0:0:0:0:
128,52,132630,6,0,L|296:36,1,160,2|2,0:0|0:0,0:0:0:0:
496,12,133169,1,0,0:0:0:0:
460,120,133349,2,0,P|416:92|392:60,2,80,2|0|2,0:0|0:0|0:0,0:0:0:0:
512,304,133888,6,0,P|432:228|376:224,1,160,0|0,0:0|0:0,0:0:0:0:
264,272,134426,2,0,P|344:208|352:136,1,160,2|2,0:0|0:0,0:0:0:0:
240,160,134965,1,0,0:0:0:0:
386,223,135145,1,2,0:0:0:0:
384,68,135325,1,0,0:0:0:0:
299,30,135504,6,0,P|291:94|376:160,1,160,2|2,0:0|0:0,0:0:0:0:
512,108,136043,1,0,0:0:0:0:
492,144,136133,1,0,0:0:0:0:
472,180,136223,2,0,L|468:272,1,80,2|0,0:0|0:0,0:0:0:0:
424,260,136492,2,0,L|420:352,1,80,0|0,0:0|0:0,0:0:0:0:
372,344,136762,1,0,0:0:0:0:
448,144,136941,5,2,0:0:0:0:
260,80,137211,1,0,0:0:0:0:
56,136,137480,1,0,0:0:0:0:
180,240,137660,5,2,0:0:0:0:
300,160,137929,1,0,0:0:0:0:
448,184,138199,1,0,0:0:0:0:
400,304,138379,6,0,P|312:312|276:280,1,120,2|0,0:0|0:0,0:0:0:0:
260,256,138738,1,2,0:0:0:0:
272,108,138917,6,0,P|208:112|152:144,1,120,0|0,0:0|0:0,0:0:0:0:
136,184,139276,1,0,0:0:0:0:
260,244,139456,1,2,0:0:0:0:
408,240,139636,1,0,0:0:0:0:
500,136,139816,5,2,0:0:0:0:
504,112,139906,1,0,0:0:0:0:
508,88,139995,1,0,0:0:0:0:
408,228,140175,1,2,0:0:0:0:
384,112,140355,2,0,L|360:20,1,80,0|2,0:0|0:0,0:0:0:0:
328,240,140714,1,0,0:0:0:0:
204,288,140894,1,2,0:0:0:0:
88,216,141073,1,0,0:0:0:0:
48,92,141253,6,0,P|36:60|36:0,1,80,2|0,0:0|0:0,0:0:0:0:
48,92,141612,1,2,0:0:0:0:
384,112,141792,6,0,P|428:92|464:64,1,80,0|2,0:0|0:0,0:0:0:0:
384,112,142151,1,0,0:0:0:0:
204,288,142331,6,0,P|188:328|208:376,1,80,2|0,0:0|0:0,0:0:0:0:
204,288,142690,1,2,0:0:0:0:
256,192,142780,12,0,143409,0:0:0:0:
284,288,143588,5,0,0:0:0:0:
280,300,143768,1,2,0:0:0:0:
292,304,143947,1,0,0:0:0:0:
296,292,144127,6,0,P|340:280|440:296,1,120,2|0,0:0|0:0,0:0:0:0:
512,312,144486,2,0,L|460:228,1,80,2|0,0:0|0:0,0:0:0:0:
324,140,144846,2,0,P|360:112|388:84,1,80,2|0,0:0|0:0,0:0:0:0:
192,88,145205,2,0,P|156:89|104:100,1,80,2|0,0:0|0:0,0:0:0:0:
0,108,145474,1,0,0:0:0:0:
0,108,145564,6,0,P|40:160|44:224,1,120,2|0,0:0|0:0,0:0:0:0:
52,292,145923,1,2,0:0:0:0:
240,248,146103,2,0,P|164:244|100:288,1,120,0|0,0:0|0:0,0:0:0:0:
184,208,146462,2,0,P|152:184|132:124,2,80,0|2|0,0:0|0:0|0:0,0:0:0:0:
288,192,147001,5,2,0:0:0:0:
224,116,147181,1,0,0:0:0:0:
184,208,147361,1,2,0:0:0:0:
256,284,147540,1,0,0:0:0:0:
320,96,147720,1,2,0:0:0:0:
120,132,147899,1,0,0:0:0:0:
164,324,148079,1,2,0:0:0:0:
360,292,148259,2,0,P|352:340|343:370,1,80,0|2,0:0|0:0,0:0:0:0:
496,128,148618,2,0,P|440:152|408:152,1,80,0|2,0:0|0:0,0:0:0:0:
300,136,148977,1,0,0:0:0:0:
84,60,149157,5,2,0:0:0:0:
172,156,149337,1,0,0:0:0:0:
40,184,149516,1,2,0:0:0:0:
84,60,149696,1,0,0:0:0:0:
172,156,149876,2,0,P|160:224|144:260,1,80,2|0,0:0|0:0,0:0:0:0:
40,112,150235,1,2,0:0:0:0:
144,28,150414,2,0,P|240:56|284:112,1,160,0|0,0:0|0:0,0:0:0:0:
96,240,150953,1,2,0:0:0:0:
228,232,151133,1,0,0:0:0:0:
440,316,151313,6,0,P|452:264|412:200,1,120,2|0,0:0|0:0,0:0:0:0:
400,144,151672,2,0,P|448:172|484:176,1,80,2|0,0:0|0:0,0:0:0:0:
476,16,152031,1,2,0:0:0:0:
332,88,152211,2,0,P|280:100|236:120,1,80,0|2,0:0|0:0,0:0:0:0:
422,207,152570,1,0,0:0:0:0:
296,288,152750,6,0,L|304:200,1,80,2|0,0:0|0:0,0:0:0:0:
168,216,153019,1,0,0:0:0:0:
168,216,153109,2,0,L|152:128,1,80,2|0,0:0|0:0,0:0:0:0:
336,172,153379,1,0,0:0:0:0:
336,172,153468,2,0,L|352:76,1,80,2|0,0:0|0:0,0:0:0:0:
120,92,153738,1,0,0:0:0:0:
120,92,153828,2,0,L|108:28,1,40,2|0,0:0|0:0,0:0:0:0:
12,180,154007,2,0,L|16:232,1,40,0|0,0:0|0:0,0:0:0:0:
136,220,154187,2,0,P|208:228|268:304,1,160,2|2,0:0|0:0,0:0:0:0:
152,328,154636,2,0,L|96:344,2,40,0|0|0,0:0|0:0|0:0,0:0:0:0:
240,384,154906,5,2,0:0:0:0:
364,252,155085,1,0,0:0:0:0:
264,292,155265,1,2,0:0:0:0:
460,312,155444,1,0,0:0:0:0:
364,252,155624,2,0,P|352:196|360:132,1,120,2|0,0:0|0:0,0:0:0:0:
320,196,155983,2,0,P|284:172|232:164,1,80,2|0,0:0|0:0,0:0:0:0:
168,232,156343,1,2,0:0:0:0:
320,196,156522,1,0,0:0:0:0:
292,60,156702,1,2,0:0:0:0:
136,84,156882,2,0,L|88:64,1,40,0|0,0:0|0:0,0:0:0:0:
24,172,157061,6,0,P|16:212|16:260,1,80,2|0,0:0|0:0,0:0:0:0:
168,232,157420,1,2,0:0:0:0:
304,168,157600,2,0,P|272:132|228:116,1,80,0|2,0:0|0:0,0:0:0:0:
464,132,157959,2,0,L|452:232,2,80,0|2|0,0:0|0:0|0:0,0:0:0:0:
336,40,158498,6,0,P|280:76|204:68,1,120,2|0,0:0|0:0,0:0:0:0:
144,48,158858,2,0,P|184:32|236:36,2,80,2|0|2,0:0|0:0|0:0,0:0:0:0:
36,116,159397,1,0,0:0:0:0:
156,168,159576,1,2,0:0:0:0:
144,48,159756,1,0,0:0:0:0:
56,244,159935,5,2,0:0:0:0:
260,228,160115,1,0,0:0:0:0:
156,168,160295,1,2,0:0:0:0:
356,164,160474,2,0,P|376:220|376:248,1,80,0|2,0:0|0:0,0:0:0:0:
460,124,160834,2,0,L|396:116,1,40,0|0,0:0|0:0,0:0:0:0:
288,108,161013,1,2,0:0:0:0:
268,248,161193,2,0,L|240:276,1,40,0|0,0:0|0:0,0:0:0:0:
132,356,161373,6,0,P|120:276|132:228,1,120,2|0,0:0|0:0,0:0:0:0:
148,168,161732,1,2,0:0:0:0:
0,248,161912,2,0,P|24:184|20:124,1,120,0|0,0:0|0:0,0:0:0:0:
0,64,162271,1,0,0:0:0:0:
148,168,162450,2,0,P|192:144|232:128,1,80,2|0,0:0|0:0,0:0:0:0:
332,108,162810,5,2,0:0:0:0:
272,228,162989,1,0,0:0:0:0:
148,168,163169,1,2,0:0:0:0:
212,44,163349,1,0,0:0:0:0:
344,188,163528,1,2,0:0:0:0:
296,40,163708,1,0,0:0:0:0:
144,88,163888,1,2,0:0:0:0:
192,236,164067,1,0,0:0:0:0:
8,312,164247,6,0,P|60:320|108:344,1,80,2|0,0:0|0:0,0:0:0:0:
204,364,164516,1,0,0:0:0:0:
204,364,164606,2,0,L|184:276,1,80,2|0,0:0|0:0,0:0:0:0:
504,312,164965,2,0,P|452:320|404:344,1,80,2|0,0:0|0:0,0:0:0:0:
308,364,165234,1,0,0:0:0:0:
308,364,165324,2,0,L|328:276,1,80,2|0,0:0|0:0,0:0:0:0:
256,168,165684,1,2,0:0:0:0:
344,48,165864,1,0,0:0:0:0:
356,76,165954,1,0,0:0:0:0:
368,104,166044,5,2,0:0:0:0:
228,60,166223,5,0,0:0:0:0:
192,48,166313,1,0,0:0:0:0:
156,48,166403,1,2,0:0:0:0:
120,60,166492,1,0,0:0:0:0:
112,96,166582,1,0,0:0:0:0:
84,124,166672,1,0,0:0:0:0:
60,156,166762,1,2,0:0:0:0:
52,196,166852,1,0,0:0:0:0:
80,224,166941,1,0,0:0:0:0:
92,252,167031,1,0,0:0:0:0:
104,280,167121,5,2,0:0:0:0:
28,176,178618,6,0,L|-4:84,2,80,2|0|2,0:0|0:0|0:0,0:0:0:0:
120,220,179157,1,0,0:0:0:0:
96,320,179337,2,0,P|144:256|220:244,2,160,2|2|2,0:0|0:0|0:0,0:0:0:0:
196,344,180235,1,0,0:0:0:0:
296,368,180414,1,2,0:0:0:0:
320,268,180594,1,0,0:0:0:0:
220,240,180774,2,0,P|239:202|304:164,2,120,2|0|0,0:0|0:0|0:0,0:0:0:0:
128,260,181492,6,0,L|76:284,1,40,2|0,0:0|0:0,0:0:0:0:
76,184,181672,2,0,P|44:144|32:100,2,80,0|2|0,0:0|0:0|0:0,0:0:0:0:
140,104,182211,2,0,L|144:64,1,40,2|0,0:0|0:0,0:0:0:0:
232,132,182391,2,0,P|311:110|400:132,1,160,0|0,0:0|0:0,0:0:0:0:
480,168,182929,5,2,0:0:0:0:
412,248,183109,2,0,L|464:252,1,40,0|0,0:0|0:0,0:0:0:0:
328,200,183289,2,0,L|372:188,1,40,2|0,0:0|0:0,0:0:0:0:
256,264,183468,2,0,L|320:276,2,40,0|0|2,0:0|0:0|0:0,0:0:0:0:
228,296,183738,1,0,0:0:0:0:
188,304,183828,2,0,L|148:300,4,40,0|0|2|0|0,0:0|0:0|0:0|0:0|0:0,0:0:0:0:
184,128,184367,6,0,L|176:168,3,40,2|0|0|0,0:0|0:0|0:0|0:0,0:0:0:0:
152,140,184726,2,0,L|72:150,2,80,2|0|2,0:0|0:0|0:0,0:0:0:0:
304,80,185265,1,0,0:0:0:0:
448,144,185444,2,0,L|444:183,1,40,2|0,0:0|0:0,0:0:0:0:
352,240,185624,2,0,L|296:228,1,40,0|0,0:0|0:0,0:0:0:0:
232,224,185804,6,0,P|264:256|292:300,1,80,2|0,0:0|0:0,0:0:0:0:
288,360,186073,1,0,0:0:0:0:
288,360,186163,2,0,L|240:352,2,40,2|0|0,0:0|0:0|0:0,0:0:0:0:
100,368,186522,2,0,L|92:272,1,80,2|0,0:0|0:0,0:0:0:0:
12,240,186792,2,0,L|28:192,1,40,0|2,0:0|0:0,0:0:0:0:
72,120,187061,2,0,L|60:80,1,40,0|0,0:0|0:0,0:0:0:0:
144,184,187241,6,0,P|189:164|224:136,1,80,2|0,0:0|0:0,0:0:0:0:
264,84,187510,1,0,0:0:0:0:
264,84,187600,2,0,L|328:88,1,40,2|0,0:0|0:0,0:0:0:0:
324,200,187780,2,0,L|372:192,1,40,0|0,0:0|0:0,0:0:0:0:
484,156,187959,1,2,0:0:0:0:
452,140,188049,1,0,0:0:0:0:
432,112,188139,1,0,0:0:0:0:
424,80,188229,1,0,0:0:0:0:
436,44,188319,2,0,L|380:20,1,40,2|0,0:0|0:0,0:0:0:0:
316,124,188498,1,0,0:0:0:0:
192,36,188678,5,2,0:0:0:0:
172,64,188768,1,0,0:0:0:0:
156,88,188858,2,0,L|160:132,1,40,0|0,0:0|0:0,0:0:0:0:
172,212,189037,1,2,0:0:0:0:
124,308,189217,6,0,L|184:300,1,40,0|0,0:0|0:0,0:0:0:0:
304,336,189397,2,0,L|240:344,1,40,2|0,0:0|0:0,0:0:0:0:
256,244,189576,1,0,0:0:0:0:
396,216,189756,2,0,L|348:224,1,40,2|0,0:0|0:0,0:0:0:0:
296,140,189935,2,0,L|352:132,1,40,0|0,0:0|0:0,0:0:0:0:
192,112,190115,6,0,L|100:124,1,80,2|0,0:0|0:0,0:0:0:0:
256,192,190385,12,0,191373,0:0:0:0:
160,140,191732,6,0,P|150:211|217:174,1,160,0|0,0:0|0:0,0:0:0:0:
210,41,192271,2,0,P|150:30|95:53,2,120,2|0|0,0:0|0:0|0:0,0:0:0:0:
325,158,192989,6,0,P|322:219|261:298,2,160,2|2|2,0:0|0:0|0:0,0:0:0:0:
448,72,193888,1,0,0:0:0:0:
468,108,193977,1,0,0:0:0:0:
484,148,194067,2,0,P|472:212|464:236,1,80,2|0,0:0|0:0,0:0:0:0:
356,280,194426,2,0,P|332:318|304:360,1,80,2|0,0:0|0:0,0:0:0:0:
136,328,194786,2,0,P|188:304|216:284,1,80,2|0,0:0|0:0,0:0:0:0:
248,168,195145,1,2,0:0:0:0:
104,188,195325,1,0,0:0:0:0:
96,164,195414,1,0,0:0:0:0:
88,140,195504,2,0,L|76:92,2,40,2|0|0,0:0|0:0|0:0,0:0:0:0:
148,32,195864,5,2,0:0:0:0:
168,36,195953,1,0,0:0:0:0:
188,40,196043,1,0,0:0:0:0:
208,44,196133,1,0,0:0:0:0:
224,68,196223,1,2,0:0:0:0:
244,72,196313,1,0,0:0:0:0:
264,76,196403,1,0,0:0:0:0:
284,80,196492,1,0,0:0:0:0:
312,72,196582,2,0,L|376:84,3,40,2|0|0|0,0:0|0:0|0:0|0:0,0:0:0:0:
372,104,196941,2,0,L|432:116,3,40,2|0|0|0,0:0|0:0|0:0|0:0,0:0:0:0:
432,144,197301,5,2,0:0:0:0:
454,160,197391,1,0,0:0:0:0:
470,182,197480,1,0,0:0:0:0:
480,208,197570,1,0,0:0:0:0:
484,235,197660,1,2,0:0:0:0:
476,262,197750,1,0,0:0:0:0:
464,287,197840,1,0,0:0:0:0:
445,307,197929,1,0,0:0:0:0:
420,292,198019,5,2,0:0:0:0:
392,288,198109,1,0,0:0:0:0:
364,284,198199,1,0,0:0:0:0:
336,280,198289,1,0,0:0:0:0:
308,276,198379,1,2,0:0:0:0:
280,272,198468,1,0,0:0:0:0:
252,268,198558,1,0,0:0:0:0:
108,208,198738,6,0,L|124:172,1,40,2|0,0:0|0:0,0:0:0:0:
168,196,198917,2,0,L|184:160,1,40,0|0,0:0|0:0,0:0:0:0:
224,184,199097,2,0,L|240:148,1,40,2|0,0:0|0:0,0:0:0:0:
272,172,199277,1,0,0:0:0:0:
344,104,199456,2,0,L|312:72,1,40,2|0,0:0|0:0,0:0:0:0:
268,88,199636,2,0,L|236:56,1,40,0|0,0:0|0:0,0:0:0:0:
192,68,199816,2,0,L|160:36,1,40,2|0,0:0|0:0,0:0:0:0:
120,44,199995,1,0,0:0:0:0:
56,152,200175,6,0,L|116:172,1,40,2|0,0:0|0:0,0:0:0:0:
136,188,200355,2,0,L|169:165,1,40,0|0,0:0|0:0,0:0:0:0:
224,156,200534,2,0,L|272:172,1,40,2|0,0:0|0:0,0:0:0:0:
316,200,200714,2,0,L|349:177,1,40,0|0,0:0|0:0,0:0:0:0:
400,288,200894,6,0,L|372:260,1,40,2|0,0:0|0:0,0:0:0:0:
288,320,201074,2,0,L|276:276,1,40,0|0,0:0|0:0,0:0:0:0:
164,312,201253,2,0,L|172:272,1,40,2|0,0:0|0:0,0:0:0:0:
60,268,201433,2,0,L|80:232,1,40,0|0,0:0|0:0,0:0:0:0:
4,180,201612,5,2,0:0:0:0:
32,172,201702,1,0,0:0:0:0:
60,164,201792,1,0,0:0:0:0:
88,156,201882,1,0,0:0:0:0:
116,148,201971,2,0,L|152:164,1,40,2|0,0:0|0:0,0:0:0:0:
264,148,202151,2,0,L|280:200,1,40,0|0,0:0|0:0,0:0:0:0:
416,120,202331,1,2,0:0:0:0:
408,136,202420,1,0,0:0:0:0:
400,152,202510,1,0,0:0:0:0:
448,252,202690,1,2,0:0:0:0:
428,264,202780,1,0,0:0:0:0:
408,276,202870,1,0,0:0:0:0:
248,356,203049,5,2,0:0:0:0:
240,328,203139,1,0,0:0:0:0:
232,300,203229,2,0,L|220:252,5,40,0|0|2|0|0|0,0:0|0:0|0:0|0:0|0:0|0:0,0:0:0:0:
72,244,203768,5,2,0:0:0:0:
84,240,203858,1,0,0:0:0:0:
96,236,203948,2,0,L|112:280,5,40,0|0|2|0|0|0,0:0|0:0|0:0|0:0|0:0|0:0,0:0:0:0:
204,176,204486,6,0,L|192:128,8,31.9999990234375,2|0|0|0|0|0|2|0|0,0:0|0:0|0:0|0:0|0:0|0:0|0:0|0:0|0:0,0:0:0:0:
328,164,205025,6,0,L|360:120,8,40.000001525879,0|0|0|2|0|0|0|0|0,0:0|0:0|0:0|0:0|0:0|0:0|0:0|0:0|0:0,0:0:0:0:
412,260,205564,6,0,L|460:272,2,47.9999985351563,2|0|0,0:0|0:0|0:0,0:0:0:0:
388,280,205744,2,0,B|328:260|264:312|240:272,1,143.999995605469,0|2,0:0|0:0,0:0:0:0:
256,192,206373,12,0,208798,0:0:0:0:
200,272,209157,6,0,L|212:348,1,64,2|0,0:0|0:0,0:0:0:0:
288,168,209876,2,0,L|284:240,1,64,2|0,0:0|0:0,0:0:0:0:
384,152,210235,2,0,L|367:57,1,96
472,112,210594,2,0,L|464:176,1,64,2|0,0:0|0:0,0:0:0:0:
332,376,211133,1,0,0:0:0:0:
232,288,211313,2,0,P|232:248|240:216,1,64,2|0,0:0|0:0,0:0:0:0:
320,144,211672,6,0,L|200:132,1,96
152,88,212031,2,0,L|240:80,1,64,2|0,0:0|0:0,0:0:0:0:
304,68,212391,1,0,0:0:0:0:
172,168,212750,1,2,0:0:0:0:
104,264,212929,2,0,P|72:268|36:284,2,64
176,328,213468,1,2,0:0:0:0:
292,152,213828,2,0,P|281:137|272:112,2,32
388,196,214187,2,0,L|476:204,1,64,2|0,0:0|0:0,0:0:0:0:
336,256,214546,6,0,L|220:244,1,96
144,172,214906,2,0,L|216:180,1,64,2|0,0:0|0:0,0:0:0:0:
408,84,215444,1,0,0:0:0:0:
272,116,215624,2,0,L|360:96,1,64,2|0,0:0|0:0,0:0:0:0:
504,204,215983,6,0,L|392:188,1,96
304,236,216343,2,0,L|220:264,1,64,2|0,0:0|0:0,0:0:0:0:
332,48,216882,1,0,0:0:0:0:
432,148,217062,2,0,P|409:97|396:80,1,64,2|0,0:0|0:0,0:0:0:0:
112,180,217420,5,0,0:0:0:0:
428,160,217780,5,2,0:0:0:0:
100,168,218139,5,0,0:0:0:0:
424,172,218498,5,2,0:0:0:0:
436,44,218678,2,0,P|470:29|516:20,2,80
336,200,219217,1,2,0:0:0:0:
112,344,219576,5,0,0:0:0:0:
220,312,219756,2,0,L|216:352,1,40
136,240,219935,6,0,P|80:240|16:224,1,120.000004577637,0|0,0:0|0:0,0:0:0:0:
216,156,220295,6,0,P|184:112|180:44,1,120,2|0,0:0|0:0,0:0:0:0:
288,148,220654,2,0,P|252:124|196:112,1,80,2|0,0:0|0:0,0:0:0:0:
136,240,221013,1,2,0:0:0:0:
256,232,221192,1,0,0:0:0:0:
360,324,221372,1,2,0:0:0:0:
244,328,221552,2,0,L|260:384,1,40,0|0,0:0|0:0,0:0:0:0:
352,236,221732,6,0,P|396:232|448:220,1,80,2|0,0:0|0:0,0:0:0:0:
272,204,222090,1,2,0:0:0:0:
432,132,222270,2,0,P|464:124|512:80,1,80,0|2,0:0|0:0,0:0:0:0:
416,272,222629,2,0,L|404:372,2,80,0|2|0,0:0|0:0|0:0,0:0:0:0:
268,68,223168,6,0,P|216:108|140:112,1,120,2|0,0:0|0:0,0:0:0:0:
240,140,223528,2,0,P|284:128|332:128,2,80,2|0|2,0:0|0:0|0:0,0:0:0:0:
192,236,224067,1,0,0:0:0:0:
176,16,224246,1,2,0:0:0:0:
136,140,224426,1,0,0:0:0:0:
16,128,224605,5,2,0:0:0:0:
240,196,224785,1,0,0:0:0:0:
136,256,224965,1,2,0:0:0:0:
356,256,225145,2,0,P|368:312|368:340,1,80,0|2,0:0|0:0,0:0:0:0:
456,184,225504,2,0,L|444:136,1,40,0|0,0:0|0:0,0:0:0:0:
432,64,225683,1,2,0:0:0:0:
308,144,225863,2,0,L|264:136,1,40,0|0,0:0|0:0,0:0:0:0:
144,188,226043,6,0,P|164:128|148:60,1,120,2|0,0:0|0:0,0:0:0:0:
124,48,226402,1,2,0:0:0:0:
108,208,226582,2,0,P|88:276|108:328,1,120,0|0,0:0|0:0,0:0:0:0:
132,344,226941,1,0,0:0:0:0:
212,272,227121,2,0,P|264:260|296:232,1,80,2|0,0:0|0:0,0:0:0:0:
168,168,227480,5,2,0:0:0:0:
352,180,227659,1,0,0:0:0:0:
264,104,227839,1,2,0:0:0:0:
352,180,228019,1,0,0:0:0:0:
452,152,228198,1,2,0:0:0:0:
512,240,228378,1,0,0:0:0:0:
344,284,228558,1,2,0:0:0:0:
440,320,228737,1,0,0:0:0:0:
284,360,228917,6,0,P|258:349|206:341,1,80,2|0,0:0|0:0,0:0:0:0:
128,352,229186,1,0,0:0:0:0:
128,352,229276,2,0,L|108:264,1,80,2|0,0:0|0:0,0:0:0:0:
222,174,229636,2,0,P|248:164|300:156,1,80,2|0,0:0|0:0,0:0:0:0:
376,152,229906,1,0,0:0:0:0:
376,152,229995,2,0,L|396:64,1,80,2|0,0:0|0:0,0:0:0:0:
212,100,230354,1,2,0:0:0:0:
232,248,230534,1,0,0:0:0:0:
388,224,230713,1,2,0:0:0:0:
364,80,230893,1,0,0:0:0:0:
488,144,231073,5,2,0:0:0:0:
492,168,231162,1,0,0:0:0:0:
496,192,231252,1,0,0:0:0:0:
512,212,231342,1,0,0:0:0:0:
508,240,231432,1,2,0:0:0:0:
504,268,231522,1,0,0:0:0:0:
512,300,231611,1,0,0:0:0:0:
484,324,231701,1,0,0:0:0:0:
448,324,231792,6,0,P|376:320|304:376,2,160,2|2|2,0:0|0:0|0:0,0:0:0:0:
268,144,232870,1,2,0:0:0:0:
204,228,233049,1,0,0:0:0:0:
196,212,233139,1,2,2:2:0:0:
188,196,233229,6,0,P|152:172|132:60,1,160,2|2,0:0|0:0,0:0:0:0:
314,227,233768,6,0,P|357:223|427:133,1,160,0|0,0:0|0:0,0:0:0:0:
268,248,234307,1,2,0:0:0:0:
75,313,234666,6,0,P|184:308|224:280,1,160,2|2,0:0|0:0,2:0:0:0:
256,192,235205,1,0,0:0:0:0:
188,116,235385,2,0,P|268:152|340:124,1,160,2|2,0:0|0:0,0:0:0:0:
468,228,235924,1,0,0:0:0:0:
464,216,236014,1,0,0:0:0:0:
460,204,236103,6,0,P|416:256|320:256,1,160,2|2,0:0|0:0,0:0:0:0:
204,224,236642,2,0,P|128:216|60:276,1,160,0|0,0:0|0:0,0:0:0:0:
156,312,237181,2,0,L|160:368,2,40,2|0|0,0:0|0:0|0:0,0:0:0:0:
112,188,237541,6,0,P|28:148|36:84,2,160,2|2|2,0:0|0:0|0:0,0:0:0:0:
252,36,238618,1,2,0:0:0:0:
364,152,238798,1,0,0:0:0:0:
368,136,238888,1,0,0:0:0:0:
372,124,238978,6,0,P|292:160|288:228,1,160,2|2,0:0|0:0,0:0:0:0:
368,204,239517,2,0,P|276:204|208:256,1,160,0|0,0:0|0:0,0:0:0:0:
132,328,240055,1,2,0:0:0:0:
256,344,240235,1,0,0:0:0:0:
264,348,240325,1,0,0:0:0:0:
272,352,240415,6,0,P|344:364|432:344,2,160,2|2|2,0:0|0:0|0:0,0:0:0:0:
184,228,241313,1,0,0:0:0:0:
44,216,241493,1,2,0:0:0:0:
120,108,241672,6,0,L|112:52,2,40,0|0|2,0:0|0:0|0:0,0:0:0:0:
256,124,242032,2,0,L|264:176,2,40,0|0|2,0:0|0:0|0:0,0:0:0:0:
368,204,242391,1,0,0:0:0:0:
376,188,242481,1,0,0:0:0:0:
384,172,242570,1,2,0:0:0:0:
472,272,242750,1,0,0:0:0:0:
488,260,242840,1,0,0:0:0:0:
504,248,242930,2,0,L|512:308,1,40,2|0,0:0|0:0,0:0:0:0:
400,348,243109,1,0,0:0:0:0:
376,340,243199,1,0,0:0:0:0:
344,328,243289,6,0,L|260:316,1,80,2|0,0:0|0:0,0:0:0:0:
148,296,243648,1,0,0:0:0:0:
248,204,243828,2,0,L|316:136,1,80,0|0,0:0|0:0,0:0:0:0:
400,56,244187,1,0,0:0:0:0:
384,200,244367,6,0,L|412:144,1,40,0|0,0:0|0:0,0:0:0:0:
492,260,244546,2,0,L|500:304,1,40
392,328,244726,1,0,0:0:0:0:
248,340,244906,6,0,L|208:343,1,40
148,232,245085,2,0,L|96:228,1,40
64,356,245265,1,0,0:0:0:0:
20,216,245444,2,0,L|36:176,2,40
280,132,245804,5,0,0:0:0:0:
428,232,245983,1,0,0:0:0:0:
256,192,246163,12,0,252271,0:0:0:0:
