osu file format v14

[General]
AudioFilename: transparent.mp3
AudioLeadIn: 0
PreviewTime: 62929
Countdown: 0
SampleSet: None
StackLeniency: 0.3
Mode: 0
LetterboxInBreaks: 1
WidescreenStoryboard: 1

[Editor]
DistanceSpacing: 1
BeatDivisor: 4
GridSize: 4
TimelineZoom: 1.3

[Metadata]
Title:Transparent Stardust
TitleUnicode:透明のスターダスト
Artist:DystopiaGround
ArtistUnicode:DystopiaGround
Creator:Skystar
Version:Normal
Source:
Tags:Zweib Kodora alacat nao skystar
BeatmapID:758404
BeatmapSetID:96695

[Difficulty]
HPDrainRate:4
CircleSize:3.5
OverallDifficulty:4
ApproachRate:5
SliderMultiplier:1
SliderTickRate:1

[Events]
//Background and Video events
0,0,"BBG.jpg",0,0
//Break Periods
//Storyboard Layer 0 (Background)
//Storyboard Layer 1 (Fail)
//Storyboard Layer 2 (Pass)
//Storyboard Layer 3 (Foreground)
//Storyboard Sound Samples

[TimingPoints]
415,359.281437125748,4,1,1,35,1,0
17660,-100,4,2,1,35,0,0
19097,-100,4,2,1,45,0,0
20534,-100,4,2,1,35,0,0
21971,-100,4,2,1,45,0,0
23409,-100,4,2,1,35,0,0
24846,-100,4,2,1,45,0,0
26283,-100,4,2,1,50,0,0
27720,-100,4,2,1,40,0,0
28438,-100,4,2,1,50,0,0
29157,-100,4,2,1,50,0,0
39576,-100,4,1,1,18,0,0
39666,-100,4,1,1,22,0,0
39756,-100,4,1,1,26,0,0
39846,-100,4,1,1,30,0,0
39935,-100,4,1,1,34,0,0
40025,-100,4,1,1,38,0,0
40115,-100,4,1,1,42,0,0
40205,-100,4,1,1,46,0,0
40295,-100,4,1,1,50,0,0
40654,-100,4,1,1,50,0,0
49277,-100,4,1,1,60,0,0
60953,-100,4,1,1,40,0,0
61313,-100,4,1,1,60,0,0
61492,-100,4,2,1,5,0,0
61852,-100,4,1,1,60,0,0
62031,-100,4,1,1,40,0,0
62211,-100,4,1,1,60,0,0
62929,-100,4,1,1,45,0,0
63648,-100,4,1,1,65,0,0
64367,-100,4,3,1,65,0,0
64456,-100,4,1,1,65,0,0
70115,-100,4,3,1,65,0,0
70205,-100,4,1,1,65,0,0
75864,-100,4,3,1,65,0,0
75953,-100,4,1,1,65,0,0
98139,-100,4,2,1,45,0,0
105325,-100,4,2,1,55,0,0
106762,-100,4,2,1,45,0,0
108199,-100,4,2,1,55,0,0
109636,-100,4,2,1,45,0,0
111073,-100,4,2,1,55,0,0
111792,-100,4,2,1,35,0,0
112510,-100,4,2,1,45,0,0
113947,-100,4,2,1,55,0,0
115385,-100,4,2,1,45,0,0
116822,-100,4,2,1,55,0,0
118259,-100,4,2,1,45,0,0
119876,-100,4,1,1,20,0,0
119965,-100,4,1,1,23,0,0
120055,-100,4,1,1,26,0,0
120145,-100,4,1,1,29,0,0
120235,-100,4,1,1,32,0,0
120325,-100,4,1,1,35,0,0
120414,-100,4,1,1,38,0,0
120504,-100,4,1,1,41,0,0
120594,-100,4,1,1,44,0,0
120684,-100,4,1,1,47,0,0
120774,-100,4,1,1,50,0,0
121133,-100,4,1,1,50,0,0
129756,-100,4,1,1,60,0,0
141432,-100,4,1,1,40,0,0
141792,-100,4,1,1,60,0,0
141971,-100,4,2,1,5,0,0
142331,-100,4,1,1,60,0,0
142510,-100,4,1,1,40,0,0
142690,-100,4,1,1,60,0,0
144127,-100,4,1,1,65,0,0
144846,-100,4,3,1,65,0,0
144935,-100,4,1,1,65,0,0
150594,-100,4,3,1,65,0,0
150684,-100,4,1,1,65,0,0
156343,-100,4,3,1,65,0,0
156432,-100,4,1,1,65,0,0
178618,-100,4,1,1,35,0,0
190115,-100,4,1,1,45,0,0
198738,-100,4,1,1,50,0,0
200175,-100,4,1,1,55,0,0
201612,-100,4,1,1,60,0,0
203049,-100,4,1,1,65,0,0
204486,-100,4,1,1,85,0,0
205834,-100,4,1,1,35,0,0
206193,-100,4,1,1,5,0,0
206283,-100,4,1,1,85,0,0
208079,-100,4,1,1,15,0,0
217420,-100,4,2,1,15,0,0
218678,-100,4,2,1,25,0,0
219217,-100,4,2,1,35,0,0
219576,-100,4,2,1,45,0,0
219756,-100,4,1,1,55,0,0
220295,-100,4,1,1,65,0,0
221013,-100,4,3,1,65,0,0
221103,-100,4,1,1,65,0,0
231792,-100,4,1,1,35,0,0
233229,-100,4,2,1,45,0,0
234576,-100,4,1,1,35,0,0
236103,-100,4,2,1,45,0,0
237540,-100,4,1,1,35,0,0
238977,-100,4,2,1,45,0,0
240414,-100,4,1,1,35,0,0
241852,-100,4,1,1,45,0,0
243289,-100,4,1,1,35,0,0
251912,-100,4,2,1,5,0,0

[Colours]
Combo1 : 192,192,192
Combo2 : 225,225,225

[HitObjects]
196,228,6163,6,0,P|152:208|92:224,1,100
84,316,6882,2,0,P|128:336|188:320,1,100
196,228,7600,2,0,L|172:56,2,150,2|2|2,2:0|2:0|2:0,0:0:0:0:
292,252,9037,6,0,P|272:296|288:356,1,100
380,364,9756,2,0,P|400:320|384:260,1,100
292,252,10474,2,0,L|120:276,2,150,2|2|2,2:0|2:0|2:0,0:0:0:0:
316,156,11912,6,0,P|360:176|420:160,1,100
428,68,12631,2,0,P|384:48|324:64,1,100
316,156,13349,2,0,L|340:328,2,150,2|2|2,2:0|2:0|2:0,0:0:0:0:
220,132,14786,6,0,P|240:88|224:28,1,100
132,20,15505,2,0,P|112:64|128:124,1,100
220,132,16223,2,0,P|240:176|224:236,1,100
132,244,16942,2,0,P|112:200|128:140,1,100
220,132,17660,5,0,0:0:0:0:
316,164,18019,1,0,0:0:0:0:
316,164,18199,2,0,L|424:156,1,100
464,156,18738,1,0,0:0:0:0:
420,244,19097,6,0,L|320:251,1,100,2|0,0:0|0:0,0:0:0:0:
272,260,19636,2,0,L|264:336,2,75,2|2|0,0:0|0:0|0:0,0:0:0:0:
172,280,20534,5,0,0:0:0:0:
204,184,20893,1,0,0:0:0:0:
204,184,21073,2,0,L|196:76,2,100,0|0|0,0:0|0:0|0:0,0:0:0:0:
252,176,21971,2,0,P|304:168|356:196,1,100,2|0,0:0|0:0,0:0:0:0:
388,216,22510,2,0,L|464:208,2,75,2|2|0,0:0|0:0|0:0,0:0:0:0:
292,252,23409,5,0,0:0:0:0:
196,220,23768,1,0,0:0:0:0:
196,220,23948,2,0,L|88:228,1,100
48,228,24487,1,0,0:0:0:0:
92,140,24846,6,0,L|191:132,1,100,2|0,0:0|0:0,0:0:0:0:
240,124,25385,2,0,L|248:48,2,75,2|2|2,0:0|0:0|0:0,0:0:0:0:
340,104,26283,5,0,0:0:0:0:
308,200,26642,1,0,0:0:0:0:
308,200,26822,2,0,L|316:308,2,100,0|0|0,0:0|0:0|0:0,0:0:0:0:
280,156,27720,2,0,L|286:72,2,75,0|0|0,0:0|0:0|0:0,0:0:0:0:
260,200,28438,2,0,L|254:274,2,75,0|0|0,0:0|0:0|0:0,0:0:0:0:
232,156,29157,6,0,P|184:148|124:168,1,100
104,200,29696,2,0,L|108:304,1,100
112,348,30235,1,0,0:0:0:0:
204,312,30594,1,0,0:0:0:0:
204,312,30774,2,0,P|256:304|308:328,1,100,2|0,0:0|0:0,0:0:0:0:
340,348,31313,2,0,L|352:248,1,100,2|0,0:0|0:0,0:0:0:0:
292,168,32031,6,0,P|300:120|280:60,1,100
248,40,32570,2,0,L|144:44,1,100
100,48,33109,1,0,0:0:0:0:
136,140,33468,1,0,0:0:0:0:
136,140,33648,2,0,P|144:192|120:244,1,100,2|2,0:0|0:0,0:0:0:0:
100,276,34187,2,0,L|200:288,1,100,2|2,0:0|0:0,0:0:0:0:
280,228,34906,6,0,P|328:236|388:216,1,100
408,184,35445,2,0,L|404:80,1,100
400,36,35984,1,0,0:0:0:0:
308,72,36343,1,2,0:0:0:0:
308,72,36523,2,0,P|256:80|204:56,1,100,0|0,0:0|0:0,0:0:0:0:
172,36,37062,2,0,L|160:136,1,100,0|0,0:0|0:0,0:0:0:0:
220,216,37780,6,0,P|212:264|232:324,1,100,2|0,0:0|0:0,0:0:0:0:
264,344,38319,2,0,L|368:340,1,100,0|2,0:0|0:0,0:0:0:0:
412,336,38858,1,0,0:0:0:0:
376,244,39217,2,0,P|368:192|392:140,1,100,2|2,0:0|0:0,0:0:0:0:
476,108,39935,2,0,P|484:160|460:212,1,100,2|2,0:0|0:0,0:0:0:0:
376,244,40654,6,0,B|320:240|320:240|280:260|280:260|224:256,1,150
132,232,41552,1,0,0:0:0:0:
44,280,41912,2,0,P|104:240|96:108,1,200
164,40,42989,2,0,L|228:32,1,50
308,72,43528,6,0,B|304:128|304:128|324:168|324:168|320:224,1,150
296,316,44426,1,0,0:0:0:0:
392,292,44786,2,0,P|348:232|220:252,1,200
144,288,45863,2,0,L|136:224,1,50
136,140,46403,6,0,B|192:144|192:144|232:124|232:124|288:128,1,150
380,152,47301,1,0,0:0:0:0:
468,104,47661,2,0,P|408:144|416:276,1,200
348,344,48738,2,0,L|284:352,1,50
204,312,49277,6,0,B|208:256|208:256|188:216|188:216|192:160,1,150
216,68,50175,1,0,0:0:0:0:
120,92,50535,2,0,P|164:152|292:132,1,200
312,104,51432,2,0,L|416:100,1,100
424,200,52151,6,0,P|436:252|408:296,1,100,0|0,0:0|0:0,0:0:0:0:
328,240,52870,2,0,P|280:232|232:272,1,100
248,360,53588,6,0,P|196:372|152:344,1,100,0|0,0:0|0:0,0:0:0:0:
208,264,54307,2,0,P|216:216|176:168,1,100
88,184,55025,6,0,P|76:132|104:88,1,100,0|0,0:0|0:0,0:0:0:0:
184,144,55744,2,0,P|232:152|280:112,1,100
264,24,56462,6,0,P|316:12|360:40,1,100,0|0,0:0|0:0,0:0:0:0:
304,120,57181,2,0,P|296:168|336:216,1,100
392,284,57900,6,0,P|332:264|192:296,1,200
108,328,58977,1,0,0:0:0:0:
72,236,59337,2,0,B|56:152|56:152|88:84,2,150,0|0|0,0:0|0:0|0:0,0:0:0:0:
144,164,60774,2,0,B|160:248|160:248|128:316,2,150,0|0|0,0:0|0:0|0:0,0:0:0:0:
208,84,62211,1,0,0:0:0:0:
388,212,63648,6,0,P|344:204|284:232,1,100,0|0,0:0|0:0,0:0:0:0:
268,268,64187,2,0,L|156:276,1,100
120,276,64726,1,0,0:0:0:0:
124,172,65085,6,0,P|168:180|228:152,1,100,0|0,0:0|0:0,0:0:0:0:
244,116,65624,2,0,L|356:108,1,100
392,108,66163,1,0,0:0:0:0:
400,208,66522,6,0,P|416:248|404:304,1,100
308,276,67241,2,0,L|204:272,1,100
160,272,67780,2,0,P|144:232|156:176,1,100,0|0,0:0|0:0,0:0:0:0:
164,80,68498,1,0,0:0:0:0:
164,80,68678,2,0,P|120:72|60:100,1,100,0|0,0:0|0:0,0:0:0:0:
124,172,69397,6,0,P|168:180|228:152,1,100,0|0,0:0|0:0,0:0:0:0:
244,116,69936,2,0,L|356:108,1,100
392,108,70475,1,0,0:0:0:0:
388,212,70834,6,0,P|344:204|284:232,1,100,0|0,0:0|0:0,0:0:0:0:
268,268,71373,2,0,L|156:276,1,100
120,276,71912,1,0,0:0:0:0:
112,176,72271,6,0,P|96:136|108:80,1,100
204,108,72990,2,0,L|308:112,1,100
352,112,73529,2,0,P|368:152|356:208,1,100,0|0,0:0|0:0,0:0:0:0:
348,304,74246,1,0,0:0:0:0:
348,304,74426,2,0,P|392:312|452:284,1,100,0|0,0:0|0:0,0:0:0:0:
456,192,75145,6,0,L|440:80,1,100
392,88,75684,2,0,P|348:80|288:108,1,100,0|0,0:0|0:0,0:0:0:0:
256,192,76403,1,0,0:0:0:0:
256,192,76582,2,0,L|240:304,1,100
192,296,77121,2,0,P|148:304|88:276,1,100,0|0,0:0|0:0,0:0:0:0:
56,192,77840,1,0,0:0:0:0:
56,192,78019,6,0,L|72:80,1,100
120,88,78558,2,0,P|164:80|224:108,1,100,0|0,0:0|0:0,0:0:0:0:
244,140,79097,1,0,0:0:0:0:
272,236,79456,2,0,L|288:348,1,100
336,340,79995,2,0,P|380:348|440:320,1,100,0|0,0:0|0:0,0:0:0:0:
444,280,80534,1,0,0:0:0:0:
380,204,80894,6,0,P|360:164|376:96,1,100
396,72,81432,2,0,L|284:84,1,100
248,88,81971,1,0,0:0:0:0:
192,172,82331,6,0,P|172:212|188:280,1,100
208,304,82869,2,0,L|96:292,1,100
60,288,83408,1,0,0:0:0:0:
92,192,83768,6,0,P|184:152|176:52,1,200,0|0,0:0|0:0,0:0:0:0:
88,40,84846,2,0,L|76:104,1,50
76,140,85205,6,0,P|96:188|72:248,1,100
184,236,85923,2,0,P|164:284|188:344,1,100
272,360,86642,1,0,0:0:0:0:
