osu file format v9

[General]
AudioFilename: d4.mp3
AudioLeadIn: 0
PreviewTime: 123453
Countdown: 0
SampleSet: Soft
StackLeniency: 0.7
Mode: 0
LetterboxInBreaks: 0

[Editor]
Bookmarks: 33564
DistanceSpacing: 1
BeatDivisor: 4
GridSize: 8

[Metadata]
Title:AugoEidEs
Artist:DystopiaGround
Creator:happy30
Version:Aphotic
Source:
Tags:nao demetori lepidopodus lugfeides

[Difficulty]
HPDrainRate:6
CircleSize:4
OverallDifficulty:8
ApproachRate:9
SliderMultiplier:1.4
SliderTickRate:1

[Events]
//Background and Video events
0,0,"bg.jpg"
//Break Periods
2,80030,81549
2,82349,83868
2,161190,167491
2,189161,195317
//Storyboard Layer 0 (Background)
//Storyboard Layer 1 (Fail)
//Storyboard Layer 2 (Pass)
//Storyboard Layer 3 (Foreground)
Sprite,Foreground,Centre,"SB\black.png",320,240 F,0,0,,1 F,0,35772,,0 F,2,57656,58671,0,1 F,0,58961,,0 F,0,330264,331569,1
Sprite,Foreground,Centre,"SB\bg red.jpg",320,240 S,0,124033,,0.8016 F,0,124033,160990,1 F,0,160990,162294,1,0 F,0,207511,,1 F,0,243308,245627,1,0 F,0,331569,368670,1 F,0,368670,376496,1,0 F,0,376496,377076,0 F,0,377801,396496,1 F,0,396496,410120,1,0
Sprite,Foreground,Centre,"SB\bg black.jpg",320,240 F,0,0,,0 S,0,0,377801,0.8016 F,0,31860,32729,0,1 F,0,35772,,0 F,1,122729,123961,0,1 F,0,124033,,0 F,0,206932,,0 F,0,206932,207439,0,1 F,0,207511,,0 F,0,312479,314218,0,0.8838319 F,0,330264,330409,1,0 F,0,376496,377801,0,1 F,0,377366,378670,1,0 F,0,377801,,1 F,0,377801,378670,1,0 S,1,377801,378670,0.8016,0.911314 S,0,386931,,0.8016 F,0,387076,,0 F,1,387076,387511,0,0.5163026 F,2,387511,387946,0.5163026,0 F,1,387946,388380,0,0.6905547 F,2,388380,388815,0.6905547,0 F,1,388815,389250,0,0.7615463 F,2,389250,389685,0.7615463,0 F,1,389685,390120,0,0.616336 F,2,390120,390554,0.616336,0 F,1,390554,390989,0,0.6453783 F,2,390989,391569,0.6453783,0 F,1,391569,392004,0,0.6582859 F,2,392004,392438,0.6582859,0 F,1,392438,392873,0,0.7195967 F,2,392873,393308,0.7195967,0 F,1,393308,393743,0,0.7034623 F,2,393743,394177,0.7034623,0 F,1,394177,394612,0,0.6356975 F,2,394612,395047,0.6356975,0 F,0,395047,396496,0,1 F,0,396496,396786,1,0
Sprite,Foreground,Centre,"SB\white.png",320,240 F,0,33598,,0 M,0,33599,,320,240 F,0,35772,35917,1,0 F,0,58961,59033,1,0 F,0,124033,124106,1,0 F,0,207511,207584,1,0 F,0,331569,331641,1,0 F,1,350120,350699,1,0 F,0,377801,378380,1,0
//Storyboard Sound Samples
//Background Colour Transformations
3,100,163,162,255

[TimingPoints]
1135,289.855072463768,4,2,0,10,1,0
33308,-100,4,1,0,70,0,0
33565,-50,4,1,0,70,0,0
35628,-66.6666666666667,4,1,1,70,0,0
54975,-66.6666666666667,4,1,2,70,0,0
56062,-66.6666666666667,4,1,1,70,0,0
57077,-66.6666666666667,4,1,1,50,0,0
57294,-66.6666666666667,4,1,2,70,0,0
57946,-66.6666666666667,4,1,2,44,0,0
58671,-66.6666666666667,4,1,1,70,0,0
59395,-100,4,1,1,70,0,0
60120,-66.6666666666667,4,1,1,70,0,0
60555,-100,4,1,1,70,0,0
61279,-66.6666666666667,4,1,1,70,0,0
61714,-100,4,1,1,70,0,0
62149,-66.6666666666667,4,1,1,70,0,0
63598,-100,4,1,1,70,0,0
68236,-66.6666666666667,4,1,1,70,0,0
68671,-100,4,1,1,70,0,0
69395,-66.6666666666667,4,1,1,70,0,0
69830,-100,4,1,1,70,0,0
70265,-66.6666666666667,4,1,1,70,0,0
70990,-100,4,1,1,70,0,0
71424,-66.6666666666667,4,1,1,70,0,0
72294,-100,4,1,1,70,0,0
72874,-66.6666666666667,4,1,1,70,0,0
74468,-100,4,1,1,70,0,0
76352,-66.6666666666667,4,1,1,70,0,0
85627,-100,4,1,1,70,0,0
86062,-66.6666666666667,4,1,1,70,0,0
86497,-50,4,1,1,70,0,0
86787,-66.6666666666667,4,1,1,70,0,0
87511,-100,4,1,1,70,0,0
87946,-66.6666666666667,4,1,1,70,0,0
88381,-100,4,1,1,70,0,0
89106,-66.6666666666667,4,1,1,70,0,0
89540,-100,4,1,1,70,0,0
91424,-66.6666666666667,4,1,1,70,0,0
92584,-100,4,1,1,70,0,0
94178,-66.6666666666667,4,1,1,70,0,0
96062,-100,4,1,1,70,0,0
96497,-66.6666666666667,4,1,1,70,0,0
96787,-100,4,1,1,70,0,0
97656,-66.6666666666667,4,1,1,70,0,0
98381,-100,4,1,1,70,0,0
99250,-66.6666666666667,4,1,1,70,0,0
99540,-100,4,1,1,70,0,0
100700,-66.6666666666667,4,1,1,70,0,0
101859,-100,4,1,1,70,0,0
103019,-66.6666666666667,4,1,1,70,0,0
103743,-100,4,1,1,70,0,0
109975,-66.6666666666667,4,1,1,70,0,0
111569,-100,4,1,1,70,0,0
112294,-66.6666666666667,4,1,1,70,0,0
115627,-100,4,1,1,70,0,0
116062,-66.6666666666667,4,1,1,70,0,0
117077,-100,4,1,1,70,0,0
119250,-66.6666666666667,4,1,1,70,0,0
122584,-100,4,1,1,70,0,0
123308,-66.6666666666667,4,2,1,24,0,0
124033,-66.6666666666667,4,1,1,94,0,1
140265,-100,4,1,1,84,0,1
142511,-100,4,1,1,84,0,0
142584,-66.6666666666667,4,1,1,84,0,1
160990,-66.6666666666667,4,1,1,70,0,0
179540,-100,4,1,1,70,0,0
179975,-66.6666666666667,4,1,1,70,0,0
180700,-100,4,1,1,70,0,0
181134,-66.6666666666667,4,1,1,70,0,0
181859,-100,4,1,1,70,0,0
182294,-66.6666666666667,4,1,1,70,0,0
183019,-100,4,1,1,70,0,0
184106,-66.6666666666667,4,1,1,70,0,0
184758,-100,4,1,1,70,0,0
187221,-66.6666666666667,4,1,1,70,0,0
198961,-100,4,1,1,70,0,0
199323,-66.6666666666667,4,1,1,70,0,0
203598,-100,4,1,1,70,0,0
203961,-66.6666666666667,4,1,1,70,0,0
206859,-100,4,2,1,25,0,0
207511,-66.6666666666667,4,1,1,93,0,1
223743,-100,4,1,1,93,0,1
225990,-100,4,1,1,93,0,0
226062,-66.6666666666667,4,1,1,93,0,1
243453,-66.6666666666667,4,1,1,93,0,0
285192,-50,4,1,1,93,0,0
293308,-66.6666666666667,4,1,1,93,0,0
311859,289.855072463768,5,1,1,93,1,0
312149,-100,5,2,1,40,0,0
313058,289.855072463768,4,2,1,40,1,0
313058,-200,4,2,1,40,0,0
330120,289.855072463768,5,1,1,94,1,0
330989,-200,5,2,1,38,0,0
331569,289.855072463768,4,1,1,94,1,1
331569,-66.6666666666667,4,1,1,94,0,1
347728,-66.6666666666667,4,1,1,94,0,0
347801,-57.1428571428571,4,1,1,94,0,1
350047,-66.6666666666667,4,1,1,94,0,0
350120,-66.6666666666667,4,1,1,94,0,1
376642,-66.6666666666667,4,1,1,94,0,0
377076,-66.6666666666667,4,2,1,94,0,0
377801,-50,4,1,1,100,0,1
377946,-50,4,1,1,100,0,1
396496,-50,4,1,1,100,0,0
396569,-100,4,2,1,5,0,0

[Colours]
Combo1 : 118,49,46
Combo2 : 106,85,85
Combo3 : 255,255,255
Combo4 : 67,63,114

[HitObjects]
248,344,32656,22,0,B|256:288|248:224,1,105
192,80,33598,38,0,B|128:32,2,70,4|0|0
256,128,33888,1,0
256,128,34033,1,0
320,176,34178,6,0,B|384:128,2,70,4|0|0
256,240,34468,1,0
256,240,34613,1,0
192,288,34758,6,0,B|128:240,2,70,4|0|0
256,336,35048,1,0
256,336,35192,1,0
320,288,35337,22,0,B|464:288,1,140
431,156,35772,6,0,B|319:132|255:244,1,209.999993741512,4|0
168,328,36207,2,0,B|56:296,1,104.999996870756,8|0
0,208,36497,5,0
80,128,36642,2,0,B|128:160|136:224,1,104.999996870756,0|8
240,280,36932,2,0,B|302:389|414:365,1,209.999993741512,4|0
368,248,37366,22,0,B|480:216,1,104.999996870756,8|0
468,219,37584,1,0
468,219,37656,1,0
312,176,37801,1,0
312,176,37946,1,8
384,104,38091,6,0,B|321:-5|209:18,1,209.999993741512,4|0
152,232,38526,2,0,B|184:176|176:112,1,104.999996870756,8|0
168,112,38743,1,0
160,96,38816,1,0
56,16,38961,2,0,B|24:72|32:136,1,104.999996870756,0|8
288,216,39250,6,0,B|414:182|484:325,1,209.999993741512,4|0
496,192,39685,2,0,B|504:136|480:88,1,104.999996870756,8|0
464,72,39903,1,0
448,56,39975,1,0
384,136,40120,1,0
312,56,40265,1,8
248,136,40410,22,0,B|168:248|24:160,1,209.999993741512,4|0
136,104,40845,2,0,B|152:48|136:0,1,104.999996870756,8|0
16,104,41135,2,0,B|0:160|16:208,1,104.999996870756
88,288,41424,1,8
160,208,41569,22,0,B|240:96|384:184,1,209.999993741512,4|0
280,248,42004,2,0,B|264:192|280:144,1,104.999996870756,8|0
400,248,42294,1,0
352,344,42439,1,0
248,336,42584,1,8
176,256,42729,22,0,B|56:216|16:344,1,209.999993741512,4|0
224,184,43163,2,0,B|240:128|224:80,1,104.999996870756,8|0
216,56,43381,1,0
200,32,43453,1,0
88,24,43598,2,0,B|72:80|88:128,1,104.999996870756,0|8
104,232,43888,1,0
24,304,44033,6,0,B|40:248|24:200,2,104.999996870756,4|0|8
24,304,44468,1,0
128,280,44613,2,0,B|112:336|128:384,2,104.999996870756,0|8|8
216,336,45048,6,0,B|344:384|408:264,1,209.999993741512,4|0
440,184,45482,1,8
392,88,45627,1,0
376,72,45700,1,0
360,56,45772,2,0,B|304:32|256:80,1,104.999996870756
288,256,46062,21,8
288,256,46207,2,0,B|328:216|320:160,1,104.999996870756,4|0
160,32,46497,1,0
160,32,46642,2,0,B|120:72|128:128,1,104.999996870756,8|0
200,200,46932,5,0
272,72,47077,1,0
384,192,47221,1,8
312,320,47366,2,0,B|200:264|104:368,1,209.999993741512,4|0
40,280,47801,6,0,B|16:232|32:168,1,104.999996870756,8|0
40,152,48019,1,0
48,128,48091,1,0
160,32,48236,2,0,B|184:80|168:144,1,104.999996870756,0|8
120,224,48526,1,0
184,312,48671,22,0,B|264:224,1,104.999996870756
432,112,48961,2,0,B|352:200,1,104.999996870756,8|0
336,352,49250,2,0,B|416:264,1,104.999996870756
406,274,49540,1,8
184,312,49685,6,0,B|76:385|-2:249,1,209.999993741512,4|0
120,224,50120,2,0,B|152:184|152:120,1,104.999996870756,8|0
144,104,50337,1,0
136,80,50410,1,0
48,16,50555,2,0,B|16:56|16:120,1,104.999996870756,0|8
240,144,50845,6,0,B|348:71|426:207,1,209.999993741512,4|0
312,376,51279,2,0,B|280:336|280:272,1,104.999996870756,8|0
288,248,51497,1,0
296,224,51569,1,0
440,24,51714,2,0,B|472:64|472:128,1,104.999996870756,0|8
384,184,52004,22,0,B|336:328|176:248,1,209.999993741512,4|0
144,192,52439,2,0,B|112:232|112:296,1,104.999996870756,8|0
120,320,52656,1,0
128,344,52729,1,0
224,384,52874,1,0
328,360,53019,1,8
312,256,53163,1,0
208,272,53308,5,0
208,272,53453,2,0,B|232:216,2,52.4999984353781,0|0|8
120,320,53743,2,0,B|96:368,2,52.4999984353781,0|0|8
24,272,54033,2,0,B|8:224,2,52.4999984353781,0|0|8
104,200,54323,1,0
104,200,54395,1,0
104,200,54468,1,12
104,200,54613,5,0
184,176,54903,1,0
184,176,55048,1,0
264,200,55337,1,0
264,200,55482,1,0
344,176,55772,1,0
344,176,55917,1,0
424,192,56062,21,4
424,192,56135,1,0
424,192,56207,1,0
320,192,56352,1,0
216,192,56497,1,0
112,192,56642,1,0
48,104,56787,6,0,B|152:40,1,104.999996870756,4|0
168,280,57221,1,0
256,336,57366,1,0
288,112,57656,1,0
376,56,57801,1,0
450,141,57946,6,0,B|481:192|450:239,1,104.999996870756
368,304,58236,2,0,B|337:253|368:206,1,104.999996870756
368,205,58816,1,0
128,352,58961,22,0,B|24:288|88:144,1,209.999993741512,4|0
192,232,59395,6,0,B|255:283|321:231,1,140,8|0
368,312,59830,37,0
368,312,59975,1,8
368,312,60120,2,0,B|472:248|408:104,1,209.999993741512,4|0
320,32,60555,6,0,B|257:83|191:31,1,140,8|0
112,56,60990,1,0
80,136,61135,1,8
136,216,61279,38,0,B|240:264|224:112|336:168,1,209.999993741512,4|0
304,248,61714,6,0,B|280:328|328:392,1,140,8|0
440,320,62149,38,0,B|472:200|392:96,2,209.999993741512,4|4|4
328,264,62874,2,0,B|208:264,1,104.999996870756,8|0
104,344,63163,2,0,B|216:344,2,104.999996870756,0|0|8
24,272,63598,6,0,B|0:200|56:120,1,140,4|0
104,48,64033,1,8
104,48,64178,1,0
176,128,64323,2,0,B|200:216,1,70
256,56,64613,1,8
336,120,64758,6,0,B|360:192|304:272,1,140,4|0
416,352,65192,2,0,B|392:280|448:200,2,140,8|0|8
416,352,65917,1,0
136,104,66207,37,0
136,104,66352,2,0,B|180:165|156:237,2,140,8|0|8
48,160,67077,2,0,B|32:240,1,70,0|0
8,328,67366,1,0
8,328,67511,1,8
304,248,67801,2,0,B|288:168,1,70,4|0
264,80,68091,1,8
392,176,68236,38,0,B|504:120|448:0,1,209.999993741512,4|0
264,80,68671,6,0,B|240:216,1,140,8|0
208,352,69250,37,8
208,352,69395,2,0,B|88:389|45:264,1,209.999993741512,4|0
272,296,69830,6,0,B|416:328,1,140,8|0
512,344,70265,1,0
480,88,70555,38,8,B|383:9|296:108,1,209.999993741512,4|0
184,120,70990,6,0,B|136:256,1,140,8|0
88,360,71424,38,0,B|-32:296|32:152,2,209.999993741512,0|4|0
200,344,72149,5,8
360,312,72439,1,4
360,312,72584,2,0,B|384:224,1,70,8|8
456,192,72874,38,0,B|360:96|256:192,1,209.999993741512,4|0
184,240,73308,1,8
184,240,73453,1,0
88,192,73598,2,0,B|64:248|96:304,1,104.999996870756
184,336,73888,1,8
264,264,74033,2,0,B|312:144|208:48,1,209.999993741512
120,8,74468,6,0,B|96:96|168:144,1,140,8|0
155,134,75048,1,8
392,120,75192,2,0,B|416:208|344:256,1,140,4|0
256,208,75627,2,0,B|176:256,1,70,8|0
264,376,75917,2,0,B|280:344|272:304,1,70,0|0
64,152,76207,37,8
64,152,76352,2,0,B|0:264|104:368,1,209.999993741512,4|0
184,376,76787,1,8
272,307,76932,1,0
160,168,77077,22,0,B|168:272,1,104.999996870756
272,136,77366,2,0,B|264:32,1,104.999996870756,8|4
256,192,77656,12,4,79830
224,296,82149,53,4
408,360,84468,53,4
344,288,84903,1,0
288,208,85337,1,0
224,128,85627,22,0,B|312:128,1,70,4|0
360,208,85917,1,0
264,328,86062,6,0,B|120:328,1,104.999996870756,4|0
96,184,86352,1,0
288,272,86497,6,0,B|448:272,1,140,4|0
208,240,86787,22,0,B|136:344|16:264,1,209.999993741512,4|0
25,269,87221,1,8
88,72,87511,5,0
184,120,87656,2,0,B|280:96,1,70,0|8
296,200,87946,38,0,B|368:304|488:224,1,209.999993741512,4|0
424,136,88381,6,0,B|384:56,1,70,8|0
216,40,88671,2,0,B|256:120,1,70,0|0
296,200,88961,1,8
256,296,89106,38,0,B|184:400|64:320,1,209.999993741512,4|0
120,232,89540,6,0,B|160:152,1,70,8|0
248,208,89830,1,0
352,96,89975,2,0,B|416:152|400:240,2,140
264,32,90700,5,8
264,32,90845,1,0
72,64,90990,2,0,B|152:104,1,70
168,192,91279,1,8
320,144,91424,22,0,B|392:256|280:344,1,209.999993741512,4|0
168,192,91859,2,0,B|144:136|176:80,1,104.999996870756,8|0
328,96,92149,2,0,B|392:112|448:64,1,104.999996870756
428,78,92439,1,8
288,224,92584,6,0,B|200:200|128:248,1,140
72,304,93019,1,8
280,352,93308,2,0,B|368:376|440:328,1,140,0|8
384,240,93743,2,0,B|408:96,1,140
280,24,94178,38,0,B|304:144,1,104.999996870756,8|0
240,256,94468,2,0,B|216:136,1,104.999996870756
336,80,94758,1,8
440,168,94903,2,0,B|480:296|368:368,1,209.999993741512,4|0
280,368,95337,2,0,B|160:336,1,104.999996870756,8|0
80,312,95627,1,8
80,312,95772,1,8
136,168,95917,5,0
208,248,96062,2,0,B|296:264|344:176,1,140,4|0
400,344,96497,38,0,B|424:208,1,104.999996870756,8|0
264,16,96787,6,0,B|232:176,1,140,0|8
256,352,97221,2,0,B|224:264|120:272,1,140,4|0
64,328,97656,38,0,B|32:216,1,104.999996870756,8|0
96,40,97946,2,0,B|128:152,1,104.999996870756
216,200,98236,5,8
272,112,98381,2,0,B|336:64|432:96,1,140,4|0
504,272,98816,2,0,B|440:320|344:288,1,140,8|0
272,264,99250,38,0,B|224:296|216:352,1,104.999996870756,0|8
152,264,99540,6,0,B|104:200|144:112,1,140,4|0
168,32,99975,1,8
256,96,100120,1,0
256,96,100192,1,0
256,96,100265,1,0
208,192,100410,1,8
104,192,100555,1,8
40,128,100700,38,0,B|-24:232|40:336,1,209.999993741512,4|0
136,296,101134,2,0,B|176:328|248:320,1,104.999996870756,8|0
376,224,101424,2,0,B|336:256|264:248,1,104.999996870756
312,152,101714,1,8
400,88,101859,6,0,B|464:128|464:224,1,140,4|0
456,312,102294,1,8
128,352,102584,1,0
80,256,102729,1,0
96,152,102874,1,8
160,64,103019,38,0,B|272:120|208:248,1,209.999993741512,4|0
256,360,103453,2,0,B|304:264,1,104.999996870756,8|0
456,64,103743,6,0,B|392:104|392:200,1,140
472,256,104178,1,4
472,256,104250,1,0
472,256,104323,1,8
400,336,104468,1,0
304,296,104613,1,12
304,296,104685,1,0
304,296,104758,1,0
288,192,104903,5,8
200,144,105048,1,0
104,176,105192,1,8
88,280,105337,1,8
160,352,105482,21,4
160,352,105627,1,0
160,352,105917,1,0
304,352,106207,1,0
304,352,106279,1,0
304,352,106352,2,0,B|384:352,1,70
470,321,106642,2,0,B|462:273|438:241,1,70,4|0
448,256,107077,5,0
368,272,107221,1,0
288,240,107366,1,0
208,264,107511,2,0,B|128:264,1,70,8|0
88,200,107801,6,0,B|96:152|120:120,1,70,4|0
110,134,108236,1,0
280,104,108526,1,0
280,104,108671,2,0,B|344:176|432:144,1,140
384,72,109106,1,0
208,0,109250,38,0,B|160:64|216:144,1,140,8|0
264,216,109685,1,0
264,216,109758,1,0
264,216,109830,1,8
336,288,109975,38,0,B|264:392|144:328,1,209.999993741512,4|0
56,296,110410,2,0,B|88:192,1,104.999996870756,8|0
240,104,110700,2,0,B|208:208,1,104.999996870756
144,72,110990,1,8
336,24,111134,2,0,B|320:160|416:224,1,209.999993741512
192,360,111569,6,0,B|216:280|168:208,1,140,8|0
104,160,112004,1,0
40,232,112149,1,8
288,344,112294,38,0,B|408:376|480:264,1,209.999993741512,4|0
352,136,112729,2,0,B|328:192|360:248,1,104.999996870756,8|0
456,128,113019,1,0
396,42,113163,1,0
288,40,113308,1,8
256,136,113453,5,4
256,216,113743,1,0
256,296,114033,5,0
176,368,114178,1,0
104,296,114323,1,0
176,216,114468,21,8
152,320,114613,1,8
56,280,114758,2,0,B|-8:176|72:72,1,209.999993741512,4|8
344,152,115192,2,0,B|408:256|328:360,1,209.999993741512
256,216,115627,6,0,B|256:64,1,140,8|0
167,19,116062,38,0,B|103:123|183:227,1,209.999993741512
344,152,116497,2,0,B|432:88,1,104.999996870756
360,264,116787,2,0,B|272:328,1,104.999996870756,8|8
56,376,117077,6,0,B|96:296|176:296,1,140,4|8
456,288,117511,2,0,B|416:208|336:208,1,140
256,256,117946,1,8
200,168,118091,1,0
288,112,118236,6,0,B|320:152|256:200|312:264,1,140,4|8
368,328,118671,1,0
424,240,118816,1,0
432,224,118888,1,0
440,208,118961,1,0
448,192,119033,1,0
456,176,119106,1,8
408,80,119250,22,0,B|336:-16|208:40,1,209.999993741512,4|0
152,120,119685,1,8
248,352,119975,2,0,B|304:240,1,104.999996870756
352,168,120265,1,8
176,248,120410,22,0,B|48:312|16:176,1,209.999993741512,4|0
192,32,120845,2,0,B|304:88,1,104.999996870756,8|0
368,144,121134,2,0,B|256:200,1,104.999996870756
176,248,121424,1,8
240,328,121569,22,0,B|352:384|424:256,1,209.999993741512,4|0
464,168,122004,1,12
424,72,122149,1,0
424,72,122221,1,0
424,72,122294,1,0
328,24,122439,1,4
328,24,122511,1,0
328,24,122584,1,8
256,96,122729,6,0,B|256:264,1,140,8|8
256,360,123163,1,0
256,360,123453,5,0
208,280,123743,1,2
288,232,124033,6,0,B|400:176|344:32,1,209.999993741512,4|8
448,96,124468,2,0,B|472:224,1,104.999996870756,0|0
368,360,124758,2,0,B|392:232,1,104.999996870756,4|8
272,112,125048,6,0,B|152:80|112:208,1,209.999993741512,4|0
256,360,125482,2,0,B|232:232,1,104.999996870756,12|0
72,120,125772,2,0,B|96:248,1,104.999996870756,4|0
272,304,126062,2,0,B|248:176,1,104.999996870756,12|0
192,8,126352,6,0,B|80:64|136:208,1,209.999993741512,4|8
320,128,126787,2,0,B|296:256,1,104.999996870756,0|0
72,352,127077,2,0,B|48:224,1,104.999996870756,4|8
216,216,127366,2,0,B|336:184|376:312,1,209.999993741512,4|0
200,280,127801,22,0,B|224:152,1,104.999996870756,12|0
340,25,128091,2,0,B|316:153,1,104.999996870756,4|0
136,344,128381,2,0,B|160:216,1,104.999996870756,12|0
456,272,128671,6,0,B|400:384|256:328,1,209.999993741512,4|8
296,232,129106,2,0,B|272:104,1,104.999996870756,0|0
128,32,129395,2,0,B|152:160,1,104.999996870756,4|8
304,40,129685,2,0,B|424:8|464:136,1,209.999993741512,4|0
288,176,130120,6,0,B|264:48,1,104.999996870756,12|0
208,256,130410,2,0,B|232:384,1,104.999996870756,4|0
352,256,130700,2,0,B|328:128,1,104.999996870756,12|0
136,88,130990,22,0,B|24:144|80:288,1,209.999993741512,4|8
304,64,131424,2,0,B|280:192,1,104.999996870756
184,352,131714,2,0,B|160:224,1,104.999996870756,4|8
272,264,132004,2,0,B|392:232|432:360,1,209.999993741512,4|0
472,264,132439,22,0,B|496:136,1,104.999996870756,12|0
400,16,132729,2,0,B|376:144,1,104.999996870756,4|0
400,344,133019,2,0,B|424:216,1,104.999996870756,12|8
256,144,133308,38,0,B|184:264|40:184,1,209.999993741512,4|8
280,0,133743,2,0,B|384:80|320:208,1,209.999993741512
208,296,134178,1,8
208,296,134323,2,0,B|104:216|168:88,1,209.999993741512,4|0
158,109,134758,6,0,B|272:152,1,104.999996870756,12|0
208,296,135048,2,0,B|94:338,1,104.999996870756,4|0
32,168,135337,2,0,B|145:210,1,104.999996870756,12|0
288,168,135627,22,0,B|360:288|504:208,1,209.999993741512,4|8
264,24,136062,2,0,B|160:104|224:232,1,209.999993741512
336,320,136497,1,8
336,320,136642,2,0,B|440:240|376:112,1,209.999993741512,4|0
359,39,137077,6,0,B|245:81,1,104.999996870756,12|0
309,225,137366,2,0,B|422:267,1,104.999996870756,4|0
485,97,137656,2,0,B|371:139,1,104.999996870756,12|0
128,272,137946,6,0,B|240:272,1,104.999996870756,4|0
233,272,138236,1,8
384,192,138381,2,0,B|272:192,1,104.999996870756,4|0
279,192,138671,1,0
392,360,138816,1,8
472,272,138961,1,0
472,152,139106,22,0,B|424:16|272:64,1,209.999993741512,4|8
232,272,139540,1,0
40,224,139685,2,0,B|88:88|240:136,1,209.999993741512,4|8
309,52,140120,1,0
279,192,140265,22,0,B|248:344,1,140,4|8
251,329,140700,1,0
251,329,140990,1,0
352,360,141134,21,8
424,280,141279,1,0
424,280,141352,1,0
424,280,141424,1,8
384,184,141569,1,8
208,128,141714,2,0,B|190:226,1,70,8|8
256,296,142004,2,0,B|274:198,1,70,8|0
168,304,142294,2,0,B|150:402,1,70,8|0
368,216,142584,6,0,B|408:88|296:8,1,209.999993741512,4|8
118,76,143019,2,0,B|214:132,1,104.999996870756,0|0
256,296,143308,2,0,B|160:240,1,104.999996870756,4|8
416,96,143598,6,0,B|496:200|400:320,1,209.999993741512,4|0
176,360,144033,2,0,B|96:256|192:136,1,209.999993741512,12|0
256,104,144468,1,0
344,152,144613,2,0,B|368:208|336:264,1,104.999996870756,8|0
72,160,144903,22,0,B|48:104|80:48,1,104.999996870756,4|0
168,8,145192,1,8
256,104,145337,2,0,B|376:152|456:56,1,209.999993741512,4|0
352,16,145772,1,8
168,128,145917,2,0,B|128:248|208:328,1,209.999993741512,4|0
392,200,146352,6,0,B|416:144|392:88,1,104.999996870756,12|0
200,16,146642,2,0,B|176:72|200:128,1,104.999996870756,4|0
344,280,146932,2,0,B|368:224|344:168,1,104.999996870756,12|0
288,88,147221,1,4
40,352,147511,5,8
128,288,147656,2,0,B|168:336|224:336,1,104.999996870756
384,232,147946,2,0,B|344:280|288:280,1,104.999996870756,4|8
240,192,148236,1,0
440,336,148381,22,0,B|528:248|448:120,1,209.999993741512,4|8
240,192,148816,1,0
144,216,148961,2,0,B|56:128|136:0,1,209.999993741512,0|8
240,192,149395,1,0
408,32,149540,6,0,B|496:120|416:248,1,209.999993741512,4|8
368,312,149975,1,0
368,312,150048,1,0
368,312,150120,1,0
240,192,150265,2,0,B|184:176|136:208,1,104.999996870756,0|8
104,304,150555,1,0
192,360,150700,5,12
272,288,150845,1,0
272,288,150917,1,0
272,288,150990,2,8,B|232:176,1,104.999996870756,8|0
72,88,151279,2,0,B|112:200,1,104.999996870756,12|8
296,192,151569,2,0,B|256:80,1,104.999996870756,12|0
104,304,151859,22,0,B|184:392|312:336,1,209.999993741512,4|8
296,342,152294,1,0
296,342,152584,2,0,B|408:360,1,104.999996870756,0|8
464,176,152874,6,0,B|384:264|256:208,1,209.999993741512,4|0
184,152,153308,2,0,B|240:48,1,104.999996870756,12|0
344,144,153598,2,0,B|392:256,1,104.999996870756,4|0
248,280,153888,2,0,B|128:280,1,104.999996870756,12|0
48,128,154178,6,0,B|128:216|256:160,1,209.999993741512,4|8
240,166,154613,1,0
240,166,154903,2,0,B|288:280,1,104.999996870756,0|8
400,320,155192,22,0,B|320:408|192:352,1,209.999993741512,4|0
80,320,155627,2,0,B|136:216,1,104.999996870756,12|0
264,24,155917,2,0,B|312:136,1,104.999996870756,4|0
352,232,156207,2,0,B|232:232,1,104.999996870756,12|0
64,32,156497,6,0,B|-16:128|40:240,1,209.999993741512,4|8
136,192,156932,2,0,B|256:200|328:72,1,209.999993741512
408,48,157366,2,0,B|440:96|432:160,1,104.999996870756,8|0
360,320,157656,6,0,B|328:272|336:208,2,104.999996870756,4|0|8
464,352,158091,1,0
272,136,158381,1,0
192,200,158526,2,0,B|168:256|176:320,1,104.999996870756,8|0
96,160,158816,22,0,B|102:113|78:57,1,104.999996870756,4|0
0,224,159106,2,0,B|-6:270|17:326,1,104.999996870756,8|0
104,376,159395,1,0
208,352,159540,1,0
256,256,159685,2,0,B|296:208|384:224,1,104.999996870756,8|12
440,352,159975,5,4
440,352,160120,2,0,B|328:320,1,104.999996870756,12|0
40,192,160555,1,12
168,104,160700,1,8
440,352,160990,1,4
256,192,168091,12,4,168961
200,32,169106,21,0
200,32,169250,2,0,B|184:136,1,104.999996870756,4|0
312,256,169540,2,0,B|328:152,1,104.999996870756
96,248,169830,1,0
96,248,169975,2,0,B|160:224|224:272,1,104.999996870756
384,360,170265,22,0,B|488:288|416:144,1,209.999993741512,4|0
429,173,170700,1,0
320,200,171859,5,0
304,203,171932,1,0
289,207,172004,1,0
273,211,172077,1,0
257,215,172149,2,0,B|281:279,2,52.4999984353781
200,344,172439,1,0
96,360,172584,38,0,B|-8:288|64:144,1,209.999993741512,4|0
50,173,173019,1,0
168,208,173743,6,0,B|272:232,1,104.999996870756,0|4
270,231,173985,2,0,B|288:304,4,69.9999979138375
360,344,174468,2,0,B|416:360|465:308,1,104.999996870756
488,216,174758,1,0
424,128,174903,6,0,B|320:160|232:64,1,209.999993741512,4|0
71,170,175337,2,0,B|175:210,1,104.999996870756,8|0
256,360,175627,2,0,B|152:320,1,104.999996870756,0|0
157,322,175917,1,8
424,344,176062,22,0,B|536:288|480:136,1,209.999993741512,4|0
384,168,176497,2,0,B|320:32|176:112,1,209.999993741512,8|0
152,184,176932,1,0
184,288,177077,1,8
296,184,177221,6,0,B|360:304|264:376,1,209.999993741512,4|0
82,259,177656,2,0,B|194:291,1,104.999996870756,8|0
448,256,177946,2,0,B|512:136|416:64,1,209.999993741512,0|8
184,144,178381,6,0,B|120:264|216:336,1,209.999993741512,4|0
211,332,178743,1,0
211,332,178816,1,8
312,360,178961,1,0
448,256,179106,1,0
360,200,179250,1,8
264,240,179395,1,8
168,208,179540,38,0,B|24:208,1,140,4|0
80,112,179975,38,0,B|200:152|280:24,1,209.999993741512,8|0
240,320,180555,1,8
416,152,180700,6,0,B|456:224|392:304,1,140,4|0
280,216,181134,38,0,B|160:176|80:304,1,209.999993741512,8|0
96,280,181569,1,0
32,32,181859,6,0,B|-8:104|56:184,1,140,4|0
128,96,182294,38,0,B|344:128,1,209.999993741512,8|0
335,126,182729,1,0
456,64,183019,6,0,B|496:136|432:216,1,140,4|0
320,272,183453,2,0,B|173:293,1,140,8|0
96,376,183888,2,0,B|64:296,1,70,8|8
24,176,184178,38,0,B|128:240|152:112|256:200,1,209.999993741512,4|0
224,178,184613,1,8
223,179,184903,6,0,B|183:260|231:340,1,140,0|8
352,224,185337,1,0
352,224,185410,1,0
352,224,185482,2,0,B|391:142|343:62,1,140,0|8
320,336,186062,2,0,B|401:375|481:327,1,140,0|8
80,80,186642,37,4
80,80,186714,1,0
80,80,186787,1,0
48,184,186932,1,8
48,184,187077,1,0
128,248,187221,2,0,B|176:216|240:232,1,104.999996870756,4|0
384,336,187511,2,0,B|336:368|272:352,1,104.999996870756,8|4
256,192,187729,12,4,188961
256,112,195917,5,0
288,192,196352,1,0
224,256,196787,1,0
280,328,197077,38,0,B|392:344,1,104.999996870756,4|0
440,280,197366,1,12
224,256,197511,2,0,B|104:328|24:216,1,209.999993741512,4|0
36,231,197874,1,0
36,231,197946,1,8
128,176,198091,21,4
280,328,198381,1,0
288,312,198453,1,0
296,296,198526,1,8
344,200,198671,1,0
352,216,198743,1,0
360,232,198816,1,0
392,352,198961,38,0,B|472:336|488:248,1,140
464,160,199395,38,0,B|368:112,1,104.999996870756
296,296,199685,2,0,B|200:344,1,104.999996870756,8|0
184,352,199903,1,0
168,360,199975,1,0
64,344,200120,1,8
24,248,200265,1,8
80,160,200410,21,4
288,160,200700,1,0
280,176,200772,1,0
272,192,200845,1,8
296,296,200990,1,0
400,320,201134,2,0,B|432:264|408:208,1,104.999996870756
176,288,201569,37,0
168,272,201642,1,0
160,256,201714,1,0
176,152,201859,1,0
264,88,202004,2,0,B|296:144|272:200,1,104.999996870756,8|0
72,232,202294,1,0
48,128,202439,1,8
104,40,202584,1,8
208,40,202729,37,4
232,328,203019,1,0
224,312,203091,1,0
216,296,203163,1,8
168,200,203308,1,0
160,216,203381,1,0
152,232,203453,1,0
256,216,203598,6,0,B|304:280|384:248,1,140
456,176,204033,37,0
416,80,204178,1,0
408,96,204250,1,0
400,112,204323,1,8
296,128,204468,1,0
288,112,204540,1,0
280,96,204613,1,0
216,8,204758,1,0
152,96,204903,1,8
64,40,205048,22,0,B|-8:144|80:240,1,209.999993741512,4|0
88,248,205410,1,0
104,264,205482,2,0,B|192:176|320:224,1,209.999993741512,12|0
368,296,205917,1,4
288,8,206207,37,0
288,8,206279,1,0
288,8,206352,1,0
224,88,206497,1,0
264,184,206642,1,8
208,272,206787,1,8
144,368,206932,5,0
144,368,207221,1,2
288,328,207511,6,0,B|400:384|466:264,1,209.999993741512,4|8
336,128,207946,2,0,B|360:256,1,104.999996870756
432,104,208236,2,0,B|408:-24,1,104.999996870756,4|8
200,0,208526,6,0,B|73:39|105:159,1,209.999993741512,4|0
240,296,208961,2,0,B|216:168,1,104.999996870756,12|0
0,104,209250,2,0,B|24:232,1,104.999996870756,4|0
160,384,209540,2,0,B|136:256,1,104.999996870756,12|0
320,8,209830,6,0,B|432:64|376:208,1,209.999993741512,4|8
240,296,210265,2,0,B|264:168,1,104.999996870756
488,160,210555,2,0,B|464:288,1,104.999996870756,4|8
320,344,210845,2,0,B|200:376|160:248,1,209.999993741512,4|0
304,80,211279,22,0,B|280:208,1,104.999996870756,12|0
24,352,211569,2,0,B|48:224,1,104.999996870756,4|0
200,8,211859,2,0,B|176:136,1,104.999996870756,12|0
120,312,212149,6,0,B|8:256|64:112,1,209.999993741512,4|8
208,240,212584,2,0,B|232:368,1,104.999996870756
304,208,212874,2,0,B|280:80,1,104.999996870756,4|8
472,184,213163,2,0,B|504:304|376:344,1,209.999993741512,4|0
304,264,213598,6,0,B|192:264,1,104.999996870756,12|0
72,176,213888,2,0,B|176:176,1,104.999996870756,4|0
128,344,214178,2,0,B|24:344,1,104.999996870756,12|0
168,96,214468,22,0,B|224:208|368:152,1,209.999993741512,4|8
440,120,214903,2,0,B|416:248,1,104.999996870756
224,352,215192,2,0,B|200:224,1,104.999996870756,4|8
312,56,215482,2,0,B|432:24|472:152,1,209.999993741512,4|0
384,360,215917,22,0,B|360:232,1,104.999996870756,12|0
160,144,216207,2,0,B|184:272,1,104.999996870756,4|0
408,288,216497,2,0,B|384:160,1,104.999996870756,12|8
128,24,216787,38,0,B|8:96|88:240,1,209.999993741512,4|8
256,352,217221,2,0,B|360:272|296:144,1,209.999993741512
272,64,217656,1,8
484,110,217801,2,8,B|516:237|387:298,1,209.999993741512,4|0
256,352,218236,6,0,B|238:237,1,104.999996870756,12|0
336,136,218526,2,0,B|352:240,1,104.999996870756,4|0
136,184,218816,2,0,B|120:72,1,104.999996870756,12|0
384,24,219106,38,0,B|504:96|424:240,1,209.999993741512,4|8
256,352,219540,2,0,B|152:272|216:144,1,209.999993741512
240,64,219975,1,8
28,110,220120,2,8,B|-4:237|124:298,1,209.999993741512,4|0
256,352,220555,6,0,B|274:237,1,104.999996870756,12|0
176,136,220845,2,0,B|160:240,1,104.999996870756,4|0
376,184,221134,2,0,B|392:72,1,104.999996870756,12|0
240,0,221424,22,0,B|256:112,1,104.999996870756,4|0
272,208,221714,1,8
208,344,221859,6,0,B|192:232,1,104.999996870756,4|0
176,136,222149,1,8
312,304,222294,1,8
408,344,222439,1,0
464,256,222584,38,8,B|530:128|391:49,1,209.999993741512,4|8
272,208,223019,1,0
72,200,223163,2,0,B|120:64|272:112,1,209.999993741512,4|8
272,208,223598,1,0
200,360,223743,22,0,B|169:208,1,140,4|8
172,222,224178,1,0
172,222,224468,1,0
200,120,224613,21,8
304,128,224758,1,0
312,112,224830,1,0
312,96,224903,1,8
264,8,225048,1,8
80,104,225192,2,0,B|62:202,1,70,8|8
159,294,225482,2,0,B|177:196,1,70,8|0
48,296,225772,2,0,B|30:394,1,70,8|0
264,288,226062,6,0,B|392:248|472:360,1,209.999993741512,4|8
424,200,226497,2,0,B|404:86,1,104.999996870756
264,8,226787,2,0,B|288:136,1,104.999996870756,4|8
192,360,227077,6,0,B|272:256|176:136,1,209.999993741512,4|0
56,48,227511,2,0,B|-24:152|72:272,1,209.999993741512,8|0
144,288,227946,1,0
232,232,228091,2,0,B|288:208|344:240,1,104.999996870756,12|0
472,360,228381,22,0,B|416:384|360:352,1,104.999996870756,4|0
272,320,228671,1,8
448,208,228816,2,0,B|504:96|408:0,1,209.999993741512
288,144,229250,1,8
232,232,229395,6,0,B|112:272|32:192,1,209.999993741512,4|0
240,40,229830,2,0,B|264:96|240:152,1,104.999996870756,12|0
96,360,230120,2,0,B|72:304|96:248,1,104.999996870756,4|0
328,176,230410,2,0,B|352:232|328:288,1,104.999996870756,12|0
264,352,230700,5,4
112,40,230990,1,8
48,120,231134,2,0,B|24:176|48:232,1,104.999996870756,4|0
160,272,231424,2,0,B|184:216|160:160,2,104.999996870756,0|8|0
72,336,231859,22,0,B|176:416|272:304,1,209.999993741512,4|8
328,240,232294,1,0
216,48,232439,2,0,B|320:-32|416:80,1,209.999993741512,4|8
232,232,232874,2,0,B|208:176|232:120,1,104.999996870756,0|4
464,272,233308,5,8
384,344,233453,1,0
384,344,233526,1,0
384,344,233598,2,0,B|304:320|240:368,1,104.999996870756
56,304,233888,2,0,B|136:328|200:280,1,104.999996870756,8|0
232,232,234178,5,4
208,128,234323,1,0
208,128,234395,1,0
208,128,234468,1,8
112,88,234613,1,0
16,216,234758,2,0,B|96:192|160:240,1,104.999996870756,4|0
128,232,234975,1,0
136,248,235048,1,8
184,344,235192,1,8
288,360,235337,22,0,B|416:384|464:240,1,209.999993741512,4|8
480,160,235772,1,0
232,184,236062,1,0
176,96,236207,1,8
256,24,236352,6,0,B|344:88|336:216,1,209.999993741512,4|0
176,360,236787,2,0,B|88:296|96:168,1,209.999993741512,8|0
232,184,237221,1,0
232,184,237366,2,0,B|320:264,1,104.999996870756,8|0
224,360,237656,6,0,B|96:384|48:240,1,209.999993741512,4|8
32,160,238091,1,0
280,184,238381,1,0
336,96,238526,1,8
256,24,238671,22,0,B|168:88|176:216,1,209.999993741512,4|0
336,360,239106,2,0,B|424:296|416:168,1,209.999993741512,8|0
240,312,239540,1,0
240,312,239685,2,0,B|136:312,1,104.999996870756,8|0
0,128,239975,6,0,B|64:216|192:208,1,209.999993741512,4|8
400,280,240410,2,0,B|407:159|319:95,1,209.999993741512
232,40,240845,1,8
88,344,241134,5,4
88,344,241279,2,0,B|200:320,1,104.999996870756,0|8
400,280,241569,2,0,B|296:272|232:160,1,209.999993741512
160,88,242004,2,0,B|136:200,1,104.999996870756,8|0
320,112,242294,21,4
320,112,242439,2,0,B|344:0,1,104.999996870756,0|8
424,176,242729,1,0
424,176,242874,2,0,B|400:288,1,104.999996870756,4|0
256,376,243163,2,0,B|280:264,1,104.999996870756,8|4
278,273,243598,5,0
200,200,243743,1,0
144,288,243888,1,0
120,296,243961,1,0
96,304,244033,1,0
16,240,244178,1,0
32,136,244323,1,0
200,200,244468,5,4
288,144,244613,2,0,B|304:96|296:40,1,104.999996870756
32,136,244903,1,0
112,208,245048,1,0
112,208,245120,1,0
112,208,245192,2,0,B|128:272|104:320,1,104.999996870756,4|0
192,376,245482,1,0
280,320,245627,6,0,B|352:320|352:320|400:368|400:368|488:368,1,209.999993741512,4|0
470,368,245990,1,0
470,368,246062,1,8
512,272,246207,1,0
336,152,246497,1,0
336,152,246569,1,0
336,152,246642,1,8
248,216,246787,22,0,B|176:216|176:216|128:264|128:264|40:264,1,209.999993741512,4|0
57,264,247149,1,0
57,264,247221,1,8
16,168,247366,1,0
192,48,247656,1,0
192,48,247729,1,0
192,48,247801,1,8
280,112,247946,6,0,B|280:184|280:184|328:232|328:232|328:320,1,209.999993741512,4|0
328,302,248308,1,0
328,302,248381,1,8
248,376,248526,1,0
136,160,248816,1,0
136,160,248888,1,0
136,160,248961,1,8
216,232,249106,6,0,B|288:232|288:232|336:280|336:280|424:280,1,209.999993741512,4|0
406,280,249468,1,0
406,280,249540,1,8
480,208,249685,1,0
376,64,249830,2,0,B|376:176,2,104.999996870756,4|8|8
224,144,250265,22,0,B|152:144|152:144|104:192|104:192|16:192,1,209.999993741512,4|0
33,192,250627,1,0
33,192,250700,1,8
80,288,250845,1,0
80,80,251134,1,0
80,80,251207,1,0
80,80,251279,1,8
216,232,251424,6,0,B|288:232|288:232|336:280|336:280|424:280,1,209.999993741512,4|0
406,280,251787,1,0
406,280,251859,1,8
488,208,252004,1,0
384,24,252294,1,0
384,24,252366,1,0
384,24,252439,1,8
328,112,252584,6,0,B|328:184|328:184|280:232|280:232|280:320,1,209.999993741512,4|0
280,302,252946,1,0
280,302,253019,1,8
192,240,253163,2,0,B|192:168|192:168|144:120|144:120|144:32,1,209.999993741512
144,50,253526,1,0
144,50,253598,1,8
64,120,253743,22,0,B|64:192|64:192|16:240|16:240|16:328,1,209.999993741512,4|0
16,310,254106,1,0
16,310,254178,1,8
104,368,254323,1,0
232,272,254468,2,0,B|120:272,2,104.999996870756,0|8|8
296,192,254903,6,0,B|360:130|416:266|488:226|512:154,1,209.999993741512,4|0
494,180,255265,1,0
499,165,255337,1,8
504,150,255410,1,0
509,135,255482,1,0
296,16,255772,1,0
291,31,255845,1,0
286,46,255917,1,8
281,61,255990,1,0
276,76,256062,1,4
176,264,256352,5,0
171,249,256424,1,0
166,234,256497,1,8
161,219,256569,1,0
156,204,256642,1,0
80,8,256932,1,0
75,23,257004,1,0
70,38,257077,1,8
65,53,257149,1,0
60,68,257221,1,4
0,312,257511,21,0
15,317,257584,1,0
30,322,257656,1,8
45,327,257729,1,0
59,332,257801,1,4
264,344,258091,2,0,B|280:296,3,52.4999984353781,0|0|8|0
288,280,258381,2,0,B|320:192|320:192|264:88,1,209.999993741512,4|0
256,75,258743,1,0
247,61,258816,1,8
238,47,258888,1,0
226,35,258961,6,0,B|117:35,1,104.999996870756
344,80,259250,2,0,B|453:80,1,104.999996870756,0|8
200,160,259540,6,0,B|168:248|168:248|224:352,1,209.999993741512,4|0
223,350,259903,1,0
223,350,259975,1,8
223,350,260048,1,0
223,350,260120,1,0
424,232,260410,1,0
409,237,260482,1,0
394,242,260555,1,8
379,247,260627,1,0
364,252,260700,1,4
88,152,260990,21,0
103,157,261062,1,0
118,162,261134,1,8
133,167,261207,1,0
148,172,261279,1,0
424,96,261569,1,0
409,101,261642,1,0
394,106,261714,1,8
379,111,261787,1,0
364,116,261859,1,4
88,16,262149,21,0
103,21,262221,1,0
118,26,262294,1,8
133,31,262366,1,0
148,36,262439,1,0
248,72,262584,1,0
264,176,262729,2,0,B|272:232,4,52.4999984353781,0|0|8|0|8
248,72,263163,37,0
248,72,263236,1,0
248,72,263308,1,0
248,72,263381,1,0
248,72,263453,1,8
344,32,263598,2,0,B|448:32,1,104.999996870756
168,144,263888,2,0,B|64:144,1,104.999996870756,0|8
16,216,264178,1,4
256,192,264250,12,4,265482
160,224,265627,5,0
160,224,265700,1,0
160,224,265772,1,4
256,192,265917,1,0
256,192,265990,1,0
256,192,266062,1,4
352,160,266207,1,0
448,120,266352,1,4
472,352,266497,22,0,B|488:256|352:208|320:344,1,209.999993741512,4|0
256,368,266932,2,0,B|200:344,2,52.4999984353781,8|0|0
296,208,267221,2,0,B|312:152|296:104,1,104.999996870756,4|0
120,24,267511,2,0,B|72:0,2,52.4999984353781,8|0|0
104,144,267801,2,0,B|88:200|104:248,1,104.999996870756,4|0
280,328,268091,2,0,B|328:352,2,52.4999984353781,8|0|0
475,266,268381,6,0,B|414:229|355:290,1,104.999996870756,4|0
280,240,268671,2,0,B|224:264,2,52.4999984353781,8|0|0
27,154,268961,2,0,B|88:117|147:178,1,104.999996870756,4|0
222,128,269250,2,0,B|278:152,2,52.4999984353781,8|0|0
475,50,269540,2,0,B|414:13|355:74,1,104.999996870756,4|0
280,24,269830,2,0,B|224:48,2,52.4999984353781,8|0|0
128,312,270120,6,0,B|72:336,2,52.4999984353781,12|0|0
376,216,270410,2,0,B|432:240,2,52.4999984353781,12|0|0
120,136,270700,2,0,B|64:160,2,52.4999984353781,12|0|0
376,56,270990,2,0,B|432:80,2,52.4999984353781,12|0|2
376,56,271424,21,0
296,120,271569,2,0,B|280:232,1,104.999996870756,10|0
155,330,271859,2,0,B|171:218,1,104.999996870756,2|0
96,96,272149,1,10
96,96,272294,2,2,B|168:40|248:88|248:224,1,209.999993741512,4|2
392,328,272729,6,0,B|376:216,1,104.999996870756,10|0
272,136,273019,2,0,B|288:248,1,104.999996870756,2|0
464,104,273308,1,10
464,104,273453,2,2,B|392:48|312:96|312:232,1,209.999993741512,4|2
224,224,273888,6,0,B|112:208,1,104.999996870756,10|0
0,288,274178,2,0,B|112:304,1,104.999996870756,2|0
192,360,274468,1,10
288,320,274613,22,2,B|360:376|440:328|440:192,1,209.999993741512,4|2
320,104,275048,2,0,B|344:208,2,104.999996870756,10|0|2
288,8,275482,1,2
288,8,275627,1,8
224,224,275772,6,0,B|152:280|72:232|72:96,1,209.999993741512,4|0
48,48,276207,1,8
48,48,276279,1,0
48,48,276352,1,0
144,88,276497,1,0
144,88,276569,1,0
144,88,276642,1,0
88,176,276787,1,8
88,176,276859,1,0
88,176,276932,1,0
176,232,277077,5,0
176,232,277149,1,0
176,232,277221,1,0
96,296,277366,1,8
96,296,277439,1,0
96,296,277511,1,0
176,360,277656,1,0
176,360,277729,1,0
176,360,277801,1,0
272,328,277946,1,8
368,360,278091,22,0,B|416:240|328:152,1,209.999993741512,4|0
272,80,278526,2,0,B|176:136,1,104.999996870756,8|0
144,272,278816,2,0,B|240:216,1,104.999996870756
8,56,279106,5,8
8,56,279250,2,0,B|-40:176|48:264,1,209.999993741512,4|0
144,272,279685,1,8
224,208,279830,2,0,B|344:160|432:248,1,209.999993741512
216,352,280265,5,8
144,272,280410,2,0,B|96:152|184:64,1,209.999993741512,4|0
432,128,280845,2,0,B|376:224,1,104.999996870756,8|0
240,256,281134,2,0,B|296:160,1,104.999996870756,0|0
328,336,281424,21,8
328,336,281569,2,0,B|208:384|120:296,1,209.999993741512,4|0
184,48,282004,2,0,B|280:104,1,104.999996870756,8|0
312,240,282294,2,0,B|216:184,1,104.999996870756,0|0
136,128,282584,1,8
456,40,282729,6,0,B|504:160|416:248,1,209.999993741512,4|0
427,236,283091,1,0
427,236,283163,1,8
248,152,283308,2,0,B|208:264,2,104.999996870756,0|0|0
376,72,283743,5,8
376,72,283816,1,0
376,72,283888,2,0,B|336:184,1,104.999996870756,0|4
463,336,284178,2,0,B|423:224,1,104.999996870756,0|8
264,320,284468,2,0,B|376:352,2,104.999996870756,0|12|0
160,288,284903,1,8
128,184,285048,1,0
80,96,285192,22,0,B|40:168,2,69.9999979138375,12|0|0
168,80,285482,2,0,B|128:8,2,69.9999979138375,8|0|0
248,120,285772,2,0,B|208:192,2,69.9999979138375,8|0|0
336,104,286062,2,0,B|296:32,2,69.9999979138375,8|0|0
392,176,286352,6,0,B|352:248|392:328,1,139.999995827675,12|0
464,360,286642,2,0,B|504:288,2,69.9999979138375,8|0|0
240,384,286932,2,0,B|280:312|240:232,1,139.999995827675,8|0
184,152,287221,2,0,B|144:80,2,69.9999979138375,12|0|0
432,96,287511,6,0,B|472:168,2,69.9999979138375,12|0|0
344,80,287801,2,0,B|384:8,2,69.9999979138375,8|0|0
264,120,288091,2,0,B|304:192,2,69.9999979138375,8|0|0
176,104,288381,2,0,B|216:32,2,69.9999979138375,8|0|0
120,176,288671,22,0,B|160:248|120:328,1,139.999995827675,12|0
48,360,288961,2,0,B|8:288,2,69.9999979138375,8|0|0
224,264,289250,6,0,B|296:224|376:264,1,139.999995827675,8|0
424,320,289540,2,0,B|384:392,2,69.9999979138375,8|0|0
472,240,289830,6,0,B|512:168,2,69.9999979138375,12|0|0
416,168,290120,2,0,B|376:96,2,69.9999979138375,8|0|0
472,96,290410,2,0,B|512:24,2,69.9999979138375,8|0|0
360,232,290700,2,0,B|288:272|208:232,1,139.999995827675,8|0
200,152,290990,22,0,B|240:80,2,69.9999979138375,12|0|0
120,192,291279,2,0,B|80:264,2,69.9999979138375,8|0|0
72,112,291569,2,0,B|112:40,2,69.9999979138375,8|0|0
144,336,291859,2,0,B|216:296|296:336,1,139.999995827675,8|0
336,248,292149,6,0,B|296:176,2,69.9999979138375,8|0|0
416,288,292439,2,0,B|456:360,2,69.9999979138375,8|0|0
464,208,292729,2,0,B|424:136,2,69.9999979138375,8|0|0
464,208,293019,1,8
464,208,293163,1,0
168,144,293453,5,0
120,240,293598,1,8
32,192,293743,1,0
40,172,293816,1,0
48,152,293888,1,0
56,132,293961,1,0
64,112,294033,1,0
72,92,294106,1,0
80,72,294178,1,8
376,32,294323,22,0,B|416:152|312:224,1,209.999993741512,4|0
216,160,294758,2,0,B|200:56,1,104.999996870756,8|0
96,216,295048,2,0,B|112:320,1,104.999996870756
208,368,295337,1,8
288,296,295482,2,0,B|384:376|488:304,1,209.999993741512,4|0
432,216,295917,2,0,B|328:168,1,104.999996870756,8|0
56,256,296207,2,0,B|160:304,1,104.999996870756
232,120,296497,1,8
136,32,296642,6,0,B|96:152|200:224,1,209.999993741512,4|0
296,160,297077,2,0,B|312:56,1,104.999996870756,8|0
416,216,297366,2,0,B|400:320,1,104.999996870756
224,344,297656,1,8
80,240,297801,2,0,B|0:144|72:40,1,209.999993741512,4|0
296,224,298236,2,0,B|312:328,1,104.999996870756,8|0
416,168,298526,2,0,B|400:64,1,104.999996870756
32,120,298816,1,8
112,344,298961,6,0,B|200:256|136:128,1,209.999993741512,4|0
80,56,299395,1,8
80,56,299540,2,0,B|-8:144|56:272,1,209.999993741512,4|0
112,344,299975,1,8
320,248,300120,22,0,B|408:160|344:32,1,209.999993741512,4|0
148,151,300555,1,8
148,151,300700,2,0,B|60:239|124:367,1,209.999993741512,4|0
216,376,301134,1,8
424,216,301279,6,0,B|512:128|448:0,1,209.999993741512,4|0
64,88,301714,1,8
64,88,301859,2,0,B|-24:176|40:304,1,209.999993741512,4|0
96,368,302294,1,8
448,56,302439,6,0,B|360:144|232:80,1,209.999993741512,4|0
96,368,302874,1,8
96,368,303019,2,0,B|184:280|312:344,1,209.999993741512,4|0
392,360,303453,1,8
256,208,303598,22,4,B|120:224|40:128,1,209.999993741512
40,256,304033,2,0,B|0:360,1,104.999996870756,8|0
216,120,304323,2,0,B|176:16,2,104.999996870756,0|8|0
312,296,304758,6,4,B|440:352|496:224,1,209.999993741512,4|4
432,152,305192,2,0,B|392:48,1,104.999996870756,8|0
192,248,305482,2,0,B|232:352,1,104.999996870756,0|8
320,136,305772,2,0,B|280:32,1,104.999996870756,0|4
256,192,305990,12,4,308236
256,192,308526,37,0
256,192,308598,1,0
256,192,308671,1,12
216,288,308816,1,0
216,288,308888,1,0
216,288,308961,1,0
288,368,309106,1,0
368,296,309250,2,0,B|416:272|480:288,1,104.999996870756,8|4
152,200,309685,6,0,B|104:224|40:208,1,104.999996870756,0|8
256,32,309975,2,0,B|304:8|368:24,1,104.999996870756
424,104,310265,5,0
368,192,310410,1,8
280,136,310555,2,0,B|200:224|280:344,1,209.999993741512,4|0
270,329,310917,1,0
270,329,310990,1,8
376,352,311135,1,0
456,288,311279,1,0
456,184,311424,21,0
456,184,311497,1,0
456,184,311569,1,8
384,112,311714,1,2
384,112,312004,1,2
144,264,312438,5,0
40,168,312728,1,0
152,72,313058,2,0,B|176:200,1,105,4|0
256,232,313783,1,2
256,232,314073,2,0,B|280:360,1,105,0|2
368,192,314797,5,0
472,96,315087,1,0
360,0,315377,2,0,B|336:128,1,105,0|2
256,160,316102,1,0
256,160,316392,2,0,B|232:288,1,105,0|2
112,328,317116,21,0
40,208,317406,1,0
128,96,317696,2,0,B|240:56,1,105,0|2
352,128,318421,1,0
296,256,318710,2,0,B|184:216,1,105,0|2
104,320,319435,1,0
240,368,319725,1,0
376,328,320015,6,0,B|432:288|432:288|456:200,1,140,0|2
480,80,321174,1,0
352,128,321754,1,2
256,32,322044,1,0
192,160,322334,6,0,B|224:280,1,105,4|2
344,328,323058,1,0
144,360,323348,2,0,B|112:240,1,105,0|2
80,112,324073,1,0
176,16,324363,1,0
240,144,324652,22,0,B|208:264,1,105,0|2
88,312,325377,1,0
288,344,325667,2,0,B|320:224,1,105,0|2
352,104,326392,1,0
432,216,326681,1,0
320,304,326971,6,0,B|160:280,1,140,0|2
120,192,328131,2,0,B|280:216,1,140,0|2
320,304,329290,1,4
480,168,329725,1,2
192,328,330264,37,0
192,328,330337,1,0
192,328,330409,1,4
72,224,330627,1,0
216,168,330844,1,0
144,96,330989,6,0,B|152:24,1,70,0|2
512,256,331569,22,0,B|448:376|312:312,1,209.999993741512,4|8
224,136,332003,2,0,B|240:248,1,104.999996870756,0|0
344,120,332293,2,0,B|328:8,1,104.999996870756,4|8
32,248,332583,6,0,B|96:368|232:304,1,209.999993741512,4|0
288,368,333018,1,8
456,184,333163,2,0,B|344:200,1,104.999996870756,0|4
144,128,333453,2,0,B|256:112,1,104.999996870756,0|12
424,272,333742,1,0
224,208,333887,6,0,B|104:272|168:408,1,209.999993741512,4|8
384,240,334322,2,0,B|368:128,1,104.999996870756
64,16,334612,2,0,B|80:128,1,104.999996870756,4|8
304,224,334902,22,0,B|424:160|360:24,1,209.999993741512,4|0
464,96,335337,1,8
248,136,335482,2,0,B|136:120,1,104.999996870756,0|4
0,208,335772,2,0,B|112:224,1,104.999996870756,0|12
304,56,336061,1,0
448,192,336206,6,0,B|488:304|384:376,1,209.999993741512,4|8
64,192,336641,2,0,B|24:80|128:8,1,209.999993741512
192,88,337076,1,8
352,272,337221,6,0,B|272:328|240:224|152:280,1,209.999993741512,4|0
320,192,337655,2,0,B|344:144|320:88,1,104.999996870756,12|0
208,240,337945,2,0,B|184:288|208:344,1,104.999996870756,4|0
424,120,338235,2,0,B|448:72|424:16,1,104.999996870756,12|0
40,208,338525,22,0,B|120:264|152:160|240:216,1,209.999993741512,4|8
280,312,338960,2,0,B|328:336|384:312,1,104.999996870756
480,104,339250,2,0,B|400:160|368:56|280:112,2,209.999993741512,4|4|0
496,208,339974,6,0,B|480:320,1,104.999996870756,12|0
224,352,340264,2,0,B|240:240,1,104.999996870756,4|0
416,24,340554,2,0,B|400:136,1,104.999996870756,12|8
104,280,340844,6,0,B|24:191|94:85,1,209.999993741512,4|8
272,200,341279,2,0,B|328:224|376:200,1,104.999996870756
472,160,341569,2,0,B|512:272|408:344,1,209.999993741512
160,344,342003,22,0,B|136:288|160:240,1,104.999996870756,4|0
352,96,342293,2,0,B|376:152|352:200,1,104.999996870756,12|0
32,280,342583,2,0,B|8:224|32:176,1,104.999996870756,4|0
80,80,342873,1,8
448,192,343163,6,0,B|488:80|384:8,1,209.999993741512,4|8
160,144,343597,2,0,B|184:256,1,104.999996870756
336,344,343887,2,0,B|312:232,1,104.999996870756,4|8
32,168,344177,6,0,B|-8:280|96:352,1,209.999993741512,4|0
192,376,344612,1,8
352,256,344757,2,0,B|368:152,1,104.999996870756,0|4
320,56,345047,1,0
160,144,345192,2,0,B|176:248,1,104.999996870756,12|0
418,350,345482,22,0,B|520:280|480:168,1,209.999993741512,4|8
272,312,345916,2,0,B|187:395|80:332,1,209.999993741512,4|0
16,168,346351,2,0,B|32:64,1,104.999996870756,12|0
264,128,346641,6,0,B|248:232,1,104.999996870756,4|0
152,264,346931,1,8
112,168,347076,2,0,B|128:64,1,104.999996870756,4|0
376,208,347366,2,0,B|360:312,1,104.999996870756,4|12
264,360,347655,1,0
32,248,347801,38,6,B|-24:112|104:0,1,244.999989047647,6|10
480,136,348235,2,6,B|536:272|408:384,1,244.999989047647,6|10
232,368,348670,1,14
144,208,348815,1,0
272,80,348960,6,2,B|336:56|408:96,1,122.499994523824,14|14
264,296,349250,1,4
232,304,349322,1,0
200,296,349395,1,2
80,144,349540,38,2,B|56:72|104:8,1,122.500001168251,14|14
360,224,349830,2,2,B|384:288|344:360,1,122.499994523824,14|14
472,272,350119,6,0,B|528:152|440:72,1,209.999993741512,4|8
288,120,350554,2,0,B|272:232,1,104.999996870756
72,272,350844,2,0,B|72:216|120:168,1,105.000004005432,4|8
424,344,351134,2,0,B|304:400|224:312,1,209.999993741512,4|0
184,224,351569,1,8
200,120,351713,1,0
288,64,351858,1,4
384,96,352003,1,0
320,184,352148,2,0,B|288:224|312:304,1,104.999996870756,12|8
464,208,352438,38,0,B|520:88|432:8,1,209.999993741512,4|8
168,160,352873,2,0,B|184:272,1,104.999996870756
376,360,353163,2,0,B|360:248,1,104.999996870756,4|8
256,40,353453,6,0,B|136:-16|56:72,1,209.999993741512,4|0
282,357,353887,2,0,B|298:306|280:244,1,104.999996870756,12|0
110,142,354177,2,0,B|94:193|112:255,1,104.999996870756,4|0
362,150,354467,2,0,B|379:99|361:37,1,104.999996870756,12|8
200,256,354757,6,0,B|80:312|0:224,1,209.999993741512,4|8
0,128,355192,1,0
56,40,355337,1,4
160,48,355482,1,0
216,136,355626,22,0,B|336:192|416:104,1,209.999993741512,8|4
144,200,356061,2,0,B|128:256|152:304,1,104.999996870756,0|8
328,376,356351,2,0,B|344:320|320:272,1,104.999996870756,0|4
16,88,356641,2,0,B|0:144|24:192,1,104.999996870756,0|8
96,272,356931,1,0
216,136,357076,6,0,B|336:80|416:168,1,209.999993741512,4|0
424,264,357511,1,0
424,264,357583,1,0
424,264,357655,1,8
360,344,357800,1,0
256,352,357945,1,8
184,272,358090,1,8
216,160,358235,5,4
224,140,358308,1,0
226,119,358380,1,0
221,98,358453,1,0
212,79,358525,1,4
196,64,358597,1,0
177,54,358670,1,0
156,48,358742,1,0
134,49,358815,1,4
115,58,358887,1,0
96,68,358960,1,0
82,83,359032,1,0
74,102,359105,1,4
70,122,359177,1,0
74,142,359250,1,0
82,160,359322,1,0
93,177,359395,22,0,B|189:273|301:169,1,209.999993741512,4|8
432,312,359829,2,0,B|336:408|224:304,1,209.999993741512
244,321,360264,1,8
376,208,360409,2,0,B|472:112|368:0,1,209.999993741512,4|0
136,176,360844,2,0,B|40:272|144:384,2,209.999993741512,8|4|8
216,104,361569,5,0
432,240,361713,2,0,B|336:336|224:232,1,209.999993741512,4|8
88,40,362147,2,0,B|184:136|296:32,1,209.999993741512
275,49,362583,1,8
384,160,362728,2,0,B|480:256|376:368,1,209.999993741512,4|0
176,312,363163,6,0,B|160:200,1,104.999996870756,12|0
277,51,363453,2,0,B|293:163,1,104.999996870756,4|0
304,256,363742,1,8
304,256,363887,1,8
392,312,364032,22,0,B|475:227|412:120,1,209.999993741512,4|8
208,256,364467,2,0,B|120:344|-11:263,1,209.999993741512
64,184,364902,1,8
352,352,365192,6,0,B|268:267|331:160,1,209.999993741512,4|8
464,16,365627,2,0,B|552:104|471:235,1,209.999993741512
432,296,366062,1,8
232,112,366351,5,4
48,296,366786,1,0
48,296,366858,1,0
48,296,366931,1,0
120,368,367076,1,0
216,328,367221,1,8
208,224,367366,1,0
48,80,367511,22,0,B|24:136|40:192,1,104.999996870756,4|0
320,248,367800,2,0,B|344:192|328:136,1,104.999996870756,8|0
160,160,368090,2,0,B|136:216|152:272,1,104.999996870756,4|0
432,328,368379,2,0,B|456:272|440:216,1,104.999996870756,12|8
256,328,368670,6,0,B|168:416|36:335,1,209.999993741512,4|8
264,144,369105,2,0,B|352:56|483:136,1,209.999993741512
408,216,369540,2,0,B|376:264|384:336,1,104.999996870756,8|0
128,224,369829,6,0,B|80:192|8:200,2,104.999996870756,4|0|8
224,264,370264,2,0,B|312:176|231:44,1,209.999993741512
96,112,370699,2,0,B|8:200|88:331,1,209.999993741512,8|4
424,224,371279,21,8
480,312,371424,2,0,B|392:400|260:319,1,209.999993741512
200,280,371858,1,8
192,176,372003,1,0
248,88,372148,5,4
248,88,372221,1,0
248,88,372293,1,0
352,72,372438,1,8
352,72,372511,1,0
352,72,372583,1,0
432,136,372728,1,4
432,136,372800,1,0
432,136,372873,1,0
440,240,373018,1,8
440,240,373090,1,0
440,240,373163,1,0
392,336,373308,22,0,B|336:360|288:336,1,104.999996870756,4|0
56,224,373742,1,0
56,224,373815,1,0
56,224,373887,2,0,B|112:248|160:224,1,104.999996870756,4|0
432,136,374322,21,0
432,136,374395,1,0
432,136,374467,2,0,B|376:160|328:136,1,104.999996870756,4|0
112,40,374902,1,0
112,40,374975,1,0
112,40,375047,2,0,B|168:64|216:40,1,104.999996870756,4|0
360,240,375337,2,0,B|304:216|256:240,1,104.999996870756,12|0
80,352,375626,22,0,B|136:376|184:352,1,104.999996870756,4|0
104,208,375916,2,0,B|48:184|0:208,1,104.999996870756,12|8
192,136,376206,2,0,B|248:160|296:136,1,104.999996870756,4|8
392,96,376496,1,0
480,40,376641,1,12
352,336,377366,21,4
168,80,377801,38,6,B|64:24|-40:144|32:256,1,280
272,136,378236,2,0,B|296:64|256:0,1,140,10|0
104,232,378526,2,0,B|80:304|120:368,1,140,2|0
256,352,378816,1,8
317,229,378961,6,6,B|213:285|109:165|181:53,1,280
400,168,379395,2,0,B|424:240|384:304,1,140,10|0
385,302,379613,1,0
385,302,379685,1,2
318,230,379830,2,0,B|294:158|334:94,1,140,0|10
504,224,380120,6,4,B|560:328|440:432|328:360,1,280
176,216,380555,2,0,B|104:192|40:232,1,140,10|0
248,319,380845,2,0,B|320:343|384:303,1,140,2|0
424,168,381134,1,8
120,64,381279,22,2,B|0:192|112:312,1,280
304,176,381714,2,0,B|328:104|288:40,1,140,10|0
289,41,381932,1,0
289,41,382004,1,2
192,144,382149,1,8
240,272,382294,1,8
472,216,382438,6,4,B|528:320|408:424|296:352,1,280
48,192,382873,2,0,B|24:120|64:56,1,140,12|0
376,128,383163,2,0,B|400:200|360:264,1,140,4|0
224,304,383453,1,8
144,192,383598,6,4,B|88:88|208:-16|320:56,1,280
248,208,384033,2,4,B|304:312|184:416|72:344,1,280,12|4
8,256,384467,1,0
88,144,384612,1,8
360,208,384757,22,4,B|304:312|424:416|536:344,1,280
288,168,385192,2,4,B|184:112|80:232|152:344,1,280,12|4
272,368,385627,1,0
376,272,385772,1,12
352,136,385917,1,0
176,56,386062,5,0
200,72,386134,1,4
219,91,386206,1,0
231,116,386279,1,0
236,143,386351,1,0
230,170,386424,1,0
214,190,386497,1,0
192,207,386569,1,0
169,223,386642,1,0
153,246,386714,1,0
141,271,386787,1,0
143,298,386859,1,0
149,325,386932,1,0
165,347,387004,1,0
187,364,387077,6,0,B|259:412|323:372,1,140,14|0
432,256,387366,1,0
432,256,387439,1,0
432,256,387511,1,14
336,152,387656,1,0
336,152,387729,1,0
336,152,387801,1,14
432,48,387946,2,0,B|360:0|296:48,1,140,2|12
64,192,388236,2,2,B|136:240|200:192,1,140,14|0
128,80,388526,21,0
0,136,388671,1,14
16,272,388816,1,0
16,272,388888,1,0
16,272,388961,1,14
152,312,389106,1,10
288,344,389250,1,10
344,216,389395,6,0,B|280:264|208:216,1,140,14|0
136,104,389685,1,0
248,24,389830,2,0,B|312:-24|384:24,1,140,14|0
378,20,390048,1,0
378,20,390120,1,14
496,200,390265,2,0,B|432:248|360:200,1,140,2|8
240,136,390555,1,14
16,216,390700,6,0,B|80:168|152:216,1,140,0|0
192,344,390990,1,14
56,304,391134,1,0
56,304,391207,1,0
56,304,391279,1,10
112,96,391424,2,0,B|176:48|248:96,1,140,2|10
480,256,391714,22,0,B|352:376|232:264,1,280,14|0
232,264,392077,1,0
232,264,392149,1,14
352,192,392294,1,0
320,56,392439,2,0,B|256:8|184:56,1,140,14|2
88,152,392729,2,0,B|152:200|224:152,1,140,12|10
424,264,393019,6,0,B|360:216|288:264,1,140,4|8
184,352,393308,1,6
56,296,393453,1,8
56,296,393526,1,0
56,296,393598,1,2
160,208,393743,1,10
48,120,393888,1,10
152,24,394033,6,0,B|280:144|400:32,1,280,14|0
399,32,394395,1,0
399,32,394468,1,14
488,144,394613,1,0
488,144,394685,1,0
488,144,394758,1,14
440,272,394903,1,0
336,184,395048,1,2
264,304,395192,1,10
176,192,395337,21,6
84,296,395482,1,0
59,282,395554,1,0
36,264,395627,1,0
23,239,395699,1,0
23,210,395772,1,0
34,184,395844,1,0
53,164,395917,1,0
77,151,395989,1,0
103,140,396062,1,0
122,120,396134,1,0
135,95,396207,1,0
136,67,396279,1,0
129,41,396352,1,0
107,23,396424,1,0
81,11,396497,1,4
256,192,396569,12,4,410120
256,192,410264,12,0,431279
