osu file format v14

[General]
AudioFilename: d4.mp3
AudioLeadIn: 0
PreviewTime: 206932
Countdown: 0
SampleSet: Normal
StackLeniency: 0.7
Mode: 1
LetterboxInBreaks: 0
WidescreenStoryboard: 0

[Editor]
DistanceSpacing: 0.6
BeatDivisor: 4
GridSize: 32
TimelineZoom: 2.999999

[Metadata]
Title:AugoEidEs
TitleUnicode:∧ugΦEidEs
Artist:DystopiaGround
ArtistUnicode:DystopiaGround
Creator:Nwolf
Version:UtopiaOni
Source:
Tags:nao demetori
BeatmapID:578179
BeatmapSetID:251741

[Difficulty]
HPDrainRate:4
CircleSize:4
OverallDifficulty:6
ApproachRate:8
SliderMultiplier:1.4
SliderTickRate:1

[Events]
//Background and Video events
0,0,"bg.jpg",0,85
//Break Periods
//Storyboard Layer 0 (Background)
//Storyboard Layer 1 (Fail)
//Storyboard Layer 2 (Pass)
//Storyboard Layer 3 (Foreground)
//Storyboard Sound Samples

[TimingPoints]
1135,289.855072463768,4,1,0,65,1,0
124033,-100,4,1,0,65,0,1
160555,-100,4,1,0,65,0,0
207511,-100,4,1,0,65,0,1
243453,-100,4,1,0,65,0,0
285192,-100,4,1,0,65,0,1
311859,289.855072463768,5,1,0,65,1,1
312438,-100,5,1,0,65,0,0
313058,289.855072463768,4,1,0,35,1,0
313058,-133.333333333333,4,1,0,35,0,0
330120,289.855072463768,5,1,0,65,1,0
331569,289.855072463768,4,1,0,65,1,1
373308,-100,4,1,0,65,0,0

[Colours]
Combo1 : 118,49,46
Combo2 : 106,85,85
Combo3 : 255,255,255
Combo4 : 67,63,114

[HitObjects]
288,160,33598,5,8,0:0:0:0:
288,160,33671,1,8,0:0:0:0:
224,160,33743,1,0,0:0:0:0:
288,160,33888,1,8,0:0:0:0:
288,160,34033,1,8,0:0:0:0:
288,160,34178,1,8,0:0:0:0:
288,160,34250,1,8,0:0:0:0:
224,160,34323,1,0,0:0:0:0:
288,160,34468,1,8,0:0:0:0:
288,160,34613,1,8,0:0:0:0:
288,160,34758,1,8,0:0:0:0:
288,160,34830,1,8,0:0:0:0:
224,160,34903,1,0,0:0:0:0:
288,160,35048,1,8,0:0:0:0:
288,160,35192,1,8,0:0:0:0:
224,160,35337,1,0,0:0:0:0:
224,160,35482,1,0,0:0:0:0:
288,224,35772,1,12,0:0:0:0:
224,160,36062,1,0,0:0:0:0:
288,160,36207,1,8,0:0:0:0:
224,160,36497,1,0,0:0:0:0:
224,160,36642,1,0,0:0:0:0:
288,160,36787,1,8,0:0:0:0:
224,160,36932,1,0,0:0:0:0:
224,160,37221,1,0,0:0:0:0:
288,160,37366,1,8,0:0:0:0:
224,160,37511,1,0,0:0:0:0:
224,160,37584,1,0,0:0:0:0:
224,160,37656,1,0,0:0:0:0:
224,160,37801,1,0,0:0:0:0:
288,160,37946,1,8,0:0:0:0:
224,160,38091,1,0,0:0:0:0:
224,160,38381,1,0,0:0:0:0:
288,160,38526,1,8,0:0:0:0:
224,160,38671,1,0,0:0:0:0:
224,160,38743,1,0,0:0:0:0:
224,160,38816,1,0,0:0:0:0:
224,160,38961,1,0,0:0:0:0:
288,160,39106,1,8,0:0:0:0:
224,160,39250,1,0,0:0:0:0:
224,160,39540,1,0,0:0:0:0:
288,160,39685,1,8,0:0:0:0:
224,160,39830,1,0,0:0:0:0:
224,160,39903,1,0,0:0:0:0:
288,160,39975,1,8,0:0:0:0:
224,160,40120,1,0,0:0:0:0:
288,160,40265,1,8,0:0:0:0:
224,160,40410,1,0,0:0:0:0:
224,160,40700,1,0,0:0:0:0:
288,160,40845,1,8,0:0:0:0:
224,160,41134,1,0,0:0:0:0:
224,160,41279,1,0,0:0:0:0:
288,160,41424,1,8,0:0:0:0:
224,160,41569,1,0,0:0:0:0:
224,160,41859,1,0,0:0:0:0:
288,160,42004,1,8,0:0:0:0:
224,160,42149,1,0,0:0:0:0:
224,160,42221,1,0,0:0:0:0:
224,160,42294,1,0,0:0:0:0:
224,160,42439,1,0,0:0:0:0:
288,160,42584,1,8,0:0:0:0:
224,160,42729,1,0,0:0:0:0:
224,160,43019,1,0,0:0:0:0:
288,160,43163,1,8,0:0:0:0:
224,160,43308,1,0,0:0:0:0:
224,160,43381,1,0,0:0:0:0:
224,160,43453,1,0,0:0:0:0:
224,160,43598,1,0,0:0:0:0:
288,160,43743,1,8,0:0:0:0:
288,160,43888,1,8,0:0:0:0:
224,160,44033,1,0,0:0:0:0:
224,160,44178,1,0,0:0:0:0:
288,160,44323,1,8,0:0:0:0:
224,160,44468,1,0,0:0:0:0:
224,160,44540,1,0,0:0:0:0:
224,160,44613,1,0,0:0:0:0:
224,160,44758,1,0,0:0:0:0:
288,160,44903,1,8,0:0:0:0:
288,224,45048,1,12,0:0:0:0:
224,160,45337,1,0,0:0:0:0:
288,160,45482,1,8,0:0:0:0:
224,160,45627,1,0,0:0:0:0:
224,160,45700,1,0,0:0:0:0:
224,160,45772,1,0,0:0:0:0:
224,160,45917,1,0,0:0:0:0:
288,160,46062,1,8,0:0:0:0:
224,160,46207,1,0,0:0:0:0:
224,160,46497,1,0,0:0:0:0:
288,160,46642,1,8,0:0:0:0:
224,160,46787,1,0,0:0:0:0:
224,160,46859,1,0,0:0:0:0:
288,160,46932,1,8,0:0:0:0:
224,160,47077,1,0,0:0:0:0:
288,160,47221,1,8,0:0:0:0:
224,160,47366,1,0,0:0:0:0:
224,160,47656,1,0,0:0:0:0:
288,160,47801,1,8,0:0:0:0:
224,160,47946,1,0,0:0:0:0:
224,160,48019,1,0,0:0:0:0:
224,160,48091,1,0,0:0:0:0:
224,160,48236,1,0,0:0:0:0:
288,160,48381,1,8,0:0:0:0:
224,160,48526,1,0,0:0:0:0:
224,160,48671,1,0,0:0:0:0:
288,160,48816,1,8,0:0:0:0:
288,160,48961,1,8,0:0:0:0:
224,160,49106,1,0,0:0:0:0:
224,160,49178,1,0,0:0:0:0:
288,160,49250,1,8,0:0:0:0:
224,160,49323,1,0,0:0:0:0:
288,160,49395,1,8,0:0:0:0:
288,160,49540,1,8,0:0:0:0:
224,160,49685,1,0,0:0:0:0:
224,160,49975,1,0,0:0:0:0:
288,160,50120,1,8,0:0:0:0:
224,160,50265,1,0,0:0:0:0:
224,160,50337,1,0,0:0:0:0:
224,160,50410,1,0,0:0:0:0:
224,160,50555,1,0,0:0:0:0:
288,160,50700,1,8,0:0:0:0:
224,160,50845,1,0,0:0:0:0:
224,160,51134,1,0,0:0:0:0:
288,160,51279,1,8,0:0:0:0:
224,160,51424,1,0,0:0:0:0:
224,160,51497,1,0,0:0:0:0:
224,160,51569,1,0,0:0:0:0:
224,160,51714,1,0,0:0:0:0:
288,160,51859,1,8,0:0:0:0:
224,160,52004,1,0,0:0:0:0:
224,160,52294,1,0,0:0:0:0:
288,160,52439,1,8,0:0:0:0:
224,160,52584,1,0,0:0:0:0:
224,160,52656,1,0,0:0:0:0:
224,160,52729,1,0,0:0:0:0:
224,160,52874,1,0,0:0:0:0:
288,224,53019,1,12,0:0:0:0:
224,160,53163,1,0,0:0:0:0:
224,160,53236,1,0,0:0:0:0:
224,160,53308,1,0,0:0:0:0:
224,160,53381,1,0,0:0:0:0:
224,160,53453,1,0,0:0:0:0:
224,160,53526,1,0,0:0:0:0:
224,160,53598,1,0,0:0:0:0:
224,160,53671,1,0,0:0:0:0:
224,160,53743,1,0,0:0:0:0:
224,160,53816,1,0,0:0:0:0:
288,160,53888,1,8,0:0:0:0:
288,160,53961,1,8,0:0:0:0:
288,160,54033,1,8,0:0:0:0:
288,160,54106,1,8,0:0:0:0:
224,160,54178,1,0,0:0:0:0:
224,160,54250,1,0,0:0:0:0:
224,160,54323,1,0,0:0:0:0:
224,160,54395,1,0,0:0:0:0:
288,160,54468,1,8,0:0:0:0:
224,160,56062,1,0,0:0:0:0:
224,160,56134,1,0,0:0:0:0:
288,160,56207,1,8,0:0:0:0:
288,160,56352,1,8,0:0:0:0:
288,160,56497,1,8,0:0:0:0:
288,160,56642,1,8,0:0:0:0:
224,160,56787,1,0,0:0:0:0:
288,160,58816,1,8,0:0:0:0:
224,224,58961,5,4,0:0:0:0:
224,160,59250,1,0,0:0:0:0:
288,160,59395,1,8,0:0:0:0:
288,160,59685,1,8,0:0:0:0:
224,160,59830,1,0,0:0:0:0:
288,160,59975,1,8,0:0:0:0:
288,160,60120,1,8,0:0:0:0:
224,160,60410,1,0,0:0:0:0:
288,160,60555,1,8,0:0:0:0:
288,160,60700,1,8,0:0:0:0:
224,160,60845,1,0,0:0:0:0:
224,160,60990,1,0,0:0:0:0:
288,160,61134,1,8,0:0:0:0:
224,160,61279,1,0,0:0:0:0:
224,160,61569,1,0,0:0:0:0:
288,160,61714,1,8,0:0:0:0:
224,160,62004,1,0,0:0:0:0:
288,160,62149,1,8,0:0:0:0:
224,160,62294,1,0,0:0:0:0:
288,160,62439,1,8,0:0:0:0:
224,160,62584,1,0,0:0:0:0:
224,160,62729,1,0,0:0:0:0:
288,160,62874,1,8,0:0:0:0:
224,160,63019,1,0,0:0:0:0:
288,160,63163,1,8,0:0:0:0:
288,160,63308,1,8,0:0:0:0:
288,160,63453,1,8,0:0:0:0:
224,160,63598,1,0,0:0:0:0:
224,160,63888,1,0,0:0:0:0:
288,160,64033,1,8,0:0:0:0:
224,160,64323,1,0,0:0:0:0:
224,160,64468,1,0,0:0:0:0:
288,160,64613,1,8,0:0:0:0:
224,160,64758,1,0,0:0:0:0:
224,160,65048,1,0,0:0:0:0:
288,160,65192,1,8,0:0:0:0:
224,160,65482,1,0,0:0:0:0:
224,160,65627,1,0,0:0:0:0:
288,160,65772,1,8,0:0:0:0:
288,160,65917,1,8,0:0:0:0:
224,160,66207,1,0,0:0:0:0:
288,160,66352,1,8,0:0:0:0:
288,160,66642,1,8,0:0:0:0:
224,160,66787,1,0,0:0:0:0:
288,160,66932,1,8,0:0:0:0:
224,160,67077,1,0,0:0:0:0:
224,160,67366,1,0,0:0:0:0:
288,160,67511,1,8,0:0:0:0:
224,160,67801,1,0,0:0:0:0:
224,160,67946,1,0,0:0:0:0:
288,160,68091,1,8,0:0:0:0:
288,224,68236,1,12,0:0:0:0:
224,160,68526,1,0,0:0:0:0:
288,160,68671,1,8,0:0:0:0:
288,160,68961,1,8,0:0:0:0:
224,160,69106,1,0,0:0:0:0:
288,160,69250,1,8,0:0:0:0:
288,160,69395,1,8,0:0:0:0:
224,160,69685,1,0,0:0:0:0:
288,160,69830,1,8,0:0:0:0:
288,160,69975,1,8,0:0:0:0:
224,160,70120,1,0,0:0:0:0:
224,160,70265,1,0,0:0:0:0:
288,160,70410,1,8,0:0:0:0:
224,160,70555,1,0,0:0:0:0:
224,160,70845,1,0,0:0:0:0:
288,160,70990,1,8,0:0:0:0:
288,160,71279,1,8,0:0:0:0:
224,160,71424,1,0,0:0:0:0:
288,160,71569,1,8,0:0:0:0:
224,160,71714,1,0,0:0:0:0:
224,160,71859,1,0,0:0:0:0:
224,160,72004,1,0,0:0:0:0:
288,160,72149,1,8,0:0:0:0:
224,160,72439,1,0,0:0:0:0:
224,160,72584,1,0,0:0:0:0:
288,160,72729,1,8,0:0:0:0:
288,224,72874,1,12,0:0:0:0:
224,160,73163,1,0,0:0:0:0:
288,160,73308,1,8,0:0:0:0:
224,160,73598,1,0,0:0:0:0:
224,160,73743,1,0,0:0:0:0:
288,160,73888,1,8,0:0:0:0:
224,160,74033,1,0,0:0:0:0:
224,160,74323,1,0,0:0:0:0:
288,160,74468,1,8,0:0:0:0:
288,160,74758,1,8,0:0:0:0:
224,160,74903,1,0,0:0:0:0:
288,160,75048,1,8,0:0:0:0:
288,160,75192,1,8,0:0:0:0:
224,160,75482,1,0,0:0:0:0:
288,160,75627,1,8,0:0:0:0:
224,160,75917,1,0,0:0:0:0:
224,160,76062,1,0,0:0:0:0:
288,160,76207,1,8,0:0:0:0:
288,224,76352,1,12,0:0:0:0:
224,160,76642,1,0,0:0:0:0:
288,160,76787,1,8,0:0:0:0:
288,160,77077,1,8,0:0:0:0:
288,160,77221,1,8,0:0:0:0:
288,160,77366,1,8,0:0:0:0:
224,224,77511,1,4,0:0:0:0:
224,160,77801,1,0,0:0:0:0:
288,160,77946,1,8,0:0:0:0:
224,160,78091,1,0,0:0:0:0:
224,160,78236,1,0,0:0:0:0:
224,160,78381,1,0,0:0:0:0:
288,160,78526,1,8,0:0:0:0:
288,160,78671,1,8,0:0:0:0:
224,160,78961,1,0,0:0:0:0:
288,160,79106,1,8,0:0:0:0:
224,160,79250,1,0,0:0:0:0:
224,160,79323,1,0,0:0:0:0:
288,160,79395,1,8,0:0:0:0:
288,160,79540,1,8,0:0:0:0:
288,160,79685,1,8,0:0:0:0:
224,160,79830,1,0,0:0:0:0:
224,160,80120,1,0,0:0:0:0:
288,160,80265,1,8,0:0:0:0:
224,160,80410,1,0,0:0:0:0:
224,160,80555,1,0,0:0:0:0:
288,160,80700,1,8,0:0:0:0:
288,160,80845,1,8,0:0:0:0:
224,160,80990,1,0,0:0:0:0:
288,160,81134,1,8,0:0:0:0:
224,160,81279,1,0,0:0:0:0:
288,160,81424,1,8,0:0:0:0:
224,160,81569,1,0,0:0:0:0:
224,160,81642,1,0,0:0:0:0:
288,160,81714,1,8,0:0:0:0:
224,160,81859,1,0,0:0:0:0:
288,160,82004,1,8,0:0:0:0:
288,224,82149,1,12,0:0:0:0:
224,160,82439,1,0,0:0:0:0:
288,160,82584,1,8,0:0:0:0:
224,160,82729,1,0,0:0:0:0:
224,160,82801,1,0,0:0:0:0:
288,160,82874,1,8,0:0:0:0:
288,160,83019,1,8,0:0:0:0:
288,160,83163,1,8,0:0:0:0:
224,160,83308,1,0,0:0:0:0:
288,160,83453,1,8,0:0:0:0:
224,160,83598,1,0,0:0:0:0:
288,160,83743,1,8,0:0:0:0:
224,160,83888,1,0,0:0:0:0:
224,160,83961,1,0,0:0:0:0:
288,160,84033,1,8,0:0:0:0:
224,160,84178,1,0,0:0:0:0:
288,160,84323,1,8,0:0:0:0:
288,160,84468,1,8,0:0:0:0:
224,160,84613,1,0,0:0:0:0:
224,160,84758,1,0,0:0:0:0:
288,160,84903,1,8,0:0:0:0:
224,160,85048,1,0,0:0:0:0:
224,160,85120,1,0,0:0:0:0:
288,160,85192,1,8,0:0:0:0:
224,160,85337,1,0,0:0:0:0:
288,224,85482,1,12,0:0:0:0:
224,160,85627,1,0,0:0:0:0:
224,160,85700,1,0,0:0:0:0:
288,160,85772,1,8,0:0:0:0:
224,160,85917,1,0,0:0:0:0:
288,160,86062,1,8,0:0:0:0:
288,160,86134,1,8,0:0:0:0:
224,160,86207,1,0,0:0:0:0:
288,160,86352,1,8,0:0:0:0:
288,160,86497,1,8,0:0:0:0:
224,160,86642,1,0,0:0:0:0:
288,224,86787,1,12,0:0:0:0:
224,160,87077,1,0,0:0:0:0:
288,160,87221,1,8,0:0:0:0:
288,160,87511,1,8,0:0:0:0:
224,160,87656,1,0,0:0:0:0:
288,160,87801,1,8,0:0:0:0:
288,160,87946,1,8,0:0:0:0:
224,160,88236,1,0,0:0:0:0:
288,160,88381,1,8,0:0:0:0:
224,160,88671,1,0,0:0:0:0:
224,160,88816,1,0,0:0:0:0:
288,160,88961,1,8,0:0:0:0:
224,160,89106,1,0,0:0:0:0:
224,160,89395,1,0,0:0:0:0:
288,160,89540,1,8,0:0:0:0:
224,160,89830,1,0,0:0:0:0:
224,160,89975,1,0,0:0:0:0:
288,160,90120,1,8,0:0:0:0:
288,160,90265,1,8,0:0:0:0:
224,160,90410,1,0,0:0:0:0:
224,160,90555,1,0,0:0:0:0:
288,160,90700,1,8,0:0:0:0:
224,160,90845,1,0,0:0:0:0:
288,160,90990,1,8,0:0:0:0:
288,160,91134,1,8,0:0:0:0:
288,160,91279,1,8,0:0:0:0:
224,160,91424,1,0,0:0:0:0:
224,160,91714,1,0,0:0:0:0:
288,160,91859,1,8,0:0:0:0:
224,160,92149,1,0,0:0:0:0:
224,160,92294,1,0,0:0:0:0:
288,160,92439,1,8,0:0:0:0:
224,160,92584,1,0,0:0:0:0:
224,160,92874,1,0,0:0:0:0:
288,160,93019,1,8,0:0:0:0:
224,160,93163,1,0,0:0:0:0:
288,160,93308,1,8,0:0:0:0:
224,160,93453,1,0,0:0:0:0:
288,160,93598,1,8,0:0:0:0:
288,160,93743,1,8,0:0:0:0:
224,160,94033,1,0,0:0:0:0:
288,160,94178,1,8,0:0:0:0:
224,160,94468,1,0,0:0:0:0:
224,160,94613,1,0,0:0:0:0:
288,160,94758,1,8,0:0:0:0:
224,160,94903,1,0,0:0:0:0:
224,160,95192,1,0,0:0:0:0:
288,160,95337,1,8,0:0:0:0:
224,160,95627,1,0,0:0:0:0:
224,160,95772,1,0,0:0:0:0:
288,160,95917,1,8,0:0:0:0:
288,224,96062,1,12,0:0:0:0:
224,160,96352,1,0,0:0:0:0:
288,160,96497,1,8,0:0:0:0:
224,160,96642,1,0,0:0:0:0:
288,160,96787,1,8,0:0:0:0:
224,160,96932,1,0,0:0:0:0:
288,160,97077,1,8,0:0:0:0:
224,160,97149,1,0,0:0:0:0:
288,160,97221,1,8,0:0:0:0:
224,160,97511,1,0,0:0:0:0:
288,160,97656,1,8,0:0:0:0:
224,160,97801,1,0,0:0:0:0:
288,160,97946,1,8,0:0:0:0:
224,160,98091,1,0,0:0:0:0:
288,160,98236,1,8,0:0:0:0:
288,160,98308,1,8,0:0:0:0:
224,160,98381,1,0,0:0:0:0:
224,160,98671,1,0,0:0:0:0:
288,160,98816,1,8,0:0:0:0:
224,160,98961,1,0,0:0:0:0:
224,160,99106,1,0,0:0:0:0:
288,160,99250,1,8,0:0:0:0:
288,160,99395,1,8,0:0:0:0:
224,160,99468,1,0,0:0:0:0:
288,160,99540,1,8,0:0:0:0:
224,160,99830,1,0,0:0:0:0:
288,160,99975,1,8,0:0:0:0:
224,160,100120,1,0,0:0:0:0:
224,160,100192,1,0,0:0:0:0:
224,160,100265,1,0,0:0:0:0:
224,160,100410,1,0,0:0:0:0:
288,160,100555,1,8,0:0:0:0:
288,224,100700,1,12,0:0:0:0:
224,160,100990,1,0,0:0:0:0:
288,160,101134,1,8,0:0:0:0:
224,160,101279,1,0,0:0:0:0:
288,160,101424,1,8,0:0:0:0:
224,160,101569,1,0,0:0:0:0:
288,160,101714,1,8,0:0:0:0:
288,160,101859,1,8,0:0:0:0:
224,160,102149,1,0,0:0:0:0:
288,160,102294,1,8,0:0:0:0:
224,160,102439,1,0,0:0:0:0:
224,160,102584,1,0,0:0:0:0:
224,160,102729,1,0,0:0:0:0:
288,160,102874,1,8,0:0:0:0:
288,224,103019,1,12,0:0:0:0:
224,160,103308,1,0,0:0:0:0:
288,160,103453,1,8,0:0:0:0:
224,160,103598,1,0,0:0:0:0:
288,160,103743,1,8,0:0:0:0:
224,160,103888,1,0,0:0:0:0:
288,224,104033,1,12,0:0:0:0:
224,160,104178,1,0,0:0:0:0:
224,160,104250,1,0,0:0:0:0:
288,160,104323,1,8,0:0:0:0:
288,160,104468,1,8,0:0:0:0:
224,160,104613,1,0,0:0:0:0:
224,160,104685,1,0,0:0:0:0:
288,160,104758,1,8,0:0:0:0:
288,160,104830,1,8,0:0:0:0:
224,160,104903,1,0,0:0:0:0:
224,160,105048,1,0,0:0:0:0:
288,160,105192,1,8,0:0:0:0:
224,160,105265,1,0,0:0:0:0:
224,160,105337,1,0,0:0:0:0:
224,160,105482,1,0,0:0:0:0:
224,160,105627,1,0,0:0:0:0:
224,160,105917,1,0,0:0:0:0:
224,160,106207,1,0,0:0:0:0:
224,160,106279,1,0,0:0:0:0:
288,160,106352,1,8,0:0:0:0:
224,160,106497,1,0,0:0:0:0:
224,160,106787,1,0,0:0:0:0:
224,160,107077,1,0,0:0:0:0:
224,160,107149,1,0,0:0:0:0:
288,160,107221,1,8,0:0:0:0:
224,160,107366,1,0,0:0:0:0:
288,224,107511,1,12,0:0:0:0:
224,160,107801,1,0,0:0:0:0:
224,160,107946,1,0,0:0:0:0:
224,160,108236,1,0,0:0:0:0:
224,160,108526,1,0,0:0:0:0:
224,160,108598,1,0,0:0:0:0:
288,160,108671,1,8,0:0:0:0:
224,160,108816,1,0,0:0:0:0:
288,224,108961,1,12,0:0:0:0:
224,160,109106,1,0,0:0:0:0:
288,224,109250,1,12,0:0:0:0:
224,160,109540,1,0,0:0:0:0:
288,160,109685,1,8,0:0:0:0:
288,160,109758,1,8,0:0:0:0:
288,160,109830,1,8,0:0:0:0:
224,224,109975,1,4,0:0:0:0:
224,160,110265,1,0,0:0:0:0:
288,160,110410,1,8,0:0:0:0:
224,160,110700,1,0,0:0:0:0:
224,160,110845,1,0,0:0:0:0:
288,160,110990,1,8,0:0:0:0:
224,160,111134,1,0,0:0:0:0:
224,160,111424,1,0,0:0:0:0:
288,160,111569,1,8,0:0:0:0:
288,160,111859,1,8,0:0:0:0:
224,160,112004,1,0,0:0:0:0:
288,160,112149,1,8,0:0:0:0:
288,224,112294,1,12,0:0:0:0:
224,160,112584,1,0,0:0:0:0:
288,160,112729,1,8,0:0:0:0:
224,160,113019,1,0,0:0:0:0:
224,160,113163,1,0,0:0:0:0:
288,160,113308,1,8,0:0:0:0:
288,224,113453,1,12,0:0:0:0:
288,224,113743,1,12,0:0:0:0:
288,224,114033,1,12,0:0:0:0:
224,160,114178,1,0,0:0:0:0:
224,160,114323,1,0,0:0:0:0:
224,160,114468,1,0,0:0:0:0:
224,160,114613,1,0,0:0:0:0:
288,224,114758,1,12,0:0:0:0:
224,160,114903,1,0,0:0:0:0:
224,160,114975,1,0,0:0:0:0:
288,160,115048,1,8,0:0:0:0:
288,160,115192,1,8,0:0:0:0:
224,160,115337,1,0,0:0:0:0:
224,160,115482,1,0,0:0:0:0:
288,160,115627,1,8,0:0:0:0:
224,160,115772,1,0,0:0:0:0:
224,160,115917,1,0,0:0:0:0:
288,160,116062,1,8,0:0:0:0:
288,160,116207,1,8,0:0:0:0:
224,160,116352,1,0,0:0:0:0:
224,160,116424,1,0,0:0:0:0:
288,160,116497,1,8,0:0:0:0:
224,160,116642,1,0,0:0:0:0:
288,160,116787,1,8,0:0:0:0:
288,160,117077,1,8,0:0:0:0:
224,160,117221,1,0,0:0:0:0:
224,160,117294,1,0,0:0:0:0:
288,160,117366,1,8,0:0:0:0:
288,160,117511,1,8,0:0:0:0:
224,160,117801,1,0,0:0:0:0:
288,160,117946,1,8,0:0:0:0:
288,160,118236,1,8,0:0:0:0:
224,160,118381,1,0,0:0:0:0:
288,160,118526,1,8,0:0:0:0:
288,160,118671,1,8,0:0:0:0:
224,160,118816,1,0,0:0:0:0:
224,160,118888,1,0,0:0:0:0:
224,160,118961,1,0,0:0:0:0:
224,160,119033,1,0,0:0:0:0:
288,160,119106,1,8,0:0:0:0:
224,224,119250,1,4,0:0:0:0:
224,160,119540,1,0,0:0:0:0:
288,160,119685,1,8,0:0:0:0:
288,160,119975,1,8,0:0:0:0:
224,160,120120,1,0,0:0:0:0:
288,160,120265,1,8,0:0:0:0:
288,224,120410,1,12,0:0:0:0:
224,160,120700,1,0,0:0:0:0:
288,160,120845,1,8,0:0:0:0:
224,160,121134,1,0,0:0:0:0:
224,160,121279,1,0,0:0:0:0:
288,160,121424,1,8,0:0:0:0:
288,224,121569,1,12,0:0:0:0:
224,160,121859,1,0,0:0:0:0:
224,160,121932,1,0,0:0:0:0:
288,160,122004,1,8,0:0:0:0:
224,160,122149,1,0,0:0:0:0:
224,160,122221,1,0,0:0:0:0:
288,160,122294,1,8,0:0:0:0:
288,160,122439,1,8,0:0:0:0:
224,160,122511,1,0,0:0:0:0:
224,160,122584,1,0,0:0:0:0:
288,224,122729,1,12,0:0:0:0:
288,224,123019,1,12,0:0:0:0:
288,224,123163,1,12,0:0:0:0:
288,224,124033,5,12,0:0:0:0:
288,160,124323,1,8,0:0:0:0:
224,160,124468,1,0,0:0:0:0:
224,160,124758,1,0,0:0:0:0:
288,160,124903,1,8,0:0:0:0:
224,160,125048,1,0,0:0:0:0:
224,160,125337,1,0,0:0:0:0:
288,160,125482,1,8,0:0:0:0:
224,160,125627,1,0,0:0:0:0:
224,160,125772,1,0,0:0:0:0:
224,160,125845,1,0,0:0:0:0:
224,160,125917,1,0,0:0:0:0:
224,160,125990,1,0,0:0:0:0:
288,160,126062,1,8,0:0:0:0:
224,160,126352,1,0,0:0:0:0:
288,160,126642,1,8,0:0:0:0:
288,160,126787,1,8,0:0:0:0:
224,160,126932,1,0,0:0:0:0:
288,160,127077,1,8,0:0:0:0:
288,160,127221,1,8,0:0:0:0:
224,160,127366,1,0,0:0:0:0:
224,160,127656,1,0,0:0:0:0:
288,160,127801,1,8,0:0:0:0:
224,160,127946,1,0,0:0:0:0:
288,160,128091,1,8,0:0:0:0:
224,160,128163,1,0,0:0:0:0:
224,160,128236,1,0,0:0:0:0:
224,160,128308,1,0,0:0:0:0:
288,160,128381,1,8,0:0:0:0:
288,160,128671,1,8,0:0:0:0:
288,160,128961,1,8,0:0:0:0:
288,160,129106,1,8,0:0:0:0:
224,160,129395,1,0,0:0:0:0:
288,160,129540,1,8,0:0:0:0:
224,160,129613,1,0,0:0:0:0:
288,160,129685,1,8,0:0:0:0:
224,160,129975,1,0,0:0:0:0:
224,160,130048,1,0,0:0:0:0:
288,160,130120,1,8,0:0:0:0:
224,160,130410,1,0,0:0:0:0:
224,160,130555,1,0,0:0:0:0:
288,160,130700,1,8,0:0:0:0:
288,160,130845,1,8,0:0:0:0:
224,160,130917,1,0,0:0:0:0:
224,160,130990,1,0,0:0:0:0:
288,160,131279,1,8,0:0:0:0:
288,160,131424,1,8,0:0:0:0:
224,160,131569,1,0,0:0:0:0:
224,160,131714,1,0,0:0:0:0:
288,160,131859,1,8,0:0:0:0:
224,160,132004,1,0,0:0:0:0:
224,160,132294,1,0,0:0:0:0:
288,160,132439,1,8,0:0:0:0:
224,160,132584,1,0,0:0:0:0:
224,160,132656,1,0,0:0:0:0:
224,160,132729,1,0,0:0:0:0:
224,160,132874,1,0,0:0:0:0:
288,160,133019,1,8,0:0:0:0:
288,224,133308,1,12,0:0:0:0:
288,160,133598,1,8,0:0:0:0:
224,160,133743,1,0,0:0:0:0:
224,160,134033,1,0,0:0:0:0:
288,160,134178,1,8,0:0:0:0:
224,160,134250,1,0,0:0:0:0:
288,160,134323,1,8,0:0:0:0:
224,160,134613,1,0,0:0:0:0:
288,160,134758,1,8,0:0:0:0:
224,160,134903,1,0,0:0:0:0:
224,160,135048,1,0,0:0:0:0:
224,160,135120,1,0,0:0:0:0:
224,160,135192,1,0,0:0:0:0:
224,160,135265,1,0,0:0:0:0:
288,160,135337,1,8,0:0:0:0:
288,160,135627,1,8,0:0:0:0:
288,160,135917,1,8,0:0:0:0:
224,160,136062,1,0,0:0:0:0:
224,160,136352,1,0,0:0:0:0:
288,160,136497,1,8,0:0:0:0:
224,160,136569,1,0,0:0:0:0:
288,160,136642,1,8,0:0:0:0:
224,160,136932,1,0,0:0:0:0:
288,160,137077,1,8,0:0:0:0:
224,160,137221,1,0,0:0:0:0:
224,160,137366,1,0,0:0:0:0:
224,160,137439,1,0,0:0:0:0:
224,160,137511,1,0,0:0:0:0:
224,160,137584,1,0,0:0:0:0:
288,160,137656,1,8,0:0:0:0:
288,160,137946,1,8,0:0:0:0:
288,160,138236,1,8,0:0:0:0:
224,160,138381,1,0,0:0:0:0:
224,160,138671,1,0,0:0:0:0:
288,160,138816,1,8,0:0:0:0:
224,160,139106,1,0,0:0:0:0:
224,160,139250,1,0,0:0:0:0:
288,160,139395,1,8,0:0:0:0:
224,160,139685,1,0,0:0:0:0:
224,160,139830,1,0,0:0:0:0:
288,160,139975,1,8,0:0:0:0:
288,224,140265,1,12,0:0:0:0:
288,160,140555,1,8,0:0:0:0:
224,160,140700,1,0,0:0:0:0:
224,160,140990,1,0,0:0:0:0:
288,160,141134,1,8,0:0:0:0:
288,224,141279,1,12,0:0:0:0:
224,160,141424,1,0,0:0:0:0:
224,160,141497,1,0,0:0:0:0:
224,160,141569,1,0,0:0:0:0:
288,224,141714,1,12,0:0:0:0:
288,224,141859,1,12,0:0:0:0:
224,160,142004,1,0,0:0:0:0:
224,160,142149,1,0,0:0:0:0:
224,160,142294,1,0,0:0:0:0:
224,160,142439,1,0,0:0:0:0:
288,224,142584,1,12,0:0:0:0:
288,160,142874,1,8,0:0:0:0:
224,160,143019,1,0,0:0:0:0:
224,160,143308,1,0,0:0:0:0:
288,160,143453,1,8,0:0:0:0:
288,160,143598,1,8,0:0:0:0:
224,160,143888,1,0,0:0:0:0:
288,160,144033,1,8,0:0:0:0:
224,160,144178,1,0,0:0:0:0:
224,160,144323,1,0,0:0:0:0:
224,160,144395,1,0,0:0:0:0:
224,160,144468,1,0,0:0:0:0:
224,160,144540,1,0,0:0:0:0:
288,160,144613,1,8,0:0:0:0:
288,160,144903,1,8,0:0:0:0:
288,160,145192,1,8,0:0:0:0:
288,160,145337,1,8,0:0:0:0:
224,160,145627,1,0,0:0:0:0:
288,160,145772,1,8,0:0:0:0:
224,160,145845,1,0,0:0:0:0:
288,160,145917,1,8,0:0:0:0:
224,160,146207,1,0,0:0:0:0:
288,160,146352,1,8,0:0:0:0:
224,160,146497,1,0,0:0:0:0:
288,160,146642,1,8,0:0:0:0:
224,160,146714,1,0,0:0:0:0:
224,160,146787,1,0,0:0:0:0:
224,160,146859,1,0,0:0:0:0:
288,160,146932,1,8,0:0:0:0:
224,160,147221,1,0,0:0:0:0:
288,160,147511,1,8,0:0:0:0:
224,160,147801,1,0,0:0:0:0:
224,160,147946,1,0,0:0:0:0:
288,160,148091,1,8,0:0:0:0:
224,160,148236,1,0,0:0:0:0:
224,160,148308,1,0,0:0:0:0:
224,160,148381,1,0,0:0:0:0:
288,160,148671,1,8,0:0:0:0:
224,160,148961,1,0,0:0:0:0:
288,160,149106,1,8,0:0:0:0:
288,160,149250,1,8,0:0:0:0:
224,160,149395,1,0,0:0:0:0:
224,160,149468,1,0,0:0:0:0:
288,160,149540,1,8,0:0:0:0:
288,160,149830,1,8,0:0:0:0:
224,160,149975,1,0,0:0:0:0:
224,160,150048,1,0,0:0:0:0:
224,160,150120,1,0,0:0:0:0:
224,160,150265,1,0,0:0:0:0:
288,160,150410,1,8,0:0:0:0:
288,160,150555,1,8,0:0:0:0:
224,160,150700,1,0,0:0:0:0:
224,160,150772,1,0,0:0:0:0:
224,160,150845,1,0,0:0:0:0:
224,160,150917,1,0,0:0:0:0:
288,160,150990,1,8,0:0:0:0:
288,160,151062,1,8,0:0:0:0:
288,160,151134,1,8,0:0:0:0:
288,160,151207,1,8,0:0:0:0:
224,160,151279,1,0,0:0:0:0:
224,160,151424,1,0,0:0:0:0:
224,160,151569,1,0,0:0:0:0:
224,160,151714,1,0,0:0:0:0:
288,224,151859,1,12,0:0:0:0:
288,160,152149,1,8,0:0:0:0:
288,160,152294,1,8,0:0:0:0:
224,160,152584,1,0,0:0:0:0:
288,160,152729,1,8,0:0:0:0:
224,160,152874,1,0,0:0:0:0:
224,160,153163,1,0,0:0:0:0:
288,160,153308,1,8,0:0:0:0:
224,160,153453,1,0,0:0:0:0:
224,160,153598,1,0,0:0:0:0:
224,160,153671,1,0,0:0:0:0:
224,160,153743,1,0,0:0:0:0:
288,160,153888,1,8,0:0:0:0:
288,160,154178,1,8,0:0:0:0:
288,160,154468,1,8,0:0:0:0:
224,160,154613,1,0,0:0:0:0:
224,160,154903,1,0,0:0:0:0:
288,160,155048,1,8,0:0:0:0:
224,160,155192,1,0,0:0:0:0:
224,160,155482,1,0,0:0:0:0:
288,160,155627,1,8,0:0:0:0:
224,160,155917,1,0,0:0:0:0:
224,160,156062,1,0,0:0:0:0:
288,224,156207,1,12,0:0:0:0:
224,224,156497,1,4,0:0:0:0:
288,160,156787,1,8,0:0:0:0:
224,160,157077,1,0,0:0:0:0:
224,160,157221,1,0,0:0:0:0:
288,160,157366,1,8,0:0:0:0:
224,160,157656,1,0,0:0:0:0:
224,160,157801,1,0,0:0:0:0:
288,160,157946,1,8,0:0:0:0:
224,160,158091,1,0,0:0:0:0:
224,160,158381,1,0,0:0:0:0:
288,160,158526,1,8,0:0:0:0:
288,224,158816,1,12,0:0:0:0:
224,160,158961,1,0,0:0:0:0:
288,160,159106,1,8,0:0:0:0:
224,160,159250,1,0,0:0:0:0:
224,160,159395,1,0,0:0:0:0:
224,160,159540,1,0,0:0:0:0:
288,224,159685,1,12,0:0:0:0:
224,160,159975,1,0,0:0:0:0:
288,224,160120,1,12,0:0:0:0:
288,224,160265,1,12,0:0:0:0:
224,160,160410,1,0,0:0:0:0:
224,160,160482,1,0,0:0:0:0:
224,160,160555,1,0,0:0:0:0:
224,160,160700,1,0,0:0:0:0:
224,224,160990,5,4,0:0:0:0:
224,160,161279,1,0,0:0:0:0:
288,160,161424,1,8,0:0:0:0:
224,160,161569,1,0,0:0:0:0:
224,160,161642,1,0,0:0:0:0:
224,160,161714,1,0,0:0:0:0:
224,160,161859,1,0,0:0:0:0:
288,160,162004,1,8,0:0:0:0:
224,160,162149,1,0,0:0:0:0:
224,160,162439,1,0,0:0:0:0:
288,160,162584,1,8,0:0:0:0:
224,160,162729,1,0,0:0:0:0:
224,160,162801,1,0,0:0:0:0:
288,160,162874,1,8,0:0:0:0:
288,160,163019,1,8,0:0:0:0:
288,160,163163,1,8,0:0:0:0:
224,160,163308,1,0,0:0:0:0:
224,160,163598,1,0,0:0:0:0:
288,160,163743,1,8,0:0:0:0:
224,160,163888,1,0,0:0:0:0:
224,160,163961,1,0,0:0:0:0:
224,160,164033,1,0,0:0:0:0:
224,160,164178,1,0,0:0:0:0:
288,160,164323,1,8,0:0:0:0:
224,160,164468,1,0,0:0:0:0:
224,160,164613,1,0,0:0:0:0:
288,160,164758,1,8,0:0:0:0:
288,160,164903,1,8,0:0:0:0:
224,160,165048,1,0,0:0:0:0:
224,160,165120,1,0,0:0:0:0:
288,160,165192,1,8,0:0:0:0:
224,160,165265,1,0,0:0:0:0:
288,160,165337,1,8,0:0:0:0:
288,160,165482,1,8,0:0:0:0:
224,160,165627,1,0,0:0:0:0:
224,160,165917,1,0,0:0:0:0:
288,160,166062,1,8,0:0:0:0:
224,160,166207,1,0,0:0:0:0:
224,160,166279,1,0,0:0:0:0:
224,160,166352,1,0,0:0:0:0:
224,160,166497,1,0,0:0:0:0:
288,160,166642,1,8,0:0:0:0:
224,160,166787,1,0,0:0:0:0:
224,160,167077,1,0,0:0:0:0:
288,160,167221,1,8,0:0:0:0:
224,160,167366,1,0,0:0:0:0:
224,160,167439,1,0,0:0:0:0:
224,160,167511,1,0,0:0:0:0:
288,160,167656,1,8,0:0:0:0:
288,160,167801,1,8,0:0:0:0:
224,160,167946,1,0,0:0:0:0:
224,160,168236,1,0,0:0:0:0:
288,160,168381,1,8,0:0:0:0:
224,160,168453,1,0,0:0:0:0:
224,160,168526,1,0,0:0:0:0:
288,160,168671,1,8,0:0:0:0:
224,160,168816,1,0,0:0:0:0:
288,224,168961,1,12,0:0:0:0:
224,160,169106,1,0,0:0:0:0:
224,160,169178,1,0,0:0:0:0:
224,160,169250,1,0,0:0:0:0:
288,160,169395,1,8,0:0:0:0:
288,160,169540,1,8,0:0:0:0:
288,160,169685,1,8,0:0:0:0:
288,160,169830,1,8,0:0:0:0:
288,160,169903,1,8,0:0:0:0:
288,160,169975,1,8,0:0:0:0:
288,160,170120,1,8,0:0:0:0:
288,224,170265,1,12,0:0:0:0:
288,160,170555,1,8,0:0:0:0:
224,224,170700,1,4,0:0:0:0:
288,160,171859,1,8,0:0:0:0:
288,160,171932,1,8,0:0:0:0:
288,160,172004,1,8,0:0:0:0:
288,160,172077,1,8,0:0:0:0:
224,160,172149,1,0,0:0:0:0:
224,160,172221,1,0,0:0:0:0:
224,160,172294,1,0,0:0:0:0:
224,160,172366,1,0,0:0:0:0:
288,160,172439,1,8,0:0:0:0:
224,224,172584,1,4,0:0:0:0:
224,160,172874,1,0,0:0:0:0:
288,224,173019,1,12,0:0:0:0:
288,160,173888,1,8,0:0:0:0:
288,160,173985,1,8,0:0:0:0:
288,160,174081,1,8,0:0:0:0:
224,160,174178,1,0,0:0:0:0:
224,160,174275,1,0,0:0:0:0:
224,160,174371,1,0,0:0:0:0:
288,160,174468,1,8,0:0:0:0:
288,160,174613,1,8,0:0:0:0:
224,160,174758,1,0,0:0:0:0:
288,224,174903,5,12,0:0:0:0:
224,160,175192,1,0,0:0:0:0:
288,160,175337,1,8,0:0:0:0:
224,160,175482,1,0,0:0:0:0:
224,160,175627,1,0,0:0:0:0:
288,160,175917,1,8,0:0:0:0:
224,160,176062,1,0,0:0:0:0:
224,160,176352,1,0,0:0:0:0:
288,160,176497,1,8,0:0:0:0:
224,160,176787,1,0,0:0:0:0:
224,160,176932,1,0,0:0:0:0:
288,160,177077,1,8,0:0:0:0:
288,160,177221,1,8,0:0:0:0:
224,160,177511,1,0,0:0:0:0:
288,160,177656,1,8,0:0:0:0:
224,160,177801,1,0,0:0:0:0:
224,160,177946,1,0,0:0:0:0:
288,160,178236,1,8,0:0:0:0:
224,160,178381,1,0,0:0:0:0:
224,160,178671,1,0,0:0:0:0:
224,160,178743,1,0,0:0:0:0:
288,160,178816,1,8,0:0:0:0:
224,160,178961,1,0,0:0:0:0:
288,160,179106,1,8,0:0:0:0:
288,160,179250,1,8,0:0:0:0:
288,160,179395,1,8,0:0:0:0:
224,224,179540,1,4,0:0:0:0:
224,160,179975,1,0,0:0:0:0:
224,160,180120,1,0,0:0:0:0:
224,160,180192,1,0,0:0:0:0:
288,160,180265,1,8,0:0:0:0:
288,160,180555,1,8,0:0:0:0:
224,160,180700,1,0,0:0:0:0:
224,160,180845,1,0,0:0:0:0:
224,160,181134,1,0,0:0:0:0:
224,160,181279,1,0,0:0:0:0:
224,160,181352,1,0,0:0:0:0:
288,160,181424,1,8,0:0:0:0:
224,160,181569,1,0,0:0:0:0:
224,160,181859,1,0,0:0:0:0:
224,160,182294,1,0,0:0:0:0:
224,160,182439,1,0,0:0:0:0:
224,160,182511,1,0,0:0:0:0:
288,160,182584,1,8,0:0:0:0:
288,160,182729,1,8,0:0:0:0:
224,160,183019,1,0,0:0:0:0:
224,160,183163,1,0,0:0:0:0:
224,160,183453,1,0,0:0:0:0:
224,160,183598,1,0,0:0:0:0:
224,160,183671,1,0,0:0:0:0:
288,160,183743,1,8,0:0:0:0:
224,160,183888,1,0,0:0:0:0:
288,224,184178,1,12,0:0:0:0:
224,160,184758,1,0,0:0:0:0:
288,160,184903,1,8,0:0:0:0:
224,160,185192,1,0,0:0:0:0:
224,160,185337,1,0,0:0:0:0:
224,160,185410,1,0,0:0:0:0:
224,160,185482,1,0,0:0:0:0:
224,160,185772,1,0,0:0:0:0:
288,224,186062,1,12,0:0:0:0:
224,160,186352,1,0,0:0:0:0:
288,160,186642,1,8,0:0:0:0:
224,160,186714,1,0,0:0:0:0:
224,160,186787,1,0,0:0:0:0:
224,160,186859,1,0,0:0:0:0:
288,160,186932,1,8,0:0:0:0:
224,160,187077,1,0,0:0:0:0:
288,160,187221,1,8,0:0:0:0:
224,160,187294,1,0,0:0:0:0:
288,160,187366,1,8,0:0:0:0:
224,160,187439,1,0,0:0:0:0:
288,160,187511,1,8,0:0:0:0:
224,224,187656,1,4,0:0:0:0:
224,224,188961,5,4,0:0:0:0:
224,160,189250,1,0,0:0:0:0:
224,160,189395,1,0,0:0:0:0:
288,160,189540,1,8,0:0:0:0:
224,160,189685,1,0,0:0:0:0:
224,160,189975,1,0,0:0:0:0:
224,160,190265,1,0,0:0:0:0:
224,160,190410,1,0,0:0:0:0:
288,160,190700,1,8,0:0:0:0:
224,160,190845,1,0,0:0:0:0:
224,160,191134,1,0,0:0:0:0:
224,160,191207,1,0,0:0:0:0:
224,160,191279,1,0,0:0:0:0:
224,160,191569,1,0,0:0:0:0:
224,160,191714,1,0,0:0:0:0:
288,160,191859,1,8,0:0:0:0:
224,160,192004,1,0,0:0:0:0:
224,160,192294,1,0,0:0:0:0:
224,160,192584,1,0,0:0:0:0:
224,160,192729,1,0,0:0:0:0:
288,160,193019,1,8,0:0:0:0:
288,160,193163,1,8,0:0:0:0:
224,160,193453,1,0,0:0:0:0:
224,160,193598,1,0,0:0:0:0:
224,160,193888,1,0,0:0:0:0:
224,160,194033,1,0,0:0:0:0:
288,160,194178,1,8,0:0:0:0:
224,160,194323,1,0,0:0:0:0:
224,160,194613,1,0,0:0:0:0:
224,160,194903,1,0,0:0:0:0:
224,160,195048,1,0,0:0:0:0:
288,160,195337,1,8,0:0:0:0:
224,160,195482,1,0,0:0:0:0:
224,160,195917,1,0,0:0:0:0:
224,160,196207,1,0,0:0:0:0:
224,160,196352,1,0,0:0:0:0:
288,160,196497,1,8,0:0:0:0:
224,160,196787,1,0,0:0:0:0:
288,160,196932,1,8,0:0:0:0:
224,160,197077,1,0,0:0:0:0:
288,224,197366,1,12,0:0:0:0:
224,160,197656,1,0,0:0:0:0:
288,160,197801,1,8,0:0:0:0:
288,160,197874,1,8,0:0:0:0:
288,160,197946,1,8,0:0:0:0:
224,224,198091,1,4,0:0:0:0:
224,160,198381,1,0,0:0:0:0:
224,160,198453,1,0,0:0:0:0:
288,160,198526,1,8,0:0:0:0:
224,160,198671,1,0,0:0:0:0:
224,160,198743,1,0,0:0:0:0:
288,160,198816,1,8,0:0:0:0:
224,160,198961,1,0,0:0:0:0:
224,160,199250,1,0,0:0:0:0:
288,160,199395,1,8,0:0:0:0:
224,160,199540,1,0,0:0:0:0:
288,160,199685,1,8,0:0:0:0:
224,160,199830,1,0,0:0:0:0:
224,160,199903,1,0,0:0:0:0:
288,160,199975,1,8,0:0:0:0:
288,160,200120,1,8,0:0:0:0:
288,160,200265,1,8,0:0:0:0:
224,224,200410,1,4,0:0:0:0:
224,160,200700,1,0,0:0:0:0:
224,160,200772,1,0,0:0:0:0:
288,160,200845,1,8,0:0:0:0:
224,160,200990,1,0,0:0:0:0:
224,160,201062,1,0,0:0:0:0:
288,160,201134,1,8,0:0:0:0:
224,160,201279,1,0,0:0:0:0:
224,160,201569,1,0,0:0:0:0:
224,160,201642,1,0,0:0:0:0:
288,160,201714,1,8,0:0:0:0:
224,160,201859,1,0,0:0:0:0:
288,160,202004,1,8,0:0:0:0:
224,160,202149,1,0,0:0:0:0:
224,160,202294,1,0,0:0:0:0:
224,160,202439,1,0,0:0:0:0:
224,160,202511,1,0,0:0:0:0:
224,160,202584,1,0,0:0:0:0:
288,224,202729,1,12,0:0:0:0:
224,160,203019,1,0,0:0:0:0:
224,160,203091,1,0,0:0:0:0:
288,160,203163,1,8,0:0:0:0:
224,160,203308,1,0,0:0:0:0:
224,160,203381,1,0,0:0:0:0:
288,160,203453,1,8,0:0:0:0:
224,160,203598,1,0,0:0:0:0:
224,160,203888,1,0,0:0:0:0:
288,160,204033,1,8,0:0:0:0:
224,160,204178,1,0,0:0:0:0:
224,160,204250,1,0,0:0:0:0:
288,160,204323,1,8,0:0:0:0:
224,160,204468,1,0,0:0:0:0:
224,160,204540,1,0,0:0:0:0:
224,160,204613,1,0,0:0:0:0:
224,160,204758,1,0,0:0:0:0:
288,160,204903,1,8,0:0:0:0:
224,224,205048,1,4,0:0:0:0:
224,160,205337,1,0,0:0:0:0:
288,224,205482,1,12,0:0:0:0:
224,160,205772,1,0,0:0:0:0:
288,224,205917,1,12,0:0:0:0:
224,160,206207,1,0,0:0:0:0:
224,160,206279,1,0,0:0:0:0:
288,160,206352,1,8,0:0:0:0:
288,160,206497,1,8,0:0:0:0:
288,160,206642,1,8,0:0:0:0:
224,160,206787,1,0,0:0:0:0:
288,224,207511,5,12,0:0:0:0:
224,160,207656,1,0,0:0:0:0:
288,160,207801,1,8,0:0:0:0:
224,160,207946,1,0,0:0:0:0:
224,160,208019,1,0,0:0:0:0:
224,160,208091,1,0,0:0:0:0:
224,160,208236,1,0,0:0:0:0:
288,160,208381,1,8,0:0:0:0:
224,160,208526,1,0,0:0:0:0:
224,160,208816,1,0,0:0:0:0:
288,160,208961,1,8,0:0:0:0:
224,160,209106,1,0,0:0:0:0:
224,160,209250,1,0,0:0:0:0:
224,160,209323,1,0,0:0:0:0:
224,160,209395,1,0,0:0:0:0:
224,160,209468,1,0,0:0:0:0:
288,160,209540,1,8,0:0:0:0:
224,160,209830,1,0,0:0:0:0:
288,160,210120,1,8,0:0:0:0:
224,160,210265,1,0,0:0:0:0:
224,160,210337,1,0,0:0:0:0:
224,160,210410,1,0,0:0:0:0:
288,160,210555,1,8,0:0:0:0:
224,160,210700,1,0,0:0:0:0:
288,160,210845,1,8,0:0:0:0:
224,160,211134,1,0,0:0:0:0:
288,160,211279,1,8,0:0:0:0:
224,160,211424,1,0,0:0:0:0:
288,160,211569,1,8,0:0:0:0:
224,160,211642,1,0,0:0:0:0:
224,160,211714,1,0,0:0:0:0:
224,160,211787,1,0,0:0:0:0:
288,160,211859,1,8,0:0:0:0:
224,160,212149,1,0,0:0:0:0:
288,160,212439,1,8,0:0:0:0:
224,160,212584,1,0,0:0:0:0:
224,160,212874,1,0,0:0:0:0:
224,160,212946,1,0,0:0:0:0:
288,160,213019,1,8,0:0:0:0:
288,160,213163,1,8,0:0:0:0:
224,160,213453,1,0,0:0:0:0:
288,160,213598,1,8,0:0:0:0:
224,160,213888,1,0,0:0:0:0:
224,160,213961,1,0,0:0:0:0:
224,160,214033,1,0,0:0:0:0:
288,160,214178,1,8,0:0:0:0:
224,160,214323,1,0,0:0:0:0:
288,160,214468,1,8,0:0:0:0:
288,160,214758,1,8,0:0:0:0:
288,160,214903,1,8,0:0:0:0:
224,160,215048,1,0,0:0:0:0:
224,160,215192,1,0,0:0:0:0:
224,160,215265,1,0,0:0:0:0:
288,160,215337,1,8,0:0:0:0:
224,160,215482,1,0,0:0:0:0:
224,160,215772,1,0,0:0:0:0:
288,160,215917,1,8,0:0:0:0:
224,160,216062,1,0,0:0:0:0:
224,160,216134,1,0,0:0:0:0:
224,160,216207,1,0,0:0:0:0:
224,160,216352,1,0,0:0:0:0:
288,160,216497,1,8,0:0:0:0:
288,224,216787,1,12,0:0:0:0:
288,160,217077,1,8,0:0:0:0:
224,160,217221,1,0,0:0:0:0:
224,160,217366,1,0,0:0:0:0:
224,160,217511,1,0,0:0:0:0:
224,160,217584,1,0,0:0:0:0:
288,160,217656,1,8,0:0:0:0:
224,160,217801,1,0,0:0:0:0:
224,160,218091,1,0,0:0:0:0:
288,160,218236,1,8,0:0:0:0:
224,160,218381,1,0,0:0:0:0:
288,160,218526,1,8,0:0:0:0:
288,160,218598,1,8,0:0:0:0:
224,160,218671,1,0,0:0:0:0:
224,160,218743,1,0,0:0:0:0:
288,160,218816,1,8,0:0:0:0:
224,160,219106,1,0,0:0:0:0:
288,160,219395,1,8,0:0:0:0:
288,160,219540,1,8,0:0:0:0:
224,160,219685,1,0,0:0:0:0:
224,160,219830,1,0,0:0:0:0:
224,160,219903,1,0,0:0:0:0:
288,160,219975,1,8,0:0:0:0:
224,160,220120,1,0,0:0:0:0:
224,160,220410,1,0,0:0:0:0:
288,160,220555,1,8,0:0:0:0:
224,160,220700,1,0,0:0:0:0:
288,160,220845,1,8,0:0:0:0:
224,160,220917,1,0,0:0:0:0:
224,160,220990,1,0,0:0:0:0:
224,160,221062,1,0,0:0:0:0:
288,160,221134,1,8,0:0:0:0:
224,160,221424,1,0,0:0:0:0:
288,160,221714,1,8,0:0:0:0:
224,160,221859,1,0,0:0:0:0:
224,160,222149,1,0,0:0:0:0:
288,160,222294,1,8,0:0:0:0:
224,160,222584,1,0,0:0:0:0:
224,160,222729,1,0,0:0:0:0:
288,160,222874,1,8,0:0:0:0:
224,160,223163,1,0,0:0:0:0:
224,160,223236,1,0,0:0:0:0:
224,160,223308,1,0,0:0:0:0:
288,160,223453,1,8,0:0:0:0:
224,224,223743,1,4,0:0:0:0:
288,160,224033,1,8,0:0:0:0:
224,160,224178,1,0,0:0:0:0:
224,160,224468,1,0,0:0:0:0:
288,224,224613,1,12,0:0:0:0:
224,160,224758,1,0,0:0:0:0:
224,160,224830,1,0,0:0:0:0:
224,160,224903,1,0,0:0:0:0:
224,160,224975,1,0,0:0:0:0:
288,160,225048,1,8,0:0:0:0:
288,160,225120,1,8,0:0:0:0:
288,160,225192,1,8,0:0:0:0:
288,160,225265,1,8,0:0:0:0:
224,160,225337,1,0,0:0:0:0:
224,160,225410,1,0,0:0:0:0:
288,160,225482,1,8,0:0:0:0:
288,160,225555,1,8,0:0:0:0:
288,160,225627,1,8,0:0:0:0:
288,160,225700,1,8,0:0:0:0:
224,160,225772,1,0,0:0:0:0:
224,160,225917,1,0,0:0:0:0:
288,224,226062,1,12,0:0:0:0:
288,160,226352,1,8,0:0:0:0:
224,160,226497,1,0,0:0:0:0:
224,160,226569,1,0,0:0:0:0:
224,160,226642,1,0,0:0:0:0:
224,160,226787,1,0,0:0:0:0:
288,160,226932,1,8,0:0:0:0:
224,160,227077,1,0,0:0:0:0:
224,160,227366,1,0,0:0:0:0:
288,160,227511,1,8,0:0:0:0:
224,160,227656,1,0,0:0:0:0:
288,160,227801,1,8,0:0:0:0:
288,160,227874,1,8,0:0:0:0:
288,160,227946,1,8,0:0:0:0:
224,160,228019,1,0,0:0:0:0:
288,160,228091,1,8,0:0:0:0:
224,160,228381,1,0,0:0:0:0:
288,160,228671,1,8,0:0:0:0:
288,160,228816,1,8,0:0:0:0:
224,160,228888,1,0,0:0:0:0:
224,160,228961,1,0,0:0:0:0:
288,160,229106,1,8,0:0:0:0:
224,160,229250,1,0,0:0:0:0:
224,160,229323,1,0,0:0:0:0:
288,160,229395,1,8,0:0:0:0:
224,160,229685,1,0,0:0:0:0:
224,160,229758,1,0,0:0:0:0:
288,160,229830,1,8,0:0:0:0:
288,160,230120,1,8,0:0:0:0:
224,160,230265,1,0,0:0:0:0:
288,160,230410,1,8,0:0:0:0:
288,160,230555,1,8,0:0:0:0:
224,160,230700,1,0,0:0:0:0:
288,160,230990,1,8,0:0:0:0:
224,160,231279,1,0,0:0:0:0:
224,160,231352,1,0,0:0:0:0:
224,160,231424,1,0,0:0:0:0:
288,160,231569,1,8,0:0:0:0:
224,160,231714,1,0,0:0:0:0:
224,160,231787,1,0,0:0:0:0:
224,160,231859,1,0,0:0:0:0:
288,160,232149,1,8,0:0:0:0:
224,160,232294,1,0,0:0:0:0:
224,160,232439,1,0,0:0:0:0:
224,160,232511,1,0,0:0:0:0:
224,160,232584,1,0,0:0:0:0:
288,160,232729,1,8,0:0:0:0:
224,160,233019,1,0,0:0:0:0:
288,160,233308,1,8,0:0:0:0:
288,160,233453,1,8,0:0:0:0:
224,160,233526,1,0,0:0:0:0:
224,160,233598,1,0,0:0:0:0:
224,160,233743,1,0,0:0:0:0:
288,224,233888,1,12,0:0:0:0:
224,160,234033,1,0,0:0:0:0:
224,160,234178,1,0,0:0:0:0:
224,160,234250,1,0,0:0:0:0:
224,160,234323,1,0,0:0:0:0:
224,160,234395,1,0,0:0:0:0:
288,160,234468,1,8,0:0:0:0:
224,160,234540,1,0,0:0:0:0:
288,160,234613,1,8,0:0:0:0:
288,160,234685,1,8,0:0:0:0:
224,160,234758,1,0,0:0:0:0:
288,160,234830,1,8,0:0:0:0:
224,160,234903,1,0,0:0:0:0:
224,160,234975,1,0,0:0:0:0:
288,160,235048,1,8,0:0:0:0:
288,160,235120,1,8,0:0:0:0:
288,160,235192,1,8,0:0:0:0:
288,160,235265,1,8,0:0:0:0:
224,160,235337,1,0,0:0:0:0:
288,160,235627,1,8,0:0:0:0:
288,160,235772,1,8,0:0:0:0:
224,160,236062,1,0,0:0:0:0:
288,160,236207,1,8,0:0:0:0:
224,160,236352,1,0,0:0:0:0:
224,160,236642,1,0,0:0:0:0:
288,160,236787,1,8,0:0:0:0:
224,160,236932,1,0,0:0:0:0:
288,160,237077,1,8,0:0:0:0:
224,160,237149,1,0,0:0:0:0:
224,160,237221,1,0,0:0:0:0:
224,160,237294,1,0,0:0:0:0:
288,160,237366,1,8,0:0:0:0:
224,224,237656,1,4,0:0:0:0:
288,160,237946,1,8,0:0:0:0:
288,160,238091,1,8,0:0:0:0:
224,160,238381,1,0,0:0:0:0:
288,160,238526,1,8,0:0:0:0:
224,224,238671,1,4,0:0:0:0:
224,160,238961,1,0,0:0:0:0:
288,160,239106,1,8,0:0:0:0:
224,160,239395,1,0,0:0:0:0:
224,160,239540,1,0,0:0:0:0:
288,224,239685,1,12,0:0:0:0:
288,224,239975,1,12,0:0:0:0:
288,160,240265,1,8,0:0:0:0:
224,160,240410,1,0,0:0:0:0:
224,160,240555,1,0,0:0:0:0:
224,160,240700,1,0,0:0:0:0:
288,160,240845,1,8,0:0:0:0:
224,160,241134,1,0,0:0:0:0:
224,160,241279,1,0,0:0:0:0:
288,160,241424,1,8,0:0:0:0:
224,160,241569,1,0,0:0:0:0:
224,160,241859,1,0,0:0:0:0:
288,224,242004,1,12,0:0:0:0:
288,224,242294,1,12,0:0:0:0:
224,160,242439,1,0,0:0:0:0:
224,160,242729,1,0,0:0:0:0:
224,160,242801,1,0,0:0:0:0:
288,160,242874,1,8,0:0:0:0:
224,160,243019,1,0,0:0:0:0:
224,160,243163,1,0,0:0:0:0:
288,160,243308,1,8,0:0:0:0:
224,160,243888,5,0,0:0:0:0:
224,160,243961,1,0,0:0:0:0:
288,160,244033,1,8,0:0:0:0:
288,224,244468,1,12,0:0:0:0:
224,160,245048,1,0,0:0:0:0:
224,160,245120,1,0,0:0:0:0:
288,160,245192,1,8,0:0:0:0:
224,224,245627,1,4,0:0:0:0:
224,160,245917,1,0,0:0:0:0:
224,160,245990,1,0,0:0:0:0:
288,160,246062,1,8,0:0:0:0:
224,160,246207,1,0,0:0:0:0:
224,160,246497,1,0,0:0:0:0:
224,160,246569,1,0,0:0:0:0:
288,160,246642,1,8,0:0:0:0:
224,160,246787,1,0,0:0:0:0:
224,160,247077,1,0,0:0:0:0:
224,160,247149,1,0,0:0:0:0:
288,160,247221,1,8,0:0:0:0:
224,160,247366,1,0,0:0:0:0:
224,160,247511,1,0,0:0:0:0:
224,160,247656,1,0,0:0:0:0:
224,160,247729,1,0,0:0:0:0:
288,160,247801,1,8,0:0:0:0:
224,160,247946,1,0,0:0:0:0:
224,160,248236,1,0,0:0:0:0:
224,160,248308,1,0,0:0:0:0:
288,160,248381,1,8,0:0:0:0:
224,160,248526,1,0,0:0:0:0:
224,160,248816,1,0,0:0:0:0:
224,160,248888,1,0,0:0:0:0:
288,160,248961,1,8,0:0:0:0:
224,160,249106,1,0,0:0:0:0:
224,160,249395,1,0,0:0:0:0:
224,160,249468,1,0,0:0:0:0:
288,160,249540,1,8,0:0:0:0:
224,160,249685,1,0,0:0:0:0:
224,160,249830,1,0,0:0:0:0:
224,160,249975,1,0,0:0:0:0:
288,160,250120,1,8,0:0:0:0:
224,160,250265,1,0,0:0:0:0:
224,160,250555,1,0,0:0:0:0:
224,160,250627,1,0,0:0:0:0:
288,160,250700,1,8,0:0:0:0:
224,160,250845,1,0,0:0:0:0:
224,160,251134,1,0,0:0:0:0:
224,160,251207,1,0,0:0:0:0:
288,160,251279,1,8,0:0:0:0:
224,160,251424,1,0,0:0:0:0:
224,160,251714,1,0,0:0:0:0:
224,160,251787,1,0,0:0:0:0:
288,160,251859,1,8,0:0:0:0:
288,160,251932,1,8,0:0:0:0:
224,160,252004,1,0,0:0:0:0:
224,160,252294,1,0,0:0:0:0:
224,160,252366,1,0,0:0:0:0:
288,160,252439,1,8,0:0:0:0:
288,160,252511,1,8,0:0:0:0:
224,160,252584,1,0,0:0:0:0:
224,160,252874,1,0,0:0:0:0:
224,160,252946,1,0,0:0:0:0:
288,160,253019,1,8,0:0:0:0:
224,160,253163,1,0,0:0:0:0:
224,160,253453,1,0,0:0:0:0:
224,160,253526,1,0,0:0:0:0:
288,160,253598,1,8,0:0:0:0:
224,160,253743,1,0,0:0:0:0:
224,160,254033,1,0,0:0:0:0:
224,160,254106,1,0,0:0:0:0:
288,160,254178,1,8,0:0:0:0:
224,160,254323,1,0,0:0:0:0:
224,160,254468,1,0,0:0:0:0:
224,160,254613,1,0,0:0:0:0:
224,160,254685,1,0,0:0:0:0:
288,160,254758,1,8,0:0:0:0:
288,224,254903,1,12,0:0:0:0:
224,160,255192,1,0,0:0:0:0:
224,160,255265,1,0,0:0:0:0:
224,160,255337,1,0,0:0:0:0:
224,160,255410,1,0,0:0:0:0:
224,160,255482,1,0,0:0:0:0:
224,160,255555,1,0,0:0:0:0:
288,160,255627,1,8,0:0:0:0:
224,160,255772,1,0,0:0:0:0:
224,160,255845,1,0,0:0:0:0:
224,160,255917,1,0,0:0:0:0:
224,160,255990,1,0,0:0:0:0:
224,160,256062,1,0,0:0:0:0:
224,160,256352,1,0,0:0:0:0:
224,160,256424,1,0,0:0:0:0:
224,160,256497,1,0,0:0:0:0:
224,160,256569,1,0,0:0:0:0:
224,160,256642,1,0,0:0:0:0:
224,160,256714,1,0,0:0:0:0:
288,160,256787,1,8,0:0:0:0:
224,160,256932,1,0,0:0:0:0:
224,160,257004,1,0,0:0:0:0:
224,160,257077,1,0,0:0:0:0:
224,160,257149,1,0,0:0:0:0:
224,160,257221,1,0,0:0:0:0:
224,160,257511,1,0,0:0:0:0:
224,160,257584,1,0,0:0:0:0:
224,160,257656,1,0,0:0:0:0:
224,160,257729,1,0,0:0:0:0:
224,160,257801,1,0,0:0:0:0:
224,160,257874,1,0,0:0:0:0:
288,160,257946,1,8,0:0:0:0:
224,160,258091,1,0,0:0:0:0:
224,160,258163,1,0,0:0:0:0:
224,160,258236,1,0,0:0:0:0:
224,160,258308,1,0,0:0:0:0:
224,160,258381,1,0,0:0:0:0:
224,160,258671,1,0,0:0:0:0:
224,160,258743,1,0,0:0:0:0:
224,160,258816,1,0,0:0:0:0:
224,160,258888,1,0,0:0:0:0:
224,160,258961,1,0,0:0:0:0:
288,224,259106,1,12,0:0:0:0:
288,224,259250,1,12,0:0:0:0:
288,224,259395,1,12,0:0:0:0:
224,224,259540,1,4,0:0:0:0:
224,160,259830,1,0,0:0:0:0:
224,160,259903,1,0,0:0:0:0:
224,160,259975,1,0,0:0:0:0:
224,160,260048,1,0,0:0:0:0:
224,160,260120,1,0,0:0:0:0:
224,160,260192,1,0,0:0:0:0:
288,160,260265,1,8,0:0:0:0:
224,160,260410,1,0,0:0:0:0:
224,160,260482,1,0,0:0:0:0:
224,160,260555,1,0,0:0:0:0:
224,160,260627,1,0,0:0:0:0:
224,160,260700,1,0,0:0:0:0:
224,160,260990,1,0,0:0:0:0:
224,160,261062,1,0,0:0:0:0:
224,160,261134,1,0,0:0:0:0:
224,160,261207,1,0,0:0:0:0:
224,160,261279,1,0,0:0:0:0:
224,160,261352,1,0,0:0:0:0:
288,160,261424,1,8,0:0:0:0:
224,160,261569,1,0,0:0:0:0:
224,160,261642,1,0,0:0:0:0:
224,160,261714,1,0,0:0:0:0:
224,160,261787,1,0,0:0:0:0:
224,160,261859,1,0,0:0:0:0:
224,160,262149,1,0,0:0:0:0:
224,160,262221,1,0,0:0:0:0:
224,160,262294,1,0,0:0:0:0:
224,160,262366,1,0,0:0:0:0:
224,160,262439,1,0,0:0:0:0:
224,160,262511,1,0,0:0:0:0:
288,160,262584,1,8,0:0:0:0:
224,160,262729,1,0,0:0:0:0:
224,160,262801,1,0,0:0:0:0:
224,160,262874,1,0,0:0:0:0:
224,160,262946,1,0,0:0:0:0:
224,160,263019,1,0,0:0:0:0:
288,160,263163,1,8,0:0:0:0:
288,160,263236,1,8,0:0:0:0:
224,160,263308,1,0,0:0:0:0:
224,160,263381,1,0,0:0:0:0:
288,160,263453,1,8,0:0:0:0:
288,160,263598,1,8,0:0:0:0:
224,160,263743,1,0,0:0:0:0:
224,160,263888,1,0,0:0:0:0:
224,160,264033,1,0,0:0:0:0:
288,224,264178,1,12,0:0:0:0:
288,160,265482,1,8,0:0:0:0:
224,160,265555,1,0,0:0:0:0:
224,160,265627,1,0,0:0:0:0:
224,160,265700,1,0,0:0:0:0:
288,160,265772,1,8,0:0:0:0:
224,160,265845,1,0,0:0:0:0:
224,160,265917,1,0,0:0:0:0:
224,160,265990,1,0,0:0:0:0:
288,160,266062,1,8,0:0:0:0:
288,160,266134,1,8,0:0:0:0:
224,160,266207,1,0,0:0:0:0:
224,160,266279,1,0,0:0:0:0:
288,160,266352,1,8,0:0:0:0:
224,224,266497,5,4,0:0:0:0:
288,160,266787,1,8,0:0:0:0:
224,160,266859,1,0,0:0:0:0:
288,160,266932,1,8,0:0:0:0:
288,160,267004,1,8,0:0:0:0:
224,160,267077,1,0,0:0:0:0:
224,160,267149,1,0,0:0:0:0:
288,160,267221,1,8,0:0:0:0:
224,160,267366,1,0,0:0:0:0:
224,160,267439,1,0,0:0:0:0:
288,160,267511,1,8,0:0:0:0:
288,160,267584,1,8,0:0:0:0:
224,160,267656,1,0,0:0:0:0:
288,160,267729,1,8,0:0:0:0:
224,160,267801,1,0,0:0:0:0:
224,160,267946,1,0,0:0:0:0:
224,160,268019,1,0,0:0:0:0:
288,160,268091,1,8,0:0:0:0:
288,160,268163,1,8,0:0:0:0:
224,160,268236,1,0,0:0:0:0:
224,160,268308,1,0,0:0:0:0:
288,160,268381,1,8,0:0:0:0:
224,160,268526,1,0,0:0:0:0:
224,160,268598,1,0,0:0:0:0:
288,160,268671,1,8,0:0:0:0:
288,160,268743,1,8,0:0:0:0:
224,160,268816,1,0,0:0:0:0:
288,160,268888,1,8,0:0:0:0:
224,160,268961,1,0,0:0:0:0:
224,160,269106,1,0,0:0:0:0:
224,160,269178,1,0,0:0:0:0:
288,160,269250,1,8,0:0:0:0:
224,160,269323,1,0,0:0:0:0:
224,160,269395,1,0,0:0:0:0:
224,160,269468,1,0,0:0:0:0:
288,160,269540,1,8,0:0:0:0:
224,160,269685,1,0,0:0:0:0:
224,160,269758,1,0,0:0:0:0:
288,160,269830,1,8,0:0:0:0:
288,160,269903,1,8,0:0:0:0:
224,160,269975,1,0,0:0:0:0:
288,160,270120,1,8,0:0:0:0:
288,160,270192,1,8,0:0:0:0:
224,160,270265,1,0,0:0:0:0:
224,160,270337,1,0,0:0:0:0:
288,160,270410,1,8,0:0:0:0:
288,160,270482,1,8,0:0:0:0:
224,160,270555,1,0,0:0:0:0:
224,160,270627,1,0,0:0:0:0:
288,160,270700,1,8,0:0:0:0:
288,160,270772,1,8,0:0:0:0:
224,160,270845,1,0,0:0:0:0:
224,160,270917,1,0,0:0:0:0:
288,160,270990,1,8,0:0:0:0:
224,160,271062,1,0,0:0:0:0:
288,160,271134,1,8,0:0:0:0:
224,160,271424,1,0,0:0:0:0:
288,160,271569,1,8,0:0:0:0:
224,160,271859,1,0,0:0:0:0:
224,160,272004,1,0,0:0:0:0:
288,160,272149,1,8,0:0:0:0:
224,160,272294,1,0,0:0:0:0:
224,160,272584,1,0,0:0:0:0:
288,160,272729,1,8,0:0:0:0:
224,160,273019,1,0,0:0:0:0:
224,160,273163,1,0,0:0:0:0:
288,160,273308,1,8,0:0:0:0:
288,160,273453,1,8,0:0:0:0:
224,160,273743,1,0,0:0:0:0:
288,160,273888,1,8,0:0:0:0:
224,160,274033,1,0,0:0:0:0:
288,160,274178,1,8,0:0:0:0:
224,160,274323,1,0,0:0:0:0:
288,160,274468,1,8,0:0:0:0:
288,160,274613,1,8,0:0:0:0:
288,160,274903,1,8,0:0:0:0:
288,160,275048,1,8,0:0:0:0:
224,160,275192,1,0,0:0:0:0:
224,160,275337,1,0,0:0:0:0:
224,160,275482,1,0,0:0:0:0:
288,160,275627,1,8,0:0:0:0:
288,224,275772,1,12,0:0:0:0:
224,160,276062,1,0,0:0:0:0:
288,160,276207,1,8,0:0:0:0:
224,160,276279,1,0,0:0:0:0:
224,160,276352,1,0,0:0:0:0:
224,160,276424,1,0,0:0:0:0:
288,160,276497,1,8,0:0:0:0:
224,160,276569,1,0,0:0:0:0:
224,160,276642,1,0,0:0:0:0:
224,160,276714,1,0,0:0:0:0:
288,160,276787,1,8,0:0:0:0:
224,160,276859,1,0,0:0:0:0:
224,160,276932,1,0,0:0:0:0:
224,160,277004,1,0,0:0:0:0:
288,160,277077,1,8,0:0:0:0:
288,160,277149,1,8,0:0:0:0:
224,160,277221,1,0,0:0:0:0:
224,160,277294,1,0,0:0:0:0:
288,160,277366,1,8,0:0:0:0:
288,160,277439,1,8,0:0:0:0:
224,160,277511,1,0,0:0:0:0:
224,160,277584,1,0,0:0:0:0:
288,160,277656,1,8,0:0:0:0:
288,160,277729,1,8,0:0:0:0:
224,160,277801,1,0,0:0:0:0:
224,160,277874,1,0,0:0:0:0:
288,160,277946,1,8,0:0:0:0:
288,160,278091,1,8,0:0:0:0:
224,160,278381,1,0,0:0:0:0:
288,160,278526,1,8,0:0:0:0:
288,160,278598,1,8,0:0:0:0:
224,160,278671,1,0,0:0:0:0:
224,160,278743,1,0,0:0:0:0:
288,160,278816,1,8,0:0:0:0:
288,160,278961,1,8,0:0:0:0:
288,160,279106,1,8,0:0:0:0:
224,160,279250,1,0,0:0:0:0:
224,160,279540,1,0,0:0:0:0:
288,160,279685,1,8,0:0:0:0:
224,160,279830,1,0,0:0:0:0:
224,160,280120,1,0,0:0:0:0:
288,160,280265,1,8,0:0:0:0:
288,224,280410,1,12,0:0:0:0:
224,160,280700,1,0,0:0:0:0:
288,160,280845,1,8,0:0:0:0:
224,160,281134,1,0,0:0:0:0:
224,160,281279,1,0,0:0:0:0:
288,160,281424,1,8,0:0:0:0:
288,160,281497,1,8,0:0:0:0:
288,160,281569,1,8,0:0:0:0:
224,160,281859,1,0,0:0:0:0:
288,160,282004,1,8,0:0:0:0:
224,160,282294,1,0,0:0:0:0:
288,160,282439,1,8,0:0:0:0:
224,160,282584,1,0,0:0:0:0:
288,224,282729,1,12,0:0:0:0:
224,160,283019,1,0,0:0:0:0:
224,160,283091,1,0,0:0:0:0:
288,160,283163,1,8,0:0:0:0:
224,160,283308,1,0,0:0:0:0:
288,160,283453,1,8,0:0:0:0:
224,160,283598,1,0,0:0:0:0:
288,160,283743,1,8,0:0:0:0:
288,160,283888,1,8,0:0:0:0:
224,160,284033,1,0,0:0:0:0:
224,160,284106,1,0,0:0:0:0:
224,160,284178,1,0,0:0:0:0:
224,160,284250,1,0,0:0:0:0:
288,160,284323,1,8,0:0:0:0:
288,160,284395,1,8,0:0:0:0:
288,160,284468,1,8,0:0:0:0:
288,160,284540,1,8,0:0:0:0:
224,160,284613,1,0,0:0:0:0:
224,160,284685,1,0,0:0:0:0:
288,160,284758,1,8,0:0:0:0:
288,160,284830,1,8,0:0:0:0:
224,160,284903,1,0,0:0:0:0:
224,160,284975,1,0,0:0:0:0:
288,160,285048,1,8,0:0:0:0:
224,160,285120,1,0,0:0:0:0:
288,160,285192,5,8,0:0:0:0:
288,160,285265,1,8,0:0:0:0:
224,160,285337,1,0,0:0:0:0:
224,160,285410,1,0,0:0:0:0:
288,160,285482,1,8,0:0:0:0:
288,160,285555,1,8,0:0:0:0:
224,160,285627,1,0,0:0:0:0:
224,160,285700,1,0,0:0:0:0:
288,160,285772,1,8,0:0:0:0:
288,160,285845,1,8,0:0:0:0:
224,160,285917,1,0,0:0:0:0:
224,160,285990,1,0,0:0:0:0:
288,160,286062,1,8,0:0:0:0:
288,160,286134,1,8,0:0:0:0:
224,160,286207,1,0,0:0:0:0:
224,160,286279,1,0,0:0:0:0:
288,160,286352,1,8,0:0:0:0:
224,160,286424,1,0,0:0:0:0:
224,160,286497,1,0,0:0:0:0:
224,160,286569,1,0,0:0:0:0:
288,160,286642,1,8,0:0:0:0:
224,160,286714,1,0,0:0:0:0:
224,160,286787,1,0,0:0:0:0:
224,160,286859,1,0,0:0:0:0:
288,160,286932,1,8,0:0:0:0:
224,160,287004,1,0,0:0:0:0:
224,160,287077,1,0,0:0:0:0:
224,160,287149,1,0,0:0:0:0:
288,160,287221,1,8,0:0:0:0:
224,160,287294,1,0,0:0:0:0:
224,160,287366,1,0,0:0:0:0:
224,160,287439,1,0,0:0:0:0:
288,160,287511,1,8,0:0:0:0:
288,160,287584,1,8,0:0:0:0:
224,160,287656,1,0,0:0:0:0:
224,160,287729,1,0,0:0:0:0:
288,160,287801,1,8,0:0:0:0:
288,160,287874,1,8,0:0:0:0:
224,160,287946,1,0,0:0:0:0:
224,160,288019,1,0,0:0:0:0:
288,160,288091,1,8,0:0:0:0:
288,160,288163,1,8,0:0:0:0:
224,160,288236,1,0,0:0:0:0:
224,160,288308,1,0,0:0:0:0:
288,160,288381,1,8,0:0:0:0:
288,160,288453,1,8,0:0:0:0:
224,160,288526,1,0,0:0:0:0:
224,160,288598,1,0,0:0:0:0:
288,160,288671,1,8,0:0:0:0:
288,160,288743,1,8,0:0:0:0:
288,160,288816,1,8,0:0:0:0:
288,160,288889,1,8,0:0:0:0:
224,160,288961,1,0,0:0:0:0:
224,160,289033,1,0,0:0:0:0:
224,160,289106,1,0,0:0:0:0:
224,160,289178,1,0,0:0:0:0:
288,160,289251,1,8,0:0:0:0:
288,160,289323,1,8,0:0:0:0:
288,160,289396,1,8,0:0:0:0:
288,160,289468,1,8,0:0:0:0:
224,160,289540,1,0,0:0:0:0:
224,160,289613,1,0,0:0:0:0:
224,160,289685,1,0,0:0:0:0:
224,160,289758,1,0,0:0:0:0:
288,160,289830,1,8,0:0:0:0:
288,160,289903,1,8,0:0:0:0:
224,160,289975,1,0,0:0:0:0:
224,160,290048,1,0,0:0:0:0:
288,160,290120,1,8,0:0:0:0:
288,160,290192,1,8,0:0:0:0:
224,160,290265,1,0,0:0:0:0:
224,160,290337,1,0,0:0:0:0:
288,160,290410,1,8,0:0:0:0:
288,160,290482,1,8,0:0:0:0:
224,160,290555,1,0,0:0:0:0:
224,160,290627,1,0,0:0:0:0:
288,160,290700,1,8,0:0:0:0:
288,160,290772,1,8,0:0:0:0:
224,160,290845,1,0,0:0:0:0:
224,160,290917,1,0,0:0:0:0:
288,160,290990,1,8,0:0:0:0:
224,160,291062,1,0,0:0:0:0:
224,160,291134,1,0,0:0:0:0:
224,160,291207,1,0,0:0:0:0:
288,160,291279,1,8,0:0:0:0:
224,160,291352,1,0,0:0:0:0:
224,160,291424,1,0,0:0:0:0:
224,160,291497,1,0,0:0:0:0:
288,160,291569,1,8,0:0:0:0:
224,160,291642,1,0,0:0:0:0:
224,160,291714,1,0,0:0:0:0:
224,160,291787,1,0,0:0:0:0:
288,160,291859,1,8,0:0:0:0:
224,160,291932,1,0,0:0:0:0:
224,160,292004,1,0,0:0:0:0:
224,160,292077,1,0,0:0:0:0:
288,160,292149,1,8,0:0:0:0:
288,160,292221,1,8,0:0:0:0:
224,160,292294,1,0,0:0:0:0:
224,160,292366,1,0,0:0:0:0:
288,160,292439,1,8,0:0:0:0:
288,160,292511,1,8,0:0:0:0:
224,160,292584,1,0,0:0:0:0:
224,160,292656,1,0,0:0:0:0:
288,160,292729,1,8,0:0:0:0:
288,160,292801,1,8,0:0:0:0:
224,160,292874,1,0,0:0:0:0:
224,160,292946,1,0,0:0:0:0:
288,160,293019,1,8,0:0:0:0:
288,160,293091,1,8,0:0:0:0:
224,160,293163,1,0,0:0:0:0:
288,160,293236,1,8,0:0:0:0:
224,160,293308,1,0,0:0:0:0:
224,160,293381,1,0,0:0:0:0:
224,160,293453,1,0,0:0:0:0:
224,160,293526,1,0,0:0:0:0:
288,160,293598,1,8,0:0:0:0:
288,160,293671,1,8,0:0:0:0:
288,160,293743,1,8,0:0:0:0:
288,160,293816,1,8,0:0:0:0:
224,160,293888,1,0,0:0:0:0:
224,160,293961,1,0,0:0:0:0:
224,160,294033,1,0,0:0:0:0:
224,160,294106,1,0,0:0:0:0:
288,160,294178,1,8,0:0:0:0:
224,224,294323,1,4,0:0:0:0:
224,160,294613,1,0,0:0:0:0:
224,160,294685,1,0,0:0:0:0:
288,160,294758,1,8,0:0:0:0:
224,160,294903,1,0,0:0:0:0:
224,160,294975,1,0,0:0:0:0:
224,160,295048,1,0,0:0:0:0:
224,160,295192,1,0,0:0:0:0:
224,160,295265,1,0,0:0:0:0:
288,160,295337,1,8,0:0:0:0:
224,224,295482,1,4,0:0:0:0:
224,160,295772,1,0,0:0:0:0:
288,160,295845,1,8,0:0:0:0:
288,160,295917,1,8,0:0:0:0:
224,160,296062,1,0,0:0:0:0:
288,160,296134,1,8,0:0:0:0:
224,160,296207,1,0,0:0:0:0:
224,160,296352,1,0,0:0:0:0:
288,160,296424,1,8,0:0:0:0:
288,160,296497,1,8,0:0:0:0:
288,224,296642,1,12,0:0:0:0:
224,160,296932,1,0,0:0:0:0:
224,160,297004,1,0,0:0:0:0:
288,160,297077,1,8,0:0:0:0:
288,160,297221,1,8,0:0:0:0:
288,160,297294,1,8,0:0:0:0:
224,160,297366,1,0,0:0:0:0:
224,160,297511,1,0,0:0:0:0:
224,160,297584,1,0,0:0:0:0:
288,160,297656,1,8,0:0:0:0:
288,224,297801,1,12,0:0:0:0:
224,160,298091,1,0,0:0:0:0:
288,160,298163,1,8,0:0:0:0:
288,160,298236,1,8,0:0:0:0:
288,160,298381,1,8,0:0:0:0:
224,160,298453,1,0,0:0:0:0:
224,160,298526,1,0,0:0:0:0:
224,160,298671,1,0,0:0:0:0:
288,160,298743,1,8,0:0:0:0:
288,160,298816,1,8,0:0:0:0:
224,224,298961,1,4,0:0:0:0:
224,160,299250,1,0,0:0:0:0:
288,160,299395,1,8,0:0:0:0:
224,160,299540,1,0,0:0:0:0:
224,160,299830,1,0,0:0:0:0:
288,160,299975,1,8,0:0:0:0:
288,160,300120,1,8,0:0:0:0:
224,160,300410,1,0,0:0:0:0:
288,160,300555,1,8,0:0:0:0:
224,160,300700,1,0,0:0:0:0:
224,160,300990,1,0,0:0:0:0:
288,160,301134,1,8,0:0:0:0:
288,160,301279,1,8,0:0:0:0:
224,160,301569,1,0,0:0:0:0:
288,160,301714,1,8,0:0:0:0:
224,160,301859,1,0,0:0:0:0:
224,160,302149,1,0,0:0:0:0:
288,160,302294,1,8,0:0:0:0:
288,160,302439,1,8,0:0:0:0:
224,160,302729,1,0,0:0:0:0:
288,160,302874,1,8,0:0:0:0:
224,160,303019,1,0,0:0:0:0:
224,160,303163,1,0,0:0:0:0:
224,160,303308,1,0,0:0:0:0:
288,160,303453,1,8,0:0:0:0:
288,224,303598,1,12,0:0:0:0:
224,160,303888,1,0,0:0:0:0:
288,160,304033,1,8,0:0:0:0:
224,160,304323,1,0,0:0:0:0:
224,160,304468,1,0,0:0:0:0:
288,160,304613,1,8,0:0:0:0:
224,160,304758,1,0,0:0:0:0:
224,160,305048,1,0,0:0:0:0:
288,160,305192,1,8,0:0:0:0:
224,160,305482,1,0,0:0:0:0:
224,160,305627,1,0,0:0:0:0:
288,160,305772,1,8,0:0:0:0:
288,160,305917,1,8,0:0:0:0:
288,160,306062,1,8,0:0:0:0:
288,160,306134,1,8,0:0:0:0:
224,160,306207,1,0,0:0:0:0:
288,160,306352,1,8,0:0:0:0:
224,160,306497,1,0,0:0:0:0:
224,160,306642,1,0,0:0:0:0:
224,160,306787,1,0,0:0:0:0:
288,160,306932,1,8,0:0:0:0:
288,160,307077,1,8,0:0:0:0:
224,160,307221,1,0,0:0:0:0:
224,160,307366,1,0,0:0:0:0:
288,160,307511,1,8,0:0:0:0:
224,160,307801,1,0,0:0:0:0:
224,160,307946,1,0,0:0:0:0:
288,160,308091,1,8,0:0:0:0:
224,224,308236,1,4,0:0:0:0:
224,160,308526,1,0,0:0:0:0:
224,160,308598,1,0,0:0:0:0:
288,160,308671,1,8,0:0:0:0:
224,160,308816,1,0,0:0:0:0:
224,160,308961,1,0,0:0:0:0:
224,160,309106,1,0,0:0:0:0:
224,160,309178,1,0,0:0:0:0:
288,160,309250,1,8,0:0:0:0:
224,160,309395,1,0,0:0:0:0:
224,160,309685,1,0,0:0:0:0:
288,160,309830,1,8,0:0:0:0:
224,160,309975,1,0,0:0:0:0:
224,160,310048,1,0,0:0:0:0:
224,160,310120,1,0,0:0:0:0:
224,160,310265,1,0,0:0:0:0:
288,160,310410,1,8,0:0:0:0:
288,224,310555,1,12,0:0:0:0:
224,160,310845,1,0,0:0:0:0:
224,160,310917,1,0,0:0:0:0:
224,160,310990,1,0,0:0:0:0:
224,160,311134,1,0,0:0:0:0:
224,160,311207,1,0,0:0:0:0:
224,160,311279,1,0,0:0:0:0:
224,160,311424,1,0,0:0:0:0:
224,160,311497,1,0,0:0:0:0:
224,160,311569,1,0,0:0:0:0:
288,224,311714,1,12,0:0:0:0:
288,224,312003,1,12,0:0:0:0:
288,224,312148,1,12,0:0:0:0:
288,160,313058,5,8,0:0:0:0:
288,160,315376,1,8,0:0:0:0:
288,160,317695,1,8,0:0:0:0:
288,160,319434,1,8,0:0:0:0:
288,160,320014,1,8,0:0:0:0:
288,160,322333,1,8,0:0:0:0:
288,160,324072,1,8,0:0:0:0:
288,160,324652,1,8,0:0:0:0:
288,160,326971,1,8,0:0:0:0:
288,160,328130,1,8,0:0:0:0:
288,160,329289,1,8,0:0:0:0:
288,224,330409,1,12,0:0:0:0:
288,224,330627,1,12,0:0:0:0:
224,224,330844,1,4,0:0:0:0:
288,224,331569,5,12,0:0:0:0:
288,160,331858,1,8,0:0:0:0:
224,160,332003,1,0,0:0:0:0:
224,160,332076,1,0,0:0:0:0:
224,160,332148,1,0,0:0:0:0:
224,160,332293,1,0,0:0:0:0:
224,160,332366,1,0,0:0:0:0:
288,160,332438,1,8,0:0:0:0:
224,160,332583,1,0,0:0:0:0:
224,160,332873,1,0,0:0:0:0:
224,160,332945,1,0,0:0:0:0:
288,160,333018,1,8,0:0:0:0:
224,160,333163,1,0,0:0:0:0:
224,160,333308,1,0,0:0:0:0:
224,160,333380,1,0,0:0:0:0:
224,160,333453,1,0,0:0:0:0:
224,160,333525,1,0,0:0:0:0:
288,160,333597,1,8,0:0:0:0:
224,160,333887,1,0,0:0:0:0:
288,160,334177,1,8,0:0:0:0:
224,160,334322,1,0,0:0:0:0:
288,160,334395,1,8,0:0:0:0:
224,160,334467,1,0,0:0:0:0:
224,160,334612,1,0,0:0:0:0:
224,160,334684,1,0,0:0:0:0:
288,160,334757,1,8,0:0:0:0:
224,160,334902,1,0,0:0:0:0:
224,160,335192,1,0,0:0:0:0:
288,160,335337,1,8,0:0:0:0:
224,160,335482,1,0,0:0:0:0:
288,160,335626,1,8,0:0:0:0:
224,160,335699,1,0,0:0:0:0:
224,160,335771,1,0,0:0:0:0:
224,160,335844,1,0,0:0:0:0:
288,160,335916,1,8,0:0:0:0:
224,160,336206,1,0,0:0:0:0:
288,160,336496,1,8,0:0:0:0:
224,160,336641,1,0,0:0:0:0:
224,160,336713,1,0,0:0:0:0:
224,160,336786,1,0,0:0:0:0:
224,160,336931,1,0,0:0:0:0:
224,160,337003,1,0,0:0:0:0:
288,160,337076,1,8,0:0:0:0:
224,160,337221,1,0,0:0:0:0:
224,160,337511,1,0,0:0:0:0:
288,160,337583,1,8,0:0:0:0:
288,160,337655,1,8,0:0:0:0:
224,160,337800,1,0,0:0:0:0:
288,160,337945,1,8,0:0:0:0:
288,160,338018,1,8,0:0:0:0:
224,160,338090,1,0,0:0:0:0:
224,160,338163,1,0,0:0:0:0:
288,160,338235,1,8,0:0:0:0:
288,160,338380,1,8,0:0:0:0:
224,160,338525,1,0,0:0:0:0:
288,160,338815,1,8,0:0:0:0:
288,160,338960,1,8,0:0:0:0:
288,160,339032,1,8,0:0:0:0:
224,160,339105,1,0,0:0:0:0:
224,160,339250,1,0,0:0:0:0:
288,160,339395,1,8,0:0:0:0:
224,160,339540,1,0,0:0:0:0:
224,160,339829,1,0,0:0:0:0:
288,160,339974,1,8,0:0:0:0:
224,160,340119,1,0,0:0:0:0:
288,160,340192,1,8,0:0:0:0:
224,160,340264,1,0,0:0:0:0:
224,160,340337,1,0,0:0:0:0:
224,160,340409,1,0,0:0:0:0:
288,160,340554,1,8,0:0:0:0:
288,224,340844,1,12,0:0:0:0:
288,160,341134,1,8,0:0:0:0:
224,160,341279,1,0,0:0:0:0:
224,160,341351,1,0,0:0:0:0:
224,160,341424,1,0,0:0:0:0:
288,160,341569,1,8,0:0:0:0:
224,160,341641,1,0,0:0:0:0:
288,160,341713,1,8,0:0:0:0:
288,160,341858,1,8,0:0:0:0:
224,160,342148,1,0,0:0:0:0:
288,160,342293,1,8,0:0:0:0:
224,160,342438,1,0,0:0:0:0:
288,160,342583,1,8,0:0:0:0:
288,160,342655,1,8,0:0:0:0:
288,160,342728,1,8,0:0:0:0:
224,160,342800,1,0,0:0:0:0:
288,160,342873,1,8,0:0:0:0:
224,160,343163,1,0,0:0:0:0:
288,160,343453,1,8,0:0:0:0:
288,160,343597,1,8,0:0:0:0:
224,160,343670,1,0,0:0:0:0:
224,160,343742,1,0,0:0:0:0:
224,160,343887,1,0,0:0:0:0:
224,160,343960,1,0,0:0:0:0:
288,160,344032,1,8,0:0:0:0:
224,160,344177,1,0,0:0:0:0:
224,160,344467,1,0,0:0:0:0:
288,160,344612,1,8,0:0:0:0:
224,160,344757,1,0,0:0:0:0:
224,160,344902,1,0,0:0:0:0:
224,160,344974,1,0,0:0:0:0:
224,160,345047,1,0,0:0:0:0:
224,160,345119,1,0,0:0:0:0:
288,160,345192,1,8,0:0:0:0:
224,160,345482,1,0,0:0:0:0:
288,160,345771,1,8,0:0:0:0:
224,160,345916,1,0,0:0:0:0:
224,160,346206,1,0,0:0:0:0:
288,160,346351,1,8,0:0:0:0:
224,160,346641,1,0,0:0:0:0:
224,160,346786,1,0,0:0:0:0:
288,160,346931,1,8,0:0:0:0:
224,160,347221,1,0,0:0:0:0:
224,160,347293,1,0,0:0:0:0:
224,160,347366,1,0,0:0:0:0:
288,160,347511,1,8,0:0:0:0:
288,160,347655,1,8,0:0:0:0:
224,160,347800,1,0,0:0:0:0:
288,160,348090,1,8,0:0:0:0:
224,160,348235,1,0,0:0:0:0:
224,160,348525,1,0,0:0:0:0:
288,160,348670,1,8,0:0:0:0:
224,160,348815,1,0,0:0:0:0:
288,224,348960,1,12,0:0:0:0:
288,224,349177,1,12,0:0:0:0:
224,224,349395,1,4,0:0:0:0:
224,160,349684,1,0,0:0:0:0:
224,160,349757,1,0,0:0:0:0:
224,160,349829,1,0,0:0:0:0:
224,160,349974,1,0,0:0:0:0:
288,224,350119,1,12,0:0:0:0:
288,160,350409,1,8,0:0:0:0:
224,160,350554,1,0,0:0:0:0:
224,160,350626,1,0,0:0:0:0:
224,160,350699,1,0,0:0:0:0:
224,160,350844,1,0,0:0:0:0:
224,160,350916,1,0,0:0:0:0:
288,160,350989,1,8,0:0:0:0:
224,160,351134,1,0,0:0:0:0:
224,160,351424,1,0,0:0:0:0:
288,160,351569,1,8,0:0:0:0:
224,160,351713,1,0,0:0:0:0:
288,160,351858,1,8,0:0:0:0:
224,160,351931,1,0,0:0:0:0:
224,160,352003,1,0,0:0:0:0:
224,160,352076,1,0,0:0:0:0:
288,160,352148,1,8,0:0:0:0:
224,160,352293,1,0,0:0:0:0:
224,160,352438,1,0,0:0:0:0:
288,160,352728,1,8,0:0:0:0:
288,160,352873,1,8,0:0:0:0:
224,160,352945,1,0,0:0:0:0:
224,160,353018,1,0,0:0:0:0:
224,160,353163,1,0,0:0:0:0:
224,160,353235,1,0,0:0:0:0:
288,160,353308,1,8,0:0:0:0:
288,160,353453,1,8,0:0:0:0:
224,160,353742,1,0,0:0:0:0:
288,160,353887,1,8,0:0:0:0:
224,160,354032,1,0,0:0:0:0:
288,160,354177,1,8,0:0:0:0:
288,160,354250,1,8,0:0:0:0:
224,160,354322,1,0,0:0:0:0:
224,160,354395,1,0,0:0:0:0:
288,160,354467,1,8,0:0:0:0:
288,160,354612,1,8,0:0:0:0:
224,160,354757,1,0,0:0:0:0:
288,160,355047,1,8,0:0:0:0:
224,160,355192,1,0,0:0:0:0:
224,160,355337,1,0,0:0:0:0:
288,160,355409,1,8,0:0:0:0:
224,160,355482,1,0,0:0:0:0:
224,160,355554,1,0,0:0:0:0:
288,160,355626,1,8,0:0:0:0:
288,160,355771,1,8,0:0:0:0:
288,160,355844,1,8,0:0:0:0:
224,160,355916,1,0,0:0:0:0:
288,160,356206,1,8,0:0:0:0:
224,160,356351,1,0,0:0:0:0:
288,160,356496,1,8,0:0:0:0:
288,160,356569,1,8,0:0:0:0:
224,160,356641,1,0,0:0:0:0:
224,160,356713,1,0,0:0:0:0:
288,160,356786,1,8,0:0:0:0:
288,160,356931,1,8,0:0:0:0:
224,160,357076,1,0,0:0:0:0:
288,160,357366,1,8,0:0:0:0:
224,160,357511,1,0,0:0:0:0:
224,160,357655,1,0,0:0:0:0:
224,160,357800,1,0,0:0:0:0:
224,160,357873,1,0,0:0:0:0:
288,160,357945,1,8,0:0:0:0:
288,160,358090,1,8,0:0:0:0:
224,160,358163,1,0,0:0:0:0:
288,160,358235,1,8,0:0:0:0:
288,160,358308,1,8,0:0:0:0:
224,160,358380,1,0,0:0:0:0:
224,160,358453,1,0,0:0:0:0:
288,160,358525,1,8,0:0:0:0:
288,160,358597,1,8,0:0:0:0:
224,160,358670,1,0,0:0:0:0:
224,160,358742,1,0,0:0:0:0:
288,160,358815,1,8,0:0:0:0:
224,160,358887,1,0,0:0:0:0:
224,160,358960,1,0,0:0:0:0:
224,160,359032,1,0,0:0:0:0:
288,160,359105,1,8,0:0:0:0:
224,160,359177,1,0,0:0:0:0:
224,160,359250,1,0,0:0:0:0:
288,224,359395,1,12,0:0:0:0:
288,160,359684,1,8,0:0:0:0:
224,160,359829,1,0,0:0:0:0:
288,160,359902,1,8,0:0:0:0:
288,160,359974,1,8,0:0:0:0:
224,160,360119,1,0,0:0:0:0:
224,160,360192,1,0,0:0:0:0:
288,160,360264,1,8,0:0:0:0:
224,160,360409,1,0,0:0:0:0:
224,160,360699,1,0,0:0:0:0:
288,160,360844,1,8,0:0:0:0:
224,160,360989,1,0,0:0:0:0:
288,160,361134,1,8,0:0:0:0:
224,160,361206,1,0,0:0:0:0:
224,160,361279,1,0,0:0:0:0:
224,160,361351,1,0,0:0:0:0:
288,160,361424,1,8,0:0:0:0:
224,224,361713,1,4,0:0:0:0:
288,160,362003,1,8,0:0:0:0:
224,224,362148,1,4,0:0:0:0:
224,224,362438,1,4,0:0:0:0:
288,160,362583,1,8,0:0:0:0:
288,224,362728,1,12,0:0:0:0:
224,160,363018,1,0,0:0:0:0:
288,160,363163,1,8,0:0:0:0:
288,160,363453,1,8,0:0:0:0:
288,160,363525,1,8,0:0:0:0:
224,160,363597,1,0,0:0:0:0:
288,224,363742,1,12,0:0:0:0:
224,224,364032,1,4,0:0:0:0:
288,160,364322,1,8,0:0:0:0:
224,160,364467,1,0,0:0:0:0:
224,160,364612,1,0,0:0:0:0:
224,160,364757,1,0,0:0:0:0:
288,160,364902,1,8,0:0:0:0:
224,224,365192,1,4,0:0:0:0:
288,160,365482,1,8,0:0:0:0:
224,160,365626,1,0,0:0:0:0:
224,160,365916,1,0,0:0:0:0:
288,160,366061,1,8,0:0:0:0:
288,224,366351,1,12,0:0:0:0:
224,160,366786,1,0,0:0:0:0:
224,160,366858,1,0,0:0:0:0:
224,160,366931,1,0,0:0:0:0:
224,160,367076,1,0,0:0:0:0:
224,160,367221,1,0,0:0:0:0:
224,160,367366,1,0,0:0:0:0:
224,160,367511,1,0,0:0:0:0:
224,160,367655,1,0,0:0:0:0:
224,160,367728,1,0,0:0:0:0:
224,160,367800,1,0,0:0:0:0:
224,160,367945,1,0,0:0:0:0:
224,160,368090,1,0,0:0:0:0:
224,160,368235,1,0,0:0:0:0:
288,160,368380,1,8,0:0:0:0:
288,160,368453,1,8,0:0:0:0:
288,160,368525,1,8,0:0:0:0:
224,224,368670,1,4,0:0:0:0:
288,160,368960,1,8,0:0:0:0:
224,160,369105,1,0,0:0:0:0:
224,160,369395,1,0,0:0:0:0:
288,160,369540,1,8,0:0:0:0:
224,160,369829,1,0,0:0:0:0:
224,160,369974,1,0,0:0:0:0:
288,160,370119,1,8,0:0:0:0:
224,160,370264,1,0,0:0:0:0:
224,160,370554,1,0,0:0:0:0:
288,160,370699,1,8,0:0:0:0:
224,160,370989,1,0,0:0:0:0:
288,160,371279,1,8,0:0:0:0:
288,160,371424,1,8,0:0:0:0:
224,160,371569,1,0,0:0:0:0:
224,160,371713,1,0,0:0:0:0:
288,224,371858,1,12,0:0:0:0:
224,160,372003,1,0,0:0:0:0:
288,160,372148,1,8,0:0:0:0:
288,160,372221,1,8,0:0:0:0:
224,160,372293,1,0,0:0:0:0:
224,160,372366,1,0,0:0:0:0:
288,160,372438,1,8,0:0:0:0:
224,160,372583,1,0,0:0:0:0:
224,160,372655,1,0,0:0:0:0:
288,160,372728,1,8,0:0:0:0:
288,160,372800,1,8,0:0:0:0:
224,160,372873,1,0,0:0:0:0:
288,160,373018,1,8,0:0:0:0:
224,160,373090,1,0,0:0:0:0:
224,160,373163,1,0,0:0:0:0:
288,224,373308,1,12,0:0:0:0:
224,160,373453,1,0,0:0:0:0:
224,160,373742,1,0,0:0:0:0:
224,160,373815,1,0,0:0:0:0:
224,160,373887,1,0,0:0:0:0:
224,160,374032,1,0,0:0:0:0:
224,160,374322,1,0,0:0:0:0:
224,160,374395,1,0,0:0:0:0:
224,160,374467,1,0,0:0:0:0:
224,160,374612,1,0,0:0:0:0:
288,160,374757,1,8,0:0:0:0:
224,160,374902,1,0,0:0:0:0:
224,160,374974,1,0,0:0:0:0:
224,160,375047,1,0,0:0:0:0:
224,160,375192,1,0,0:0:0:0:
288,160,375337,1,8,0:0:0:0:
288,224,375626,1,12,0:0:0:0:
224,160,375771,1,0,0:0:0:0:
288,224,375916,1,12,0:0:0:0:
224,160,376061,1,0,0:0:0:0:
288,224,376206,1,12,0:0:0:0:
288,224,376351,1,12,0:0:0:0:
224,224,376496,1,4,0:0:0:0:
288,224,376641,1,12,0:0:0:0:
224,224,377800,5,4,0:0:0:0:
224,160,378090,1,0,0:0:0:0:
288,160,378235,1,8,0:0:0:0:
224,160,378380,1,0,0:0:0:0:
224,160,378453,1,0,0:0:0:0:
224,160,378525,1,0,0:0:0:0:
224,160,378670,1,0,0:0:0:0:
288,160,378815,1,8,0:0:0:0:
224,160,378960,1,0,0:0:0:0:
224,160,379250,1,0,0:0:0:0:
288,160,379395,1,8,0:0:0:0:
224,160,379540,1,0,0:0:0:0:
224,160,379612,1,0,0:0:0:0:
288,160,379684,1,8,0:0:0:0:
288,160,379829,1,8,0:0:0:0:
224,160,379902,1,0,0:0:0:0:
288,160,379974,1,8,0:0:0:0:
224,160,380119,1,0,0:0:0:0:
224,160,380409,1,0,0:0:0:0:
288,160,380554,1,8,0:0:0:0:
224,160,380699,1,0,0:0:0:0:
224,160,380771,1,0,0:0:0:0:
224,160,380844,1,0,0:0:0:0:
224,160,380989,1,0,0:0:0:0:
288,160,381134,1,8,0:0:0:0:
224,160,381279,1,0,0:0:0:0:
224,160,381424,1,0,0:0:0:0:
288,160,381569,1,8,0:0:0:0:
288,160,381713,1,8,0:0:0:0:
224,160,381858,1,0,0:0:0:0:
224,160,381931,1,0,0:0:0:0:
288,160,382003,1,8,0:0:0:0:
224,160,382076,1,0,0:0:0:0:
288,160,382148,1,8,0:0:0:0:
288,160,382293,1,8,0:0:0:0:
224,160,382438,1,0,0:0:0:0:
224,160,382728,1,0,0:0:0:0:
288,160,382873,1,8,0:0:0:0:
224,160,383018,1,0,0:0:0:0:
224,160,383090,1,0,0:0:0:0:
224,160,383163,1,0,0:0:0:0:
224,160,383308,1,0,0:0:0:0:
288,160,383453,1,8,0:0:0:0:
224,160,383597,1,0,0:0:0:0:
224,160,383887,1,0,0:0:0:0:
288,160,384032,1,8,0:0:0:0:
224,160,384177,1,0,0:0:0:0:
224,160,384250,1,0,0:0:0:0:
224,160,384322,1,0,0:0:0:0:
288,160,384467,1,8,0:0:0:0:
224,160,384540,1,0,0:0:0:0:
288,160,384612,1,8,0:0:0:0:
224,160,384757,1,0,0:0:0:0:
224,160,385047,1,0,0:0:0:0:
288,160,385192,1,8,0:0:0:0:
224,160,385264,1,0,0:0:0:0:
224,160,385337,1,0,0:0:0:0:
288,160,385482,1,8,0:0:0:0:
224,160,385626,1,0,0:0:0:0:
288,224,385771,1,12,0:0:0:0:
288,160,386061,1,8,0:0:0:0:
288,160,386134,1,8,0:0:0:0:
224,160,386206,1,0,0:0:0:0:
224,160,386279,1,0,0:0:0:0:
288,160,386351,1,8,0:0:0:0:
288,160,386496,1,8,0:0:0:0:
288,160,386569,1,8,0:0:0:0:
224,160,386641,1,0,0:0:0:0:
224,160,386713,1,0,0:0:0:0:
288,160,386786,1,8,0:0:0:0:
288,160,386858,1,8,0:0:0:0:
288,160,386931,1,8,0:0:0:0:
224,224,387076,1,4,0:0:0:0:
224,160,387366,1,0,0:0:0:0:
224,160,387438,1,0,0:0:0:0:
288,160,387511,1,8,0:0:0:0:
224,160,387655,1,0,0:0:0:0:
224,160,387728,1,0,0:0:0:0:
288,160,387800,1,8,0:0:0:0:
224,160,387945,1,0,0:0:0:0:
224,160,388018,1,0,0:0:0:0:
288,160,388090,1,8,0:0:0:0:
224,160,388235,1,0,0:0:0:0:
224,160,388308,1,0,0:0:0:0:
288,160,388380,1,8,0:0:0:0:
224,160,388525,1,0,0:0:0:0:
224,160,388597,1,0,0:0:0:0:
288,160,388670,1,8,0:0:0:0:
224,160,388815,1,0,0:0:0:0:
224,160,388887,1,0,0:0:0:0:
288,160,388960,1,8,0:0:0:0:
288,160,389032,1,8,0:0:0:0:
224,160,389105,1,0,0:0:0:0:
224,160,389177,1,0,0:0:0:0:
288,160,389250,1,8,0:0:0:0:
224,160,389395,1,0,0:0:0:0:
288,160,389540,1,8,0:0:0:0:
224,160,389684,1,0,0:0:0:0:
224,160,389757,1,0,0:0:0:0:
288,160,389829,1,8,0:0:0:0:
224,160,389974,1,0,0:0:0:0:
224,160,390047,1,0,0:0:0:0:
288,160,390119,1,8,0:0:0:0:
224,160,390264,1,0,0:0:0:0:
224,160,390337,1,0,0:0:0:0:
288,160,390409,1,8,0:0:0:0:
224,160,390554,1,0,0:0:0:0:
224,160,390626,1,0,0:0:0:0:
288,160,390699,1,8,0:0:0:0:
224,160,390844,1,0,0:0:0:0:
224,160,390916,1,0,0:0:0:0:
288,160,390989,1,8,0:0:0:0:
224,160,391134,1,0,0:0:0:0:
224,160,391206,1,0,0:0:0:0:
288,160,391279,1,8,0:0:0:0:
224,160,391351,1,0,0:0:0:0:
288,160,391424,1,8,0:0:0:0:
224,160,391496,1,0,0:0:0:0:
288,160,391569,1,8,0:0:0:0:
224,224,391713,1,4,0:0:0:0:
224,160,392003,1,0,0:0:0:0:
224,160,392076,1,0,0:0:0:0:
288,160,392148,1,8,0:0:0:0:
224,160,392293,1,0,0:0:0:0:
288,160,392438,1,8,0:0:0:0:
224,160,392583,1,0,0:0:0:0:
224,160,392655,1,0,0:0:0:0:
288,160,392728,1,8,0:0:0:0:
224,160,392873,1,0,0:0:0:0:
288,160,393018,1,8,0:0:0:0:
224,160,393163,1,0,0:0:0:0:
224,160,393235,1,0,0:0:0:0:
288,160,393308,1,8,0:0:0:0:
224,160,393453,1,0,0:0:0:0:
224,160,393525,1,0,0:0:0:0:
288,160,393597,1,8,0:0:0:0:
288,160,393742,1,8,0:0:0:0:
288,160,393887,1,8,0:0:0:0:
224,224,394032,1,4,0:0:0:0:
224,160,394322,1,0,0:0:0:0:
288,160,394467,1,8,0:0:0:0:
224,160,394540,1,0,0:0:0:0:
224,160,394612,1,0,0:0:0:0:
288,160,394757,1,8,0:0:0:0:
224,160,394829,1,0,0:0:0:0:
224,160,394902,1,0,0:0:0:0:
288,160,395047,1,8,0:0:0:0:
224,160,395119,1,0,0:0:0:0:
288,160,395192,1,8,0:0:0:0:
288,160,395337,1,8,0:0:0:0:
224,160,395409,1,0,0:0:0:0:
288,160,395482,1,8,0:0:0:0:
224,160,395554,1,0,0:0:0:0:
224,160,395626,1,0,0:0:0:0:
224,160,395699,1,0,0:0:0:0:
288,160,395771,1,8,0:0:0:0:
224,160,395844,1,0,0:0:0:0:
288,160,395916,1,8,0:0:0:0:
224,160,395989,1,0,0:0:0:0:
224,160,396061,1,0,0:0:0:0:
224,160,396134,1,0,0:0:0:0:
288,160,396206,1,8,0:0:0:0:
288,160,396279,1,8,0:0:0:0:
224,160,396351,1,0,0:0:0:0:
288,224,396496,1,12,0:0:0:0:
