osu file format v14

[General]
AudioFilename: augoeides.mp3
AudioLeadIn: 0
PreviewTime: 123467
Countdown: 0
SampleSet: Normal
StackLeniency: 0.7
Mode: 1
LetterboxInBreaks: 0
WidescreenStoryboard: 0

[Editor]
Bookmarks: 86802,142599,188976,242309,285208,350135
DistanceSpacing: 0.9
BeatDivisor: 4
GridSize: 32
TimelineZoom: 1

[Metadata]
Title:AugoEidEs
TitleUnicode:∧ugΦEidEs
Artist:DystopiaGround
ArtistUnicode:DystopiaGround
Creator:Nardoxyribonucleic
Version:Inner Oni
Source:
Tags:Taiko nao Demetori qoot8123 collab
BeatmapID:1082284
BeatmapSetID:508901

[Difficulty]
HPDrainRate:5
CircleSize:5
OverallDifficulty:6
ApproachRate:7
SliderMultiplier:1.4
SliderTickRate:1

[Events]
//Background and Video events
0,0,"fallenangel.jpg",0,80
//Break Periods
//Storyboard Layer 0 (Background)
//Storyboard Layer 1 (Fail)
//Storyboard Layer 2 (Pass)
//Storyboard Layer 3 (Foreground)
//Storyboard Sound Samples

[TimingPoints]
32455,289.855072463768,4,1,0,75,1,0
35788,-100,4,1,0,80,0,0
35933,289.855072463768,4,1,0,80,1,0
58976,-100,4,1,0,75,0,0
77527,-100,4,1,0,80,0,0
86802,-100,4,1,0,75,0,0
105498,-100,4,1,0,80,0,0
124048,-100,4,1,0,85,0,1
161005,-100,4,1,0,80,0,0
170280,-100,4,1,0,70,0,0
174918,-100,4,1,0,75,0,0
188976,-100,4,1,0,80,0,0
207527,-100,4,1,0,85,0,1
242309,-100,4,1,0,80,0,0
264193,-100,4,1,0,65,0,0
265498,-100,4,1,0,80,0,0
266512,-100,4,1,0,85,0,0
285208,-100,4,1,0,80,0,0
313034,-100,4,1,0,50,0,0
330280,-100,4,1,0,75,0,0
331585,-100,4,1,0,85,0,1
376657,-100,4,1,0,85,0,0
377817,-100,4,1,0,80,0,0
387092,-100,4,1,0,85,0,1
396512,-100,4,1,0,80,0,0
398831,-100,4,1,0,70,0,0
401150,-100,4,1,0,60,0,0
403469,-100,4,1,0,50,0,0
405788,-100,4,1,0,40,0,0
408106,-100,4,1,0,30,0,0
410135,-100,4,1,0,20,0,0

[HitObjects]
256,192,33614,5,8,0:0:0:0:
256,192,33759,1,0,0:0:0:0:
256,192,33831,1,0,0:0:0:0:
256,192,33904,1,0,0:0:0:0:
256,192,34049,1,0,0:0:0:0:
256,192,34194,1,8,0:0:0:0:
256,192,34339,1,0,0:0:0:0:
256,192,34411,1,0,0:0:0:0:
256,192,34483,1,0,0:0:0:0:
256,192,34628,1,0,0:0:0:0:
256,192,34773,1,8,0:0:0:0:
256,192,34918,1,0,0:0:0:0:
256,192,34991,1,0,0:0:0:0:
256,192,35063,1,0,0:0:0:0:
256,192,35208,1,0,0:0:0:0:
256,192,35281,1,0,0:0:0:0:
256,192,35353,1,0,0:0:0:0:
256,192,35498,1,8,0:0:0:0:
256,192,35788,1,4,0:0:0:0:
256,192,36077,1,0,0:0:0:0:
256,192,36222,1,8,0:0:0:0:
256,192,36367,1,0,0:0:0:0:
256,192,36512,1,8,0:0:0:0:
256,192,36657,1,0,0:0:0:0:
256,192,36730,1,0,0:0:0:0:
256,192,36802,1,8,0:0:0:0:
256,192,36947,1,0,0:0:0:0:
256,192,37237,1,0,0:0:0:0:
256,192,37382,1,8,0:0:0:0:
256,192,37527,1,0,0:0:0:0:
256,192,37599,1,0,0:0:0:0:
256,192,37672,1,0,0:0:0:0:
256,192,37817,1,0,0:0:0:0:
256,192,37961,1,8,0:0:0:0:
256,192,38106,1,0,0:0:0:0:
256,192,38396,1,0,0:0:0:0:
256,192,38541,1,8,0:0:0:0:
256,192,38686,1,0,0:0:0:0:
256,192,38759,1,0,0:0:0:0:
256,192,38831,1,8,0:0:0:0:
256,192,38976,1,0,0:0:0:0:
256,192,39121,1,8,0:0:0:0:
256,192,39266,1,8,0:0:0:0:
256,192,39338,1,8,0:0:0:0:
256,192,39411,1,0,0:0:0:0:
256,192,39556,1,0,0:0:0:0:
256,192,39701,1,8,0:0:0:0:
256,192,39846,1,0,0:0:0:0:
256,192,39918,1,0,0:0:0:0:
256,192,39990,1,0,0:0:0:0:
256,192,40135,1,0,0:0:0:0:
256,192,40280,1,8,0:0:0:0:
256,192,40425,1,0,0:0:0:0:
256,192,40715,1,0,0:0:0:0:
256,192,40860,1,8,0:0:0:0:
256,192,41005,1,0,0:0:0:0:
256,192,41150,1,8,0:0:0:0:
256,192,41295,1,0,0:0:0:0:
256,192,41367,1,0,0:0:0:0:
256,192,41440,1,8,0:0:0:0:
256,192,41585,1,0,0:0:0:0:
256,192,41875,1,0,0:0:0:0:
256,192,42019,1,8,0:0:0:0:
256,192,42164,1,0,0:0:0:0:
256,192,42237,1,0,0:0:0:0:
256,192,42309,1,0,0:0:0:0:
256,192,42454,1,0,0:0:0:0:
256,192,42599,1,8,0:0:0:0:
256,192,42744,1,0,0:0:0:0:
256,192,43034,1,0,0:0:0:0:
256,192,43179,1,8,0:0:0:0:
256,192,43324,1,0,0:0:0:0:
256,192,43396,1,0,0:0:0:0:
256,192,43469,1,8,0:0:0:0:
256,192,43614,1,0,0:0:0:0:
256,192,43759,1,8,0:0:0:0:
256,192,43904,1,0,0:0:0:0:
256,192,43976,1,0,0:0:0:0:
256,192,44048,1,0,0:0:0:0:
256,192,44193,1,8,0:0:0:0:
256,192,44338,1,8,0:0:0:0:
256,192,44411,1,8,0:0:0:0:
256,192,44483,1,0,0:0:0:0:
256,192,44628,1,8,0:0:0:0:
256,192,44773,1,0,0:0:0:0:
256,192,44846,1,0,0:0:0:0:
256,192,44918,1,8,0:0:0:0:
256,192,45063,1,4,0:0:0:0:
256,192,45353,1,0,0:0:0:0:
256,192,45498,1,8,0:0:0:0:
256,192,45643,1,0,0:0:0:0:
256,192,45715,1,0,0:0:0:0:
256,192,45788,1,8,0:0:0:0:
256,192,45933,1,0,0:0:0:0:
256,192,46077,1,8,0:0:0:0:
256,192,46222,1,0,0:0:0:0:
256,192,46512,1,0,0:0:0:0:
256,192,46657,1,8,0:0:0:0:
256,192,46802,1,0,0:0:0:0:
256,192,46875,1,0,0:0:0:0:
256,192,46947,1,0,0:0:0:0:
256,192,47092,1,0,0:0:0:0:
256,192,47237,1,8,0:0:0:0:
256,192,47382,1,0,0:0:0:0:
256,192,47672,1,0,0:0:0:0:
256,192,47817,1,8,0:0:0:0:
256,192,47961,1,0,0:0:0:0:
256,192,48034,1,0,0:0:0:0:
256,192,48106,1,8,0:0:0:0:
256,192,48251,1,0,0:0:0:0:
256,192,48396,1,8,0:0:0:0:
256,192,48541,1,0,0:0:0:0:
256,192,48614,1,0,0:0:0:0:
256,192,48686,1,0,0:0:0:0:
256,192,48831,1,8,0:0:0:0:
256,192,48904,1,0,0:0:0:0:
256,192,48976,1,8,0:0:0:0:
256,192,49048,1,8,0:0:0:0:
256,192,49121,1,0,0:0:0:0:
256,192,49266,1,8,0:0:0:0:
256,192,49338,1,8,0:0:0:0:
256,192,49411,1,8,0:0:0:0:
256,192,49556,1,8,0:0:0:0:
256,192,49701,1,0,0:0:0:0:
256,192,49990,1,0,0:0:0:0:
256,192,50135,1,8,0:0:0:0:
256,192,50280,1,0,0:0:0:0:
256,192,50353,1,0,0:0:0:0:
256,192,50425,1,8,0:0:0:0:
256,192,50570,1,0,0:0:0:0:
256,192,50715,1,8,0:0:0:0:
256,192,50860,1,0,0:0:0:0:
256,192,51150,1,0,0:0:0:0:
256,192,51295,1,8,0:0:0:0:
256,192,51440,1,0,0:0:0:0:
256,192,51512,1,0,0:0:0:0:
256,192,51585,1,0,0:0:0:0:
256,192,51730,1,0,0:0:0:0:
256,192,51875,1,8,0:0:0:0:
256,192,52019,1,0,0:0:0:0:
256,192,52309,1,0,0:0:0:0:
256,192,52454,1,8,0:0:0:0:
256,192,52599,1,0,0:0:0:0:
256,192,52672,1,0,0:0:0:0:
256,192,52744,1,0,0:0:0:0:
256,192,52889,1,0,0:0:0:0:
256,192,53034,1,8,0:0:0:0:
256,192,53179,1,0,0:0:0:0:
256,192,53251,1,0,0:0:0:0:
256,192,53324,1,8,0:0:0:0:
256,192,53396,1,0,0:0:0:0:
256,192,53469,1,0,0:0:0:0:
256,192,53541,1,0,0:0:0:0:
256,192,53614,1,8,0:0:0:0:
256,192,53759,1,0,0:0:0:0:
256,192,53831,1,0,0:0:0:0:
256,192,53904,1,8,0:0:0:0:
256,192,53976,1,0,0:0:0:0:
256,192,54048,1,8,0:0:0:0:
256,192,54121,1,8,0:0:0:0:
256,192,54193,1,0,0:0:0:0:
256,192,54266,1,0,0:0:0:0:
256,192,54338,1,8,0:0:0:0:
256,192,54411,1,0,0:0:0:0:
256,192,54483,1,8,0:0:0:0:
256,192,54773,1,0,0:0:0:0:
256,192,54918,1,8,0:0:0:0:
256,192,55208,1,0,0:0:0:0:
256,192,55353,1,8,0:0:0:0:
256,192,55643,1,0,0:0:0:0:
256,192,55788,1,8,0:0:0:0:
256,192,56077,1,0,0:0:0:0:
256,192,56150,1,0,0:0:0:0:
256,192,56222,1,0,0:0:0:0:
256,192,56367,1,0,0:0:0:0:
256,192,56512,1,0,0:0:0:0:
256,192,56657,1,0,0:0:0:0:
256,192,56802,1,12,0:0:0:0:
256,192,57092,1,0,0:0:0:0:
256,192,57237,1,8,0:0:0:0:
256,192,57527,1,0,0:0:0:0:
256,192,57672,1,8,0:0:0:0:
256,192,57961,1,0,0:0:0:0:
256,192,58106,1,0,0:0:0:0:
256,192,58251,1,0,0:0:0:0:
256,192,58396,1,8,0:0:0:0:
256,192,58831,1,0,0:0:0:0:
256,192,58976,1,12,0:0:0:0:
256,192,59266,1,0,0:0:0:0:
256,192,59411,1,8,0:0:0:0:
256,192,59701,1,0,0:0:0:0:
256,192,59846,1,0,0:0:0:0:
256,192,59990,1,8,0:0:0:0:
256,192,60135,1,0,0:0:0:0:
256,192,60425,1,0,0:0:0:0:
256,192,60570,1,8,0:0:0:0:
256,192,60860,1,0,0:0:0:0:
256,192,61005,1,0,0:0:0:0:
256,192,61150,1,8,0:0:0:0:
256,192,61295,1,0,0:0:0:0:
256,192,61585,1,0,0:0:0:0:
256,192,61730,1,8,0:0:0:0:
256,192,62019,1,0,0:0:0:0:
256,192,62164,1,8,0:0:0:0:
256,192,62309,1,0,0:0:0:0:
256,192,62454,1,8,0:0:0:0:
256,192,62527,1,8,0:0:0:0:
256,192,62599,1,8,0:0:0:0:
256,192,62744,1,0,0:0:0:0:
256,192,62889,1,8,0:0:0:0:
256,192,63179,1,0,0:0:0:0:
256,192,63324,1,8,0:0:0:0:
256,192,63469,1,8,0:0:0:0:
256,192,63614,1,0,0:0:0:0:
256,192,63904,1,0,0:0:0:0:
256,192,64048,1,8,0:0:0:0:
256,192,64338,1,0,0:0:0:0:
256,192,64483,1,0,0:0:0:0:
256,192,64628,1,8,0:0:0:0:
256,192,64773,1,0,0:0:0:0:
256,192,65063,1,0,0:0:0:0:
256,192,65208,1,8,0:0:0:0:
256,192,65353,1,0,0:0:0:0:
256,192,65425,1,0,0:0:0:0:
256,192,65498,1,8,0:0:0:0:
256,192,65643,1,0,0:0:0:0:
256,192,65788,1,8,0:0:0:0:
256,192,65932,1,0,0:0:0:0:
256,192,66222,1,0,0:0:0:0:
256,192,66367,1,8,0:0:0:0:
256,192,66657,1,0,0:0:0:0:
256,192,66802,1,0,0:0:0:0:
256,192,66947,1,8,0:0:0:0:
256,192,67092,1,0,0:0:0:0:
256,192,67164,1,0,0:0:0:0:
256,192,67237,1,0,0:0:0:0:
256,192,67382,1,0,0:0:0:0:
256,192,67527,1,8,0:0:0:0:
256,192,67672,1,0,0:0:0:0:
256,192,67817,1,8,0:0:0:0:
256,192,67889,1,8,0:0:0:0:
256,192,67961,1,0,0:0:0:0:
256,192,68106,1,8,0:0:0:0:
256,192,68251,1,4,0:0:0:0:
256,192,68541,1,0,0:0:0:0:
256,192,68686,1,8,0:0:0:0:
256,192,68976,1,0,0:0:0:0:
256,192,69121,1,0,0:0:0:0:
256,192,69266,1,8,0:0:0:0:
256,192,69411,1,0,0:0:0:0:
256,192,69701,1,0,0:0:0:0:
256,192,69846,1,8,0:0:0:0:
256,192,70135,1,0,0:0:0:0:
256,192,70280,1,8,0:0:0:0:
256,192,70425,1,0,0:0:0:0:
256,192,70570,1,8,0:0:0:0:
256,192,70643,1,8,0:0:0:0:
256,192,70715,1,8,0:0:0:0:
256,192,70860,1,0,0:0:0:0:
256,192,71005,1,8,0:0:0:0:
256,192,71295,1,0,0:0:0:0:
256,192,71440,1,8,0:0:0:0:
256,192,71585,1,8,0:0:0:0:
256,192,71730,1,0,0:0:0:0:
256,192,72019,1,0,0:0:0:0:
256,192,72164,1,8,0:0:0:0:
256,192,72454,1,0,0:0:0:0:
256,192,72599,1,0,0:0:0:0:
256,192,72744,1,8,0:0:0:0:
256,192,72889,1,4,0:0:0:0:
256,192,73179,1,0,0:0:0:0:
256,192,73324,1,8,0:0:0:0:
256,192,73614,1,0,0:0:0:0:
256,192,73759,1,0,0:0:0:0:
256,192,73904,1,8,0:0:0:0:
256,192,74048,1,0,0:0:0:0:
256,192,74338,1,0,0:0:0:0:
256,192,74483,1,8,0:0:0:0:
256,192,74628,1,0,0:0:0:0:
256,192,74701,1,0,0:0:0:0:
256,192,74773,1,8,0:0:0:0:
256,192,74918,1,0,0:0:0:0:
256,192,75063,1,8,0:0:0:0:
256,192,75208,1,0,0:0:0:0:
256,192,75498,1,0,0:0:0:0:
256,192,75643,1,8,0:0:0:0:
256,192,75932,1,8,0:0:0:0:
256,192,76077,1,0,0:0:0:0:
256,192,76222,1,8,0:0:0:0:
256,192,76367,1,0,0:0:0:0:
256,192,76440,1,0,0:0:0:0:
256,192,76512,1,0,0:0:0:0:
256,192,76657,1,0,0:0:0:0:
256,192,76802,1,8,0:0:0:0:
256,192,76947,1,0,0:0:0:0:
256,192,77092,1,8,0:0:0:0:
256,192,77164,1,8,0:0:0:0:
256,192,77237,1,0,0:0:0:0:
256,192,77309,1,0,0:0:0:0:
256,192,77382,1,8,0:0:0:0:
256,192,77527,1,4,0:0:0:0:
256,192,77817,1,0,0:0:0:0:
256,192,77961,1,8,0:0:0:0:
256,192,78251,1,0,0:0:0:0:
256,192,78396,1,0,0:0:0:0:
256,192,78541,1,8,0:0:0:0:
256,192,78686,1,0,0:0:0:0:
256,192,78976,1,0,0:0:0:0:
256,192,79121,1,8,0:0:0:0:
256,192,79266,1,0,0:0:0:0:
256,192,79338,1,0,0:0:0:0:
256,192,79411,1,8,0:0:0:0:
256,192,79556,1,0,0:0:0:0:
256,192,79701,1,8,0:0:0:0:
256,192,79846,1,0,0:0:0:0:
256,192,80135,1,0,0:0:0:0:
256,192,80280,1,8,0:0:0:0:
256,192,80570,1,0,0:0:0:0:
256,192,80715,1,0,0:0:0:0:
256,192,80860,1,8,0:0:0:0:
256,192,81005,1,8,0:0:0:0:
256,192,81077,1,8,0:0:0:0:
256,192,81150,1,0,0:0:0:0:
256,192,81295,1,0,0:0:0:0:
256,192,81440,1,8,0:0:0:0:
256,192,81585,1,0,0:0:0:0:
256,192,81657,1,0,0:0:0:0:
256,192,81730,1,8,0:0:0:0:
256,192,81875,1,0,0:0:0:0:
256,192,82019,1,8,0:0:0:0:
256,192,82164,1,4,0:0:0:0:
256,192,82454,1,0,0:0:0:0:
256,192,82599,1,8,0:0:0:0:
256,192,82889,1,0,0:0:0:0:
256,192,83034,1,0,0:0:0:0:
256,192,83179,1,8,0:0:0:0:
256,192,83324,1,0,0:0:0:0:
256,192,83614,1,0,0:0:0:0:
256,192,83759,1,8,0:0:0:0:
256,192,83904,1,0,0:0:0:0:
256,192,83976,1,0,0:0:0:0:
256,192,84048,1,8,0:0:0:0:
256,192,84193,1,0,0:0:0:0:
256,192,84338,1,8,0:0:0:0:
256,192,84483,1,0,0:0:0:0:
256,192,84773,1,0,0:0:0:0:
256,192,84918,1,8,0:0:0:0:
256,192,85063,1,0,0:0:0:0:
256,192,85135,1,0,0:0:0:0:
256,192,85208,1,0,0:0:0:0:
256,192,85353,1,0,0:0:0:0:
256,192,85498,1,12,0:0:0:0:
256,192,85643,1,0,0:0:0:0:
256,192,85715,1,0,0:0:0:0:
256,192,85788,1,8,0:0:0:0:
256,192,85932,1,0,0:0:0:0:
256,192,86077,1,8,0:0:0:0:
256,192,86222,1,8,0:0:0:0:
256,192,86295,1,8,0:0:0:0:
256,192,86367,1,0,0:0:0:0:
256,192,86512,1,8,0:0:0:0:
256,192,86657,1,0,0:0:0:0:
256,192,86802,5,4,0:0:0:0:
256,192,87092,1,0,0:0:0:0:
256,192,87237,1,8,0:0:0:0:
256,192,87527,1,0,0:0:0:0:
256,192,87672,1,0,0:0:0:0:
256,192,87817,1,8,0:0:0:0:
256,192,87961,1,0,0:0:0:0:
256,192,88251,1,0,0:0:0:0:
256,192,88396,1,8,0:0:0:0:
256,192,88686,1,0,0:0:0:0:
256,192,88831,1,0,0:0:0:0:
256,192,88976,1,8,0:0:0:0:
256,192,89121,1,0,0:0:0:0:
256,192,89411,1,0,0:0:0:0:
256,192,89556,1,8,0:0:0:0:
256,192,89701,1,0,0:0:0:0:
256,192,89773,1,0,0:0:0:0:
256,192,89846,1,8,0:0:0:0:
256,192,89990,1,0,0:0:0:0:
256,192,90135,1,0,0:0:0:0:
256,192,90280,1,8,0:0:0:0:
256,192,90570,1,0,0:0:0:0:
256,192,90715,1,8,0:0:0:0:
256,192,90860,1,0,0:0:0:0:
256,192,90932,1,0,0:0:0:0:
256,192,91005,1,0,0:0:0:0:
256,192,91150,1,8,0:0:0:0:
256,192,91295,1,8,0:0:0:0:
256,192,91440,1,0,0:0:0:0:
256,192,91730,1,0,0:0:0:0:
256,192,91875,1,8,0:0:0:0:
256,192,92164,1,0,0:0:0:0:
256,192,92309,1,0,0:0:0:0:
256,192,92454,1,8,0:0:0:0:
256,192,92599,1,0,0:0:0:0:
256,192,92889,1,0,0:0:0:0:
256,192,93034,1,8,0:0:0:0:
256,192,93179,1,0,0:0:0:0:
256,192,93251,1,0,0:0:0:0:
256,192,93324,1,0,0:0:0:0:
256,192,93469,1,0,0:0:0:0:
256,192,93614,1,8,0:0:0:0:
256,192,93759,1,0,0:0:0:0:
256,192,94048,1,0,0:0:0:0:
256,192,94193,1,8,0:0:0:0:
256,192,94483,1,0,0:0:0:0:
256,192,94628,1,0,0:0:0:0:
256,192,94773,1,8,0:0:0:0:
256,192,94918,1,0,0:0:0:0:
256,192,95208,1,0,0:0:0:0:
256,192,95353,1,8,0:0:0:0:
256,192,95498,1,0,0:0:0:0:
256,192,95570,1,0,0:0:0:0:
256,192,95643,1,0,0:0:0:0:
256,192,95788,1,8,0:0:0:0:
256,192,95932,1,8,0:0:0:0:
256,192,96077,1,4,0:0:0:0:
256,192,96367,1,0,0:0:0:0:
256,192,96512,1,8,0:0:0:0:
256,192,96657,1,0,0:0:0:0:
256,192,96730,1,0,0:0:0:0:
256,192,96802,1,8,0:0:0:0:
256,192,96947,1,0,0:0:0:0:
256,192,97092,1,8,0:0:0:0:
256,192,97237,1,8,0:0:0:0:
256,192,97527,1,0,0:0:0:0:
256,192,97672,1,8,0:0:0:0:
256,192,97817,1,0,0:0:0:0:
256,192,97889,1,0,0:0:0:0:
256,192,97961,1,0,0:0:0:0:
256,192,98106,1,0,0:0:0:0:
256,192,98251,1,8,0:0:0:0:
256,192,98396,1,8,0:0:0:0:
256,192,98686,1,0,0:0:0:0:
256,192,98831,1,8,0:0:0:0:
256,192,98976,1,8,0:0:0:0:
256,192,99048,1,8,0:0:0:0:
256,192,99121,1,8,0:0:0:0:
256,192,99266,1,0,0:0:0:0:
256,192,99411,1,0,0:0:0:0:
256,192,99556,1,8,0:0:0:0:
256,192,99846,1,0,0:0:0:0:
256,192,99990,1,8,0:0:0:0:
256,192,100135,1,0,0:0:0:0:
256,192,100208,1,0,0:0:0:0:
256,192,100280,1,0,0:0:0:0:
256,192,100425,1,8,0:0:0:0:
256,192,100570,1,8,0:0:0:0:
256,192,100715,1,4,0:0:0:0:
256,192,101005,1,0,0:0:0:0:
256,192,101150,1,8,0:0:0:0:
256,192,101440,1,0,0:0:0:0:
256,192,101585,1,0,0:0:0:0:
256,192,101730,1,8,0:0:0:0:
256,192,101875,1,0,0:0:0:0:
256,192,102164,1,0,0:0:0:0:
256,192,102309,1,8,0:0:0:0:
256,192,102599,1,0,0:0:0:0:
256,192,102744,1,0,0:0:0:0:
256,192,102889,1,8,0:0:0:0:
256,192,103034,1,12,0:0:0:0:
256,192,103324,1,0,0:0:0:0:
256,192,103469,1,8,0:0:0:0:
256,192,103614,1,0,0:0:0:0:
256,192,103686,1,0,0:0:0:0:
256,192,103759,1,8,0:0:0:0:
256,192,103904,1,0,0:0:0:0:
256,192,104048,1,8,0:0:0:0:
256,192,104193,1,8,0:0:0:0:
256,192,104338,1,8,0:0:0:0:
256,192,104483,1,8,0:0:0:0:
256,192,104628,1,0,0:0:0:0:
256,192,104701,1,0,0:0:0:0:
256,192,104773,1,0,0:0:0:0:
256,192,104918,1,0,0:0:0:0:
256,192,105063,1,0,0:0:0:0:
256,192,105208,1,0,0:0:0:0:
256,192,105353,1,0,0:0:0:0:
256,192,105498,1,4,0:0:0:0:
256,192,105643,1,0,0:0:0:0:
256,192,105932,1,0,0:0:0:0:
256,192,106222,1,0,0:0:0:0:
256,192,106367,1,8,0:0:0:0:
256,192,106512,1,0,0:0:0:0:
256,192,106802,1,0,0:0:0:0:
256,192,107092,1,0,0:0:0:0:
256,192,107237,1,0,0:0:0:0:
256,192,107382,1,0,0:0:0:0:
256,192,107527,1,12,0:0:0:0:
256,192,107817,1,4,0:0:0:0:
256,192,107961,1,0,0:0:0:0:
256,192,108251,1,0,0:0:0:0:
256,192,108541,1,0,0:0:0:0:
256,192,108686,1,8,0:0:0:0:
256,192,108976,1,8,0:0:0:0:
256,192,109121,1,0,0:0:0:0:
256,192,109193,1,0,0:0:0:0:
256,192,109266,1,8,0:0:0:0:
256,192,109411,1,0,0:0:0:0:
256,192,109556,1,8,0:0:0:0:
256,192,109628,1,8,0:0:0:0:
256,192,109701,1,0,0:0:0:0:
256,192,109773,1,0,0:0:0:0:
256,192,109846,1,8,0:0:0:0:
256,192,109990,1,4,0:0:0:0:
256,192,110280,1,0,0:0:0:0:
256,192,110425,1,8,0:0:0:0:
256,192,110715,1,0,0:0:0:0:
256,192,110860,1,0,0:0:0:0:
256,192,111005,1,8,0:0:0:0:
256,192,111150,1,0,0:0:0:0:
256,192,111440,1,0,0:0:0:0:
256,192,111585,1,8,0:0:0:0:
256,192,111730,1,0,0:0:0:0:
256,192,111802,1,0,0:0:0:0:
256,192,111875,1,8,0:0:0:0:
256,192,112019,1,0,0:0:0:0:
256,192,112164,1,0,0:0:0:0:
256,192,112309,1,12,0:0:0:0:
256,192,112599,1,0,0:0:0:0:
256,192,112744,1,8,0:0:0:0:
256,192,113034,1,0,0:0:0:0:
256,192,113179,1,0,0:0:0:0:
256,192,113324,1,8,0:0:0:0:
256,192,113469,1,4,0:0:0:0:
256,192,113759,1,4,0:0:0:0:
256,192,114048,1,0,0:0:0:0:
256,192,114193,1,8,0:0:0:0:
256,192,114338,1,8,0:0:0:0:
256,192,114483,1,8,0:0:0:0:
256,192,114628,1,8,0:0:0:0:
256,192,114773,1,4,0:0:0:0:
256,192,115063,1,8,0:0:0:0:
256,192,115208,1,0,0:0:0:0:
256,192,115498,1,0,0:0:0:0:
256,192,115643,1,8,0:0:0:0:
256,192,115932,1,0,0:0:0:0:
256,192,116077,1,8,0:0:0:0:
256,192,116222,1,8,0:0:0:0:
256,192,116367,1,0,0:0:0:0:
256,192,116512,1,8,0:0:0:0:
256,192,116802,1,8,0:0:0:0:
256,192,116947,1,8,0:0:0:0:
256,192,117092,1,0,0:0:0:0:
256,192,117382,1,8,0:0:0:0:
256,192,117527,1,0,0:0:0:0:
256,192,117817,1,0,0:0:0:0:
256,192,117961,1,8,0:0:0:0:
256,192,118251,1,8,0:0:0:0:
256,192,118396,1,0,0:0:0:0:
256,192,118541,1,8,0:0:0:0:
256,192,118686,1,8,0:0:0:0:
256,192,118831,1,0,0:0:0:0:
256,192,118904,1,0,0:0:0:0:
256,192,118976,1,0,0:0:0:0:
256,192,119048,1,0,0:0:0:0:
256,192,119121,1,8,0:0:0:0:
256,192,119266,1,4,0:0:0:0:
256,192,119556,1,0,0:0:0:0:
256,192,119701,1,8,0:0:0:0:
256,192,119990,1,0,0:0:0:0:
256,192,120135,1,0,0:0:0:0:
256,192,120280,1,8,0:0:0:0:
256,192,120425,1,0,0:0:0:0:
256,192,120715,1,0,0:0:0:0:
256,192,120860,1,8,0:0:0:0:
256,192,121005,1,0,0:0:0:0:
256,192,121077,1,0,0:0:0:0:
256,192,121150,1,8,0:0:0:0:
256,192,121295,1,8,0:0:0:0:
256,192,121440,1,8,0:0:0:0:
256,192,121585,1,4,0:0:0:0:
256,192,121875,1,0,0:0:0:0:
256,192,121947,1,0,0:0:0:0:
256,192,122019,1,8,0:0:0:0:
256,192,122164,1,0,0:0:0:0:
256,192,122237,1,0,0:0:0:0:
256,192,122309,1,0,0:0:0:0:
256,192,122454,1,0,0:0:0:0:
256,192,122527,1,0,0:0:0:0:
256,192,122599,1,8,0:0:0:0:
256,192,122744,1,12,0:0:0:0:
256,192,123034,1,12,0:0:0:0:
256,192,123179,1,12,0:0:0:0:
256,192,124048,1,4,0:0:0:0:
256,192,124338,1,8,0:0:0:0:
256,192,124483,1,8,0:0:0:0:
256,192,124628,1,0,0:0:0:0:
256,192,124701,1,8,0:0:0:0:
256,192,124773,1,0,0:0:0:0:
256,192,124918,1,8,0:0:0:0:
256,192,125063,1,0,0:0:0:0:
256,192,125135,1,0,0:0:0:0:
256,192,125208,1,0,0:0:0:0:
256,192,125353,1,0,0:0:0:0:
256,192,125498,1,8,0:0:0:0:
256,192,125643,1,0,0:0:0:0:
256,192,125715,1,0,0:0:0:0:
256,192,125788,1,8,0:0:0:0:
256,192,125860,1,0,0:0:0:0:
256,192,125932,1,0,0:0:0:0:
256,192,126077,1,8,0:0:0:0:
256,192,126222,1,8,0:0:0:0:
256,192,126367,1,0,0:0:0:0:
256,192,126657,1,8,0:0:0:0:
256,192,126802,1,0,0:0:0:0:
256,192,126947,1,0,0:0:0:0:
256,192,127019,1,8,0:0:0:0:
256,192,127092,1,0,0:0:0:0:
256,192,127237,1,8,0:0:0:0:
256,192,127382,1,8,0:0:0:0:
256,192,127454,1,8,0:0:0:0:
256,192,127527,1,0,0:0:0:0:
256,192,127672,1,0,0:0:0:0:
256,192,127817,1,8,0:0:0:0:
256,192,127961,1,0,0:0:0:0:
256,192,128034,1,0,0:0:0:0:
256,192,128106,1,8,0:0:0:0:
256,192,128251,1,0,0:0:0:0:
256,192,128396,1,8,0:0:0:0:
256,192,128541,1,8,0:0:0:0:
256,192,128686,1,0,0:0:0:0:
256,192,128976,1,8,0:0:0:0:
256,192,129121,1,0,0:0:0:0:
256,192,129266,1,0,0:0:0:0:
256,192,129338,1,0,0:0:0:0:
256,192,129411,1,0,0:0:0:0:
256,192,129556,1,8,0:0:0:0:
256,192,129701,1,8,0:0:0:0:
256,192,129846,1,0,0:0:0:0:
256,192,129918,1,0,0:0:0:0:
256,192,129990,1,0,0:0:0:0:
256,192,130135,1,8,0:0:0:0:
256,192,130280,1,0,0:0:0:0:
256,192,130353,1,0,0:0:0:0:
256,192,130425,1,8,0:0:0:0:
256,192,130570,1,0,0:0:0:0:
256,192,130715,1,8,0:0:0:0:
256,192,130788,1,0,0:0:0:0:
256,192,130860,1,8,0:0:0:0:
256,192,130932,1,8,0:0:0:0:
256,192,131005,1,0,0:0:0:0:
256,192,131150,1,0,0:0:0:0:
256,192,131222,1,0,0:0:0:0:
256,192,131295,1,8,0:0:0:0:
256,192,131440,1,0,0:0:0:0:
256,192,131730,1,0,0:0:0:0:
256,192,131875,1,8,0:0:0:0:
256,192,132164,1,0,0:0:0:0:
256,192,132309,1,0,0:0:0:0:
256,192,132454,1,8,0:0:0:0:
256,192,132599,1,0,0:0:0:0:
256,192,132672,1,0,0:0:0:0:
256,192,132744,1,8,0:0:0:0:
256,192,132817,1,8,0:0:0:0:
256,192,132889,1,0,0:0:0:0:
256,192,133034,1,8,0:0:0:0:
256,192,133324,1,4,0:0:0:0:
256,192,133614,1,8,0:0:0:0:
256,192,133759,1,8,0:0:0:0:
256,192,133831,1,8,0:0:0:0:
256,192,133904,1,0,0:0:0:0:
256,192,134048,1,0,0:0:0:0:
256,192,134193,1,8,0:0:0:0:
256,192,134338,1,0,0:0:0:0:
256,192,134411,1,0,0:0:0:0:
256,192,134483,1,0,0:0:0:0:
256,192,134628,1,0,0:0:0:0:
256,192,134773,1,8,0:0:0:0:
256,192,135063,1,8,0:0:0:0:
256,192,135208,1,0,0:0:0:0:
256,192,135353,1,8,0:0:0:0:
256,192,135643,1,4,0:0:0:0:
256,192,135932,1,8,0:0:0:0:
256,192,136077,1,0,0:0:0:0:
256,192,136150,1,8,0:0:0:0:
256,192,136222,1,0,0:0:0:0:
256,192,136367,1,0,0:0:0:0:
256,192,136512,1,8,0:0:0:0:
256,192,136657,1,0,0:0:0:0:
256,192,136730,1,0,0:0:0:0:
256,192,136802,1,0,0:0:0:0:
256,192,136947,1,0,0:0:0:0:
256,192,137092,1,8,0:0:0:0:
256,192,137382,1,8,0:0:0:0:
256,192,137527,1,0,0:0:0:0:
256,192,137672,1,8,0:0:0:0:
256,192,137817,1,8,0:0:0:0:
256,192,137961,1,0,0:0:0:0:
256,192,138251,1,8,0:0:0:0:
256,192,138396,1,0,0:0:0:0:
256,192,138469,1,0,0:0:0:0:
256,192,138541,1,0,0:0:0:0:
256,192,138686,1,0,0:0:0:0:
256,192,138831,1,8,0:0:0:0:
256,192,139121,1,0,0:0:0:0:
256,192,139266,1,0,0:0:0:0:
256,192,139411,1,8,0:0:0:0:
256,192,139556,1,8,0:0:0:0:
256,192,139628,1,8,0:0:0:0:
256,192,139701,1,0,0:0:0:0:
256,192,139846,1,0,0:0:0:0:
256,192,139990,1,8,0:0:0:0:
256,192,140280,1,0,0:0:0:0:
256,192,140570,1,8,0:0:0:0:
256,192,140715,1,0,0:0:0:0:
256,192,140788,1,0,0:0:0:0:
256,192,140860,1,0,0:0:0:0:
256,192,141005,1,0,0:0:0:0:
256,192,141150,1,8,0:0:0:0:
256,192,141295,1,8,0:0:0:0:
256,192,141367,1,8,0:0:0:0:
256,192,141440,1,8,0:0:0:0:
256,192,141585,1,8,0:0:0:0:
256,192,141730,1,8,0:0:0:0:
256,192,141875,1,0,0:0:0:0:
288,192,141947,1,0,0:0:0:0:
256,192,142019,1,0,0:0:0:0:
256,192,142164,1,0,0:0:0:0:
256,192,142309,1,0,0:0:0:0:
256,192,142454,1,0,0:0:0:0:
256,192,142599,5,4,0:0:0:0:
256,192,142889,1,8,0:0:0:0:
256,192,143034,1,0,0:0:0:0:
256,192,143106,1,0,0:0:0:0:
256,192,143179,1,0,0:0:0:0:
256,192,143324,1,8,0:0:0:0:
256,192,143469,1,8,0:0:0:0:
256,192,143614,1,0,0:0:0:0:
256,192,143686,1,0,0:0:0:0:
256,192,143759,1,8,0:0:0:0:
256,192,143904,1,0,0:0:0:0:
256,192,144048,1,8,0:0:0:0:
256,192,144193,1,8,0:0:0:0:
256,192,144266,1,8,0:0:0:0:
256,192,144338,1,0,0:0:0:0:
256,192,144411,1,0,0:0:0:0:
256,192,144483,1,0,0:0:0:0:
256,192,144628,1,8,0:0:0:0:
256,192,144773,1,0,0:0:0:0:
256,192,144918,1,8,0:0:0:0:
256,192,145208,1,8,0:0:0:0:
256,192,145353,1,0,0:0:0:0:
256,192,145425,1,0,0:0:0:0:
256,192,145498,1,0,0:0:0:0:
256,192,145643,1,8,0:0:0:0:
256,192,145788,1,0,0:0:0:0:
256,192,145932,1,8,0:0:0:0:
256,192,146005,1,8,0:0:0:0:
256,192,146077,1,8,0:0:0:0:
256,192,146222,1,0,0:0:0:0:
256,192,146367,1,8,0:0:0:0:
256,192,146512,1,8,0:0:0:0:
256,192,146585,1,8,0:0:0:0:
256,192,146657,1,0,0:0:0:0:
256,192,146802,1,0,0:0:0:0:
256,192,146947,1,8,0:0:0:0:
256,192,147092,1,8,0:0:0:0:
256,192,147237,1,0,0:0:0:0:
256,192,147527,1,8,0:0:0:0:
256,192,147672,1,0,0:0:0:0:
256,192,147744,1,0,0:0:0:0:
256,192,147817,1,8,0:0:0:0:
256,192,147961,1,0,0:0:0:0:
256,192,148106,1,8,0:0:0:0:
256,192,148251,1,0,0:0:0:0:
256,192,148324,1,0,0:0:0:0:
256,192,148396,1,0,0:0:0:0:
256,192,148541,1,0,0:0:0:0:
256,192,148686,1,8,0:0:0:0:
256,192,148831,1,0,0:0:0:0:
256,192,148904,1,0,0:0:0:0:
256,192,148976,1,8,0:0:0:0:
256,192,149048,1,8,0:0:0:0:
256,192,149121,1,0,0:0:0:0:
256,192,149266,1,8,0:0:0:0:
256,192,149411,1,8,0:0:0:0:
256,192,149556,1,0,0:0:0:0:
256,192,149846,1,8,0:0:0:0:
256,192,149990,1,0,0:0:0:0:
256,192,150063,1,0,0:0:0:0:
256,192,150135,1,0,0:0:0:0:
256,192,150280,1,0,0:0:0:0:
256,192,150425,1,8,0:0:0:0:
256,192,150498,1,0,0:0:0:0:
256,192,150570,1,8,0:0:0:0:
256,192,150643,1,8,0:0:0:0:
256,192,150715,1,0,0:0:0:0:
256,192,150788,1,0,0:0:0:0:
256,192,150860,1,8,0:0:0:0:
256,192,150932,1,0,0:0:0:0:
256,192,151005,1,8,0:0:0:0:
256,192,151150,1,8,0:0:0:0:
256,192,151295,1,0,0:0:0:0:
256,192,151367,1,0,0:0:0:0:
256,192,151440,1,0,0:0:0:0:
256,192,151585,1,8,0:0:0:0:
256,192,151730,1,0,0:0:0:0:
256,192,151875,1,12,0:0:0:0:
256,192,152164,1,8,0:0:0:0:
256,192,152309,1,0,0:0:0:0:
256,192,152382,1,0,0:0:0:0:
256,192,152454,1,0,0:0:0:0:
256,192,152599,1,8,0:0:0:0:
256,192,152744,1,8,0:0:0:0:
256,192,152889,1,0,0:0:0:0:
256,192,152961,1,0,0:0:0:0:
256,192,153034,1,8,0:0:0:0:
256,192,153179,1,0,0:0:0:0:
256,192,153324,1,8,0:0:0:0:
256,192,153469,1,0,0:0:0:0:
256,192,153614,1,0,0:0:0:0:
256,192,153686,1,0,0:0:0:0:
256,192,153759,1,0,0:0:0:0:
256,192,153831,1,0,0:0:0:0:
256,192,153904,1,8,0:0:0:0:
256,192,154048,1,0,0:0:0:0:
256,192,154193,1,8,0:0:0:0:
256,192,154483,1,8,0:0:0:0:
256,192,154628,1,0,0:0:0:0:
256,192,154701,1,0,0:0:0:0:
256,192,154773,1,0,0:0:0:0:
256,192,154918,1,8,0:0:0:0:
256,192,155063,1,0,0:0:0:0:
256,192,155208,1,8,0:0:0:0:
256,192,155280,1,0,0:0:0:0:
256,192,155353,1,8,0:0:0:0:
256,192,155498,1,0,0:0:0:0:
256,192,155643,1,8,0:0:0:0:
256,192,155788,1,0,0:0:0:0:
256,192,155860,1,0,0:0:0:0:
256,192,155932,1,0,0:0:0:0:
256,192,156077,1,0,0:0:0:0:
256,192,156222,1,12,0:0:0:0:
256,192,156512,1,4,0:0:0:0:
256,192,156802,1,8,0:0:0:0:
256,192,156947,1,0,0:0:0:0:
256,192,157019,1,0,0:0:0:0:
256,192,157092,1,0,0:0:0:0:
256,192,157237,1,0,0:0:0:0:
256,192,157382,1,8,0:0:0:0:
256,192,157527,1,8,0:0:0:0:
256,192,157672,1,0,0:0:0:0:
256,192,157817,1,0,0:0:0:0:
256,192,157889,1,0,0:0:0:0:
256,192,157961,1,8,0:0:0:0:
256,192,158106,1,0,0:0:0:0:
256,192,158396,1,0,0:0:0:0:
256,192,158541,1,8,0:0:0:0:
256,192,158686,1,0,0:0:0:0:
256,192,158831,1,4,0:0:0:0:
256,192,158976,1,0,0:0:0:0:
256,192,159048,1,0,0:0:0:0:
256,192,159121,1,8,0:0:0:0:
256,192,159266,1,0,0:0:0:0:
256,192,159411,1,8,0:0:0:0:
256,192,159483,1,8,0:0:0:0:
256,192,159556,1,0,0:0:0:0:
256,192,159628,1,0,0:0:0:0:
256,192,159701,1,8,0:0:0:0:
256,192,159773,1,8,0:0:0:0:
256,192,159846,1,0,0:0:0:0:
256,192,159990,1,0,0:0:0:0:
256,192,160135,1,8,0:0:0:0:
256,192,160208,1,0,0:0:0:0:
256,192,160280,1,8,0:0:0:0:
256,192,160425,1,0,0:0:0:0:
256,192,160498,1,0,0:0:0:0:
256,192,160570,1,0,0:0:0:0:
256,192,160715,1,0,0:0:0:0:
256,192,161005,1,4,0:0:0:0:
256,192,161295,1,0,0:0:0:0:
256,192,161440,1,8,0:0:0:0:
256,192,161585,1,0,0:0:0:0:
256,192,161730,1,8,0:0:0:0:
256,192,161875,1,0,0:0:0:0:
256,192,161947,1,0,0:0:0:0:
256,192,162019,1,8,0:0:0:0:
256,192,162164,1,0,0:0:0:0:
256,192,162454,1,0,0:0:0:0:
256,192,162599,1,8,0:0:0:0:
256,192,162744,1,0,0:0:0:0:
256,192,162817,1,0,0:0:0:0:
256,192,162889,1,0,0:0:0:0:
256,192,163034,1,0,0:0:0:0:
256,192,163179,1,8,0:0:0:0:
256,192,163324,1,0,0:0:0:0:
256,192,163614,1,0,0:0:0:0:
256,192,163759,1,8,0:0:0:0:
256,192,163904,1,0,0:0:0:0:
256,192,163976,1,0,0:0:0:0:
256,192,164048,1,8,0:0:0:0:
256,192,164193,1,0,0:0:0:0:
256,192,164338,1,8,0:0:0:0:
256,192,164483,1,0,0:0:0:0:
256,192,164556,1,0,0:0:0:0:
256,192,164628,1,0,0:0:0:0:
256,192,164773,1,8,0:0:0:0:
256,192,164846,1,0,0:0:0:0:
256,192,164918,1,8,0:0:0:0:
256,192,165063,1,0,0:0:0:0:
256,192,165135,1,0,0:0:0:0:
256,192,165208,1,8,0:0:0:0:
256,192,165280,1,8,0:0:0:0:
256,192,165353,1,0,0:0:0:0:
256,192,165498,1,8,0:0:0:0:
256,192,165643,1,0,0:0:0:0:
256,192,165932,1,0,0:0:0:0:
256,192,166077,1,8,0:0:0:0:
256,192,166222,1,0,0:0:0:0:
256,192,166367,1,8,0:0:0:0:
256,192,166512,1,0,0:0:0:0:
256,192,166585,1,0,0:0:0:0:
256,192,166657,1,8,0:0:0:0:
256,192,166802,1,0,0:0:0:0:
256,192,167092,1,0,0:0:0:0:
256,192,167237,1,8,0:0:0:0:
256,192,167382,1,0,0:0:0:0:
256,192,167454,1,0,0:0:0:0:
256,192,167527,1,0,0:0:0:0:
256,192,167672,1,0,0:0:0:0:
256,192,167817,1,8,0:0:0:0:
256,192,167961,1,0,0:0:0:0:
256,192,168251,1,0,0:0:0:0:
256,192,168396,1,8,0:0:0:0:
256,192,168541,1,0,0:0:0:0:
256,192,168614,1,0,0:0:0:0:
256,192,168686,1,0,0:0:0:0:
256,192,168831,1,0,0:0:0:0:
256,192,168976,1,8,0:0:0:0:
256,192,169121,1,0,0:0:0:0:
256,192,169193,1,0,0:0:0:0:
256,192,169266,1,8,0:0:0:0:
256,192,169411,1,0,0:0:0:0:
256,192,169556,1,8,0:0:0:0:
256,192,169701,1,8,0:0:0:0:
256,192,169773,1,8,0:0:0:0:
256,192,169846,1,0,0:0:0:0:
256,192,169918,1,0,0:0:0:0:
256,192,169990,1,8,0:0:0:0:
256,192,170063,1,0,0:0:0:0:
256,192,170135,1,8,0:0:0:0:
256,192,170280,1,12,0:0:0:0:
256,192,170570,1,0,0:0:0:0:
256,192,170715,1,12,0:0:0:0:
256,192,171875,1,8,0:0:0:0:
256,192,171947,1,8,0:0:0:0:
256,192,172019,1,0,0:0:0:0:
256,192,172092,1,0,0:0:0:0:
256,192,172164,1,8,0:0:0:0:
256,192,172237,1,0,0:0:0:0:
256,192,172309,1,0,0:0:0:0:
256,192,172382,1,0,0:0:0:0:
256,192,172454,1,0,0:0:0:0:
256,192,172599,1,12,0:0:0:0:
256,192,172889,1,0,0:0:0:0:
256,192,173034,1,12,0:0:0:0:
256,192,173904,1,8,0:0:0:0:
256,192,174000,1,8,0:0:0:0:
256,192,174097,1,0,0:0:0:0:
256,192,174193,1,8,0:0:0:0:
256,192,174290,1,0,0:0:0:0:
256,192,174387,1,0,0:0:0:0:
256,192,174483,1,0,0:0:0:0:
256,192,174628,1,0,0:0:0:0:
256,192,174773,1,8,0:0:0:0:
256,192,174918,1,4,0:0:0:0:
256,192,175208,1,0,0:0:0:0:
256,192,175353,1,8,0:0:0:0:
256,192,175498,1,0,0:0:0:0:
256,192,175643,1,8,0:0:0:0:
256,192,175932,1,8,0:0:0:0:
256,192,176077,1,0,0:0:0:0:
256,192,176367,1,0,0:0:0:0:
256,192,176512,1,8,0:0:0:0:
256,192,176657,1,0,0:0:0:0:
256,192,176730,1,0,0:0:0:0:
256,192,176802,1,0,0:0:0:0:
256,192,176947,1,0,0:0:0:0:
256,192,177092,1,8,0:0:0:0:
256,192,177237,1,0,0:0:0:0:
256,192,177527,1,0,0:0:0:0:
256,192,177672,1,8,0:0:0:0:
256,192,177817,1,0,0:0:0:0:
256,192,177961,1,0,0:0:0:0:
256,192,178251,1,8,0:0:0:0:
256,192,178396,1,0,0:0:0:0:
256,192,178686,1,0,0:0:0:0:
256,192,178759,1,0,0:0:0:0:
256,192,178831,1,8,0:0:0:0:
256,192,178976,1,0,0:0:0:0:
256,192,179121,1,8,0:0:0:0:
256,192,179266,1,8,0:0:0:0:
256,192,179338,1,8,0:0:0:0:
256,192,179411,1,8,0:0:0:0:
256,192,179556,1,4,0:0:0:0:
256,192,179846,1,0,0:0:0:0:
256,192,179990,1,8,0:0:0:0:
256,192,180135,1,0,0:0:0:0:
256,192,180280,1,8,0:0:0:0:
256,192,180570,1,8,0:0:0:0:
256,192,180715,1,0,0:0:0:0:
256,192,180788,1,0,0:0:0:0:
256,192,180860,1,0,0:0:0:0:
256,192,181005,1,8,0:0:0:0:
256,192,181150,1,0,0:0:0:0:
256,192,181440,1,0,0:0:0:0:
256,192,181585,1,8,0:0:0:0:
256,192,181875,1,0,0:0:0:0:
256,192,182164,1,8,0:0:0:0:
256,192,182309,1,0,0:0:0:0:
256,192,182382,1,0,0:0:0:0:
256,192,182454,1,0,0:0:0:0:
256,192,182599,1,0,0:0:0:0:
256,192,182744,1,8,0:0:0:0:
256,192,183034,1,0,0:0:0:0:
256,192,183179,1,8,0:0:0:0:
256,192,183324,1,8,0:0:0:0:
256,192,183469,1,0,0:0:0:0:
256,192,183759,1,8,0:0:0:0:
256,192,183904,1,0,0:0:0:0:
256,192,184193,1,12,0:0:0:0:
256,192,184773,1,0,0:0:0:0:
256,192,184918,1,8,0:0:0:0:
256,192,185353,1,0,0:0:0:0:
256,192,185425,1,0,0:0:0:0:
256,192,185498,1,0,0:0:0:0:
256,192,185643,1,8,0:0:0:0:
256,192,185788,1,0,0:0:0:0:
256,192,186077,1,12,0:0:0:0:
256,192,186367,1,0,0:0:0:0:
256,192,186657,1,8,0:0:0:0:
256,192,186730,1,8,0:0:0:0:
256,192,186802,1,0,0:0:0:0:
256,192,186875,1,0,0:0:0:0:
256,192,186947,1,8,0:0:0:0:
256,192,187019,1,0,0:0:0:0:
256,192,187092,1,0,0:0:0:0:
256,192,187164,1,0,0:0:0:0:
256,192,187237,1,8,0:0:0:0:
256,192,187309,1,0,0:0:0:0:
256,192,187382,1,8,0:0:0:0:
256,192,187454,1,8,0:0:0:0:
256,192,187527,1,0,0:0:0:0:
256,192,187672,1,12,0:0:0:0:
256,192,188976,5,4,0:0:0:0:
256,192,189266,1,0,0:0:0:0:
256,192,189411,1,0,0:0:0:0:
256,192,189556,1,8,0:0:0:0:
256,192,189701,1,0,0:0:0:0:
256,192,189990,1,0,0:0:0:0:
256,192,190280,1,0,0:0:0:0:
256,192,190425,1,0,0:0:0:0:
256,192,190570,1,0,0:0:0:0:
256,192,190715,1,8,0:0:0:0:
256,192,190860,1,0,0:0:0:0:
256,192,191295,1,0,0:0:0:0:
256,192,191585,1,0,0:0:0:0:
256,192,191730,1,0,0:0:0:0:
256,192,191875,1,8,0:0:0:0:
256,192,192164,1,0,0:0:0:0:
256,192,192309,1,0,0:0:0:0:
256,192,192599,1,0,0:0:0:0:
256,192,192744,1,0,0:0:0:0:
256,192,192889,1,0,0:0:0:0:
256,192,193034,1,8,0:0:0:0:
256,192,193179,1,0,0:0:0:0:
256,192,193469,1,0,0:0:0:0:
256,192,193614,1,0,0:0:0:0:
256,192,193904,1,0,0:0:0:0:
256,192,194048,1,0,0:0:0:0:
256,192,194193,1,8,0:0:0:0:
256,192,194338,1,0,0:0:0:0:
256,192,194628,1,0,0:0:0:0:
256,192,194918,1,0,0:0:0:0:
256,192,195063,1,0,0:0:0:0:
256,192,195208,1,0,0:0:0:0:
256,192,195353,1,8,0:0:0:0:
256,192,195498,1,0,0:0:0:0:
256,192,195932,1,0,0:0:0:0:
256,192,196222,1,0,0:0:0:0:
256,192,196367,1,0,0:0:0:0:
256,192,196512,1,8,0:0:0:0:
256,192,196802,1,8,0:0:0:0:
256,192,196947,1,0,0:0:0:0:
256,192,197092,1,0,0:0:0:0:
256,192,197237,1,0,0:0:0:0:
256,192,197382,1,8,0:0:0:0:
256,192,197527,1,0,0:0:0:0:
256,192,197599,1,0,0:0:0:0:
256,192,197672,1,8,0:0:0:0:
256,192,197744,1,8,0:0:0:0:
256,192,197817,1,0,0:0:0:0:
224,192,197889,1,0,0:0:0:0:
256,192,197961,1,8,0:0:0:0:
256,192,198106,1,4,0:0:0:0:
256,192,198396,1,0,0:0:0:0:
256,192,198469,1,0,0:0:0:0:
256,192,198541,1,8,0:0:0:0:
256,192,198686,1,0,0:0:0:0:
256,192,198759,1,0,0:0:0:0:
256,192,198831,1,8,0:0:0:0:
256,192,198976,1,0,0:0:0:0:
256,192,199266,1,0,0:0:0:0:
256,192,199411,1,8,0:0:0:0:
256,192,199556,1,0,0:0:0:0:
256,192,199628,1,0,0:0:0:0:
256,192,199701,1,8,0:0:0:0:
256,192,199846,1,0,0:0:0:0:
256,192,199918,1,0,0:0:0:0:
256,192,199990,1,8,0:0:0:0:
256,192,200135,1,0,0:0:0:0:
256,192,200280,1,8,0:0:0:0:
256,192,200425,1,4,0:0:0:0:
256,192,200715,1,0,0:0:0:0:
256,192,200788,1,0,0:0:0:0:
256,192,200860,1,8,0:0:0:0:
256,192,201005,1,0,0:0:0:0:
256,192,201077,1,0,0:0:0:0:
256,192,201150,1,8,0:0:0:0:
256,192,201295,1,0,0:0:0:0:
256,192,201585,1,0,0:0:0:0:
256,192,201657,1,0,0:0:0:0:
256,192,201730,1,8,0:0:0:0:
256,192,201875,1,0,0:0:0:0:
256,192,202019,1,8,0:0:0:0:
256,192,202164,1,0,0:0:0:0:
256,192,202237,1,0,0:0:0:0:
256,192,202309,1,8,0:0:0:0:
256,192,202454,1,8,0:0:0:0:
256,192,202599,1,8,0:0:0:0:
256,192,202744,1,4,0:0:0:0:
256,192,203034,1,0,0:0:0:0:
256,192,203106,1,0,0:0:0:0:
256,192,203179,1,8,0:0:0:0:
256,192,203324,1,0,0:0:0:0:
256,192,203396,1,0,0:0:0:0:
256,192,203469,1,8,0:0:0:0:
256,192,203614,1,0,0:0:0:0:
256,192,203904,1,0,0:0:0:0:
256,192,204048,1,8,0:0:0:0:
256,192,204193,1,0,0:0:0:0:
256,192,204266,1,0,0:0:0:0:
256,192,204338,1,8,0:0:0:0:
256,192,204483,1,0,0:0:0:0:
256,192,204556,1,0,0:0:0:0:
256,192,204628,1,0,0:0:0:0:
256,192,204773,1,0,0:0:0:0:
256,192,204918,1,8,0:0:0:0:
256,192,205063,1,4,0:0:0:0:
256,192,205353,1,0,0:0:0:0:
256,192,205425,1,0,0:0:0:0:
256,192,205498,1,8,0:0:0:0:
256,192,205788,1,0,0:0:0:0:
256,192,205860,1,0,0:0:0:0:
256,192,205932,1,8,0:0:0:0:
256,192,206222,1,0,0:0:0:0:
256,192,206295,1,0,0:0:0:0:
256,192,206367,1,8,0:0:0:0:
256,192,206512,1,8,0:0:0:0:
256,192,206657,1,8,0:0:0:0:
256,192,206802,1,12,0:0:0:0:
256,192,207527,1,4,0:0:0:0:
256,192,207817,1,8,0:0:0:0:
256,192,207961,1,8,0:0:0:0:
256,192,208106,1,0,0:0:0:0:
256,192,208179,1,8,0:0:0:0:
256,192,208251,1,0,0:0:0:0:
256,192,208396,1,8,0:0:0:0:
256,192,208541,1,8,0:0:0:0:
256,192,208614,1,8,0:0:0:0:
256,192,208686,1,0,0:0:0:0:
256,192,208831,1,0,0:0:0:0:
256,192,208976,1,8,0:0:0:0:
256,192,209121,1,0,0:0:0:0:
256,192,209193,1,0,0:0:0:0:
256,192,209266,1,8,0:0:0:0:
256,192,209338,1,0,0:0:0:0:
256,192,209411,1,0,0:0:0:0:
256,192,209556,1,8,0:0:0:0:
256,192,209701,1,8,0:0:0:0:
256,192,209846,1,0,0:0:0:0:
256,192,210135,1,8,0:0:0:0:
256,192,210280,1,0,0:0:0:0:
256,192,210425,1,0,0:0:0:0:
256,192,210498,1,0,0:0:0:0:
256,192,210570,1,8,0:0:0:0:
256,192,210715,1,8,0:0:0:0:
256,192,210860,1,0,0:0:0:0:
256,192,210932,1,0,0:0:0:0:
256,192,211005,1,0,0:0:0:0:
256,192,211150,1,0,0:0:0:0:
256,192,211295,1,8,0:0:0:0:
256,192,211440,1,0,0:0:0:0:
256,192,211512,1,0,0:0:0:0:
256,192,211585,1,8,0:0:0:0:
256,192,211730,1,0,0:0:0:0:
256,192,211875,1,8,0:0:0:0:
256,192,212019,1,8,0:0:0:0:
256,192,212164,1,0,0:0:0:0:
256,192,212454,1,8,0:0:0:0:
256,192,212599,1,0,0:0:0:0:
256,192,212744,1,0,0:0:0:0:
256,192,212817,1,0,0:0:0:0:
256,192,212889,1,0,0:0:0:0:
256,192,213034,1,8,0:0:0:0:
256,192,213179,1,8,0:0:0:0:
256,192,213251,1,8,0:0:0:0:
256,192,213324,1,0,0:0:0:0:
256,192,213469,1,0,0:0:0:0:
256,192,213614,1,8,0:0:0:0:
256,192,213759,1,0,0:0:0:0:
256,192,213831,1,0,0:0:0:0:
256,192,213904,1,8,0:0:0:0:
256,192,214048,1,0,0:0:0:0:
256,192,214193,1,8,0:0:0:0:
256,192,214338,1,8,0:0:0:0:
256,192,214411,1,8,0:0:0:0:
256,192,214483,1,0,0:0:0:0:
256,192,214628,1,0,0:0:0:0:
256,192,214701,1,0,0:0:0:0:
256,192,214773,1,8,0:0:0:0:
256,192,214918,1,0,0:0:0:0:
256,192,215208,1,0,0:0:0:0:
256,192,215353,1,8,0:0:0:0:
256,192,215643,1,0,0:0:0:0:
256,192,215788,1,0,0:0:0:0:
256,192,215932,1,8,0:0:0:0:
256,192,216077,1,0,0:0:0:0:
256,192,216150,1,0,0:0:0:0:
256,192,216222,1,8,0:0:0:0:
256,192,216295,1,8,0:0:0:0:
256,192,216367,1,0,0:0:0:0:
256,192,216512,1,8,0:0:0:0:
256,192,216802,1,4,0:0:0:0:
256,192,217092,1,8,0:0:0:0:
256,192,217237,1,8,0:0:0:0:
256,192,217309,1,8,0:0:0:0:
256,192,217382,1,0,0:0:0:0:
256,192,217527,1,0,0:0:0:0:
256,192,217672,1,8,0:0:0:0:
256,192,217817,1,0,0:0:0:0:
256,192,217889,1,0,0:0:0:0:
256,192,217961,1,0,0:0:0:0:
256,192,218106,1,0,0:0:0:0:
256,192,218251,1,8,0:0:0:0:
256,192,218541,1,8,0:0:0:0:
256,192,218686,1,0,0:0:0:0:
256,192,218831,1,8,0:0:0:0:
256,192,219121,1,4,0:0:0:0:
256,192,219411,1,8,0:0:0:0:
256,192,219556,1,0,0:0:0:0:
256,192,219628,1,0,0:0:0:0:
256,192,219701,1,0,0:0:0:0:
256,192,219846,1,0,0:0:0:0:
256,192,219990,1,8,0:0:0:0:
256,192,220135,1,8,0:0:0:0:
256,192,220208,1,8,0:0:0:0:
256,192,220280,1,0,0:0:0:0:
256,192,220425,1,0,0:0:0:0:
256,192,220570,1,8,0:0:0:0:
256,192,220860,1,0,0:0:0:0:
256,192,221005,1,0,0:0:0:0:
256,192,221150,1,8,0:0:0:0:
256,192,221440,1,0,0:0:0:0:
256,192,221730,1,8,0:0:0:0:
256,192,221875,1,0,0:0:0:0:
256,192,221947,1,0,0:0:0:0:
256,192,222019,1,0,0:0:0:0:
256,192,222164,1,0,0:0:0:0:
256,192,222309,1,8,0:0:0:0:
256,192,222599,1,0,0:0:0:0:
256,192,222744,1,0,0:0:0:0:
256,192,222889,1,8,0:0:0:0:
256,192,223034,1,0,0:0:0:0:
256,192,223106,1,0,0:0:0:0:
256,192,223179,1,8,0:0:0:0:
256,192,223324,1,0,0:0:0:0:
256,192,223469,1,8,0:0:0:0:
256,192,223614,1,8,0:0:0:0:
256,192,223759,1,0,0:0:0:0:
256,192,224048,1,8,0:0:0:0:
256,192,224193,1,0,0:0:0:0:
256,192,224266,1,0,0:0:0:0:
256,192,224338,1,0,0:0:0:0:
256,192,224483,1,0,0:0:0:0:
256,192,224628,1,8,0:0:0:0:
256,192,224773,1,8,0:0:0:0:
256,192,224846,1,8,0:0:0:0:
256,192,224918,1,8,0:0:0:0:
256,192,225063,1,8,0:0:0:0:
256,192,225208,1,8,0:0:0:0:
256,192,225353,1,0,0:0:0:0:
288,192,225425,1,0,0:0:0:0:
256,192,225498,1,0,0:0:0:0:
256,192,225643,1,0,0:0:0:0:
256,192,225788,1,0,0:0:0:0:
256,192,225932,1,0,0:0:0:0:
256,192,226077,1,4,0:0:0:0:
256,192,226367,1,8,0:0:0:0:
256,192,226512,1,8,0:0:0:0:
256,192,226585,1,8,0:0:0:0:
256,192,226657,1,0,0:0:0:0:
256,192,226802,1,0,0:0:0:0:
256,192,226947,1,8,0:0:0:0:
256,192,227092,1,0,0:0:0:0:
256,192,227164,1,0,0:0:0:0:
256,192,227237,1,0,0:0:0:0:
256,192,227382,1,0,0:0:0:0:
256,192,227527,1,8,0:0:0:0:
256,192,227672,1,0,0:0:0:0:
256,192,227744,1,0,0:0:0:0:
256,192,227817,1,8,0:0:0:0:
256,192,227889,1,0,0:0:0:0:
256,192,227961,1,0,0:0:0:0:
256,192,228106,1,8,0:0:0:0:
256,192,228251,1,8,0:0:0:0:
256,192,228324,1,8,0:0:0:0:
256,192,228396,1,0,0:0:0:0:
256,192,228686,1,8,0:0:0:0:
256,192,228831,1,0,0:0:0:0:
256,192,228904,1,0,0:0:0:0:
256,192,228976,1,0,0:0:0:0:
256,192,229121,1,0,0:0:0:0:
256,192,229266,1,8,0:0:0:0:
256,192,229411,1,0,0:0:0:0:
256,192,229483,1,0,0:0:0:0:
256,192,229556,1,8,0:0:0:0:
256,192,229701,1,0,0:0:0:0:
256,192,229846,1,8,0:0:0:0:
256,192,229918,1,8,0:0:0:0:
256,192,229990,1,0,0:0:0:0:
256,192,230063,1,0,0:0:0:0:
256,192,230135,1,8,0:0:0:0:
256,192,230280,1,0,0:0:0:0:
256,192,230425,1,8,0:0:0:0:
256,192,230570,1,0,0:0:0:0:
256,192,230715,1,0,0:0:0:0:
256,192,231005,1,8,0:0:0:0:
256,192,231295,1,0,0:0:0:0:
256,192,231440,1,0,0:0:0:0:
256,192,231585,1,8,0:0:0:0:
256,192,231875,1,0,0:0:0:0:
256,192,232164,1,8,0:0:0:0:
256,192,232309,1,0,0:0:0:0:
256,192,232454,1,8,0:0:0:0:
256,192,232599,1,0,0:0:0:0:
256,192,232672,1,0,0:0:0:0:
256,192,232744,1,8,0:0:0:0:
256,192,232889,1,8,0:0:0:0:
256,192,233034,1,0,0:0:0:0:
256,192,233179,1,0,0:0:0:0:
256,192,233251,1,0,0:0:0:0:
256,192,233324,1,8,0:0:0:0:
256,192,233469,1,0,0:0:0:0:
256,192,233759,1,0,0:0:0:0:
256,192,233904,1,8,0:0:0:0:
256,192,234048,1,8,0:0:0:0:
256,192,234193,1,0,0:0:0:0:
256,192,234338,1,8,0:0:0:0:
256,192,234411,1,8,0:0:0:0:
256,192,234483,1,8,0:0:0:0:
256,192,234628,1,8,0:0:0:0:
256,192,234773,1,0,0:0:0:0:
256,192,234846,1,0,0:0:0:0:
256,192,234918,1,0,0:0:0:0:
256,192,234990,1,0,0:0:0:0:
256,192,235063,1,8,0:0:0:0:
256,192,235208,1,8,0:0:0:0:
256,192,235353,1,4,0:0:0:0:
256,192,235643,1,8,0:0:0:0:
256,192,235788,1,8,0:0:0:0:
256,192,235860,1,8,0:0:0:0:
256,192,235932,1,0,0:0:0:0:
256,192,236077,1,0,0:0:0:0:
256,192,236222,1,8,0:0:0:0:
256,192,236367,1,0,0:0:0:0:
256,192,236440,1,0,0:0:0:0:
256,192,236512,1,0,0:0:0:0:
256,192,236657,1,0,0:0:0:0:
256,192,236802,1,8,0:0:0:0:
256,192,237092,1,8,0:0:0:0:
256,192,237237,1,0,0:0:0:0:
256,192,237382,1,8,0:0:0:0:
256,192,237672,1,0,0:0:0:0:
256,192,237961,1,8,0:0:0:0:
256,192,238106,1,0,0:0:0:0:
256,192,238179,1,0,0:0:0:0:
256,192,238251,1,0,0:0:0:0:
256,192,238396,1,8,0:0:0:0:
256,192,238541,1,8,0:0:0:0:
256,192,238686,1,4,0:0:0:0:
256,192,238976,1,0,0:0:0:0:
256,192,239121,1,8,0:0:0:0:
256,192,239266,1,0,0:0:0:0:
256,192,239338,1,0,0:0:0:0:
256,192,239411,1,0,0:0:0:0:
256,192,239556,1,0,0:0:0:0:
256,192,239701,1,8,0:0:0:0:
256,192,239990,1,4,0:0:0:0:
256,192,240280,1,8,0:0:0:0:
256,192,240425,1,0,0:0:0:0:
256,192,240498,1,0,0:0:0:0:
256,192,240570,1,0,0:0:0:0:
256,192,240715,1,0,0:0:0:0:
256,192,240860,1,8,0:0:0:0:
256,192,241005,1,8,0:0:0:0:
256,192,241077,1,8,0:0:0:0:
256,192,241150,1,0,0:0:0:0:
256,192,241295,1,0,0:0:0:0:
256,192,241440,1,8,0:0:0:0:
256,192,241585,1,0,0:0:0:0:
256,192,241875,1,0,0:0:0:0:
256,192,242019,1,8,0:0:0:0:
256,192,242309,5,4,0:0:0:0:
256,192,242454,1,0,0:0:0:0:
256,192,242527,1,0,0:0:0:0:
256,192,242599,1,8,0:0:0:0:
256,192,242672,1,8,0:0:0:0:
256,192,242744,1,0,0:0:0:0:
256,192,242889,1,8,0:0:0:0:
256,192,243034,1,0,0:0:0:0:
256,192,243106,1,0,0:0:0:0:
256,192,243179,1,0,0:0:0:0:
256,192,243324,1,12,0:0:0:0:
256,192,243614,1,8,0:0:0:0:
256,192,243759,1,8,0:0:0:0:
256,192,243904,1,0,0:0:0:0:
256,192,243976,1,0,0:0:0:0:
256,192,244048,1,8,0:0:0:0:
256,192,244193,1,8,0:0:0:0:
256,192,244338,1,0,0:0:0:0:
256,192,244483,1,8,0:0:0:0:
256,192,244556,1,0,0:0:0:0:
256,192,244628,1,8,0:0:0:0:
256,192,244701,1,8,0:0:0:0:
256,192,244773,1,0,0:0:0:0:
256,192,244918,1,8,0:0:0:0:
256,192,245063,1,0,0:0:0:0:
256,192,245135,1,0,0:0:0:0:
256,192,245208,1,8,0:0:0:0:
256,192,245353,1,8,0:0:0:0:
256,192,245425,1,8,0:0:0:0:
256,192,245498,1,0,0:0:0:0:
256,192,245643,1,12,0:0:0:0:
256,192,245932,1,0,0:0:0:0:
256,192,246005,1,0,0:0:0:0:
256,192,246077,1,8,0:0:0:0:
256,192,246222,1,0,0:0:0:0:
256,192,246512,1,0,0:0:0:0:
256,192,246585,1,0,0:0:0:0:
256,192,246657,1,8,0:0:0:0:
256,192,246802,1,0,0:0:0:0:
256,192,247092,1,0,0:0:0:0:
256,192,247164,1,0,0:0:0:0:
256,192,247237,1,8,0:0:0:0:
256,192,247382,1,0,0:0:0:0:
256,192,247672,1,0,0:0:0:0:
256,192,247744,1,0,0:0:0:0:
256,192,247817,1,8,0:0:0:0:
256,192,247961,1,0,0:0:0:0:
256,192,248251,1,0,0:0:0:0:
256,192,248324,1,0,0:0:0:0:
256,192,248396,1,8,0:0:0:0:
256,192,248541,1,0,0:0:0:0:
256,192,248831,1,0,0:0:0:0:
256,192,248904,1,0,0:0:0:0:
256,192,248976,1,8,0:0:0:0:
256,192,249121,1,0,0:0:0:0:
256,192,249411,1,0,0:0:0:0:
256,192,249483,1,0,0:0:0:0:
256,192,249556,1,8,0:0:0:0:
256,192,249701,1,0,0:0:0:0:
256,192,249846,1,8,0:0:0:0:
256,192,249918,1,0,0:0:0:0:
256,192,249990,1,0,0:0:0:0:
256,192,250135,1,8,0:0:0:0:
256,192,250280,1,0,0:0:0:0:
256,192,250570,1,0,0:0:0:0:
256,192,250643,1,0,0:0:0:0:
256,192,250715,1,8,0:0:0:0:
256,192,250860,1,0,0:0:0:0:
256,192,251150,1,0,0:0:0:0:
256,192,251222,1,0,0:0:0:0:
256,192,251295,1,8,0:0:0:0:
256,192,251440,1,0,0:0:0:0:
256,192,251730,1,0,0:0:0:0:
256,192,251802,1,0,0:0:0:0:
256,192,251875,1,8,0:0:0:0:
256,192,252019,1,0,0:0:0:0:
256,192,252309,1,0,0:0:0:0:
256,192,252382,1,0,0:0:0:0:
256,192,252454,1,8,0:0:0:0:
256,192,252599,1,0,0:0:0:0:
256,192,252889,1,0,0:0:0:0:
256,192,252961,1,0,0:0:0:0:
256,192,253034,1,8,0:0:0:0:
256,192,253179,1,0,0:0:0:0:
256,192,253469,1,0,0:0:0:0:
256,192,253541,1,0,0:0:0:0:
256,192,253614,1,8,0:0:0:0:
256,192,253759,1,0,0:0:0:0:
256,192,254048,1,0,0:0:0:0:
256,192,254121,1,0,0:0:0:0:
256,192,254193,1,8,0:0:0:0:
256,192,254338,1,0,0:0:0:0:
256,192,254483,1,8,0:0:0:0:
256,192,254556,1,8,0:0:0:0:
256,192,254628,1,0,0:0:0:0:
256,192,254773,1,8,0:0:0:0:
256,192,254918,1,4,0:0:0:0:
256,192,255208,1,0,0:0:0:0:
256,192,255280,1,0,0:0:0:0:
256,192,255353,1,0,0:0:0:0:
256,192,255425,1,0,0:0:0:0:
256,192,255498,1,0,0:0:0:0:
256,192,255643,1,8,0:0:0:0:
256,192,255788,1,0,0:0:0:0:
256,192,255860,1,0,0:0:0:0:
256,192,255932,1,0,0:0:0:0:
256,192,256005,1,0,0:0:0:0:
256,192,256077,1,0,0:0:0:0:
256,192,256367,1,0,0:0:0:0:
256,192,256440,1,0,0:0:0:0:
256,192,256512,1,0,0:0:0:0:
256,192,256585,1,0,0:0:0:0:
256,192,256657,1,0,0:0:0:0:
256,192,256802,1,8,0:0:0:0:
256,192,256947,1,0,0:0:0:0:
256,192,257019,1,0,0:0:0:0:
256,192,257092,1,0,0:0:0:0:
256,192,257164,1,0,0:0:0:0:
256,192,257237,1,0,0:0:0:0:
256,192,257527,1,0,0:0:0:0:
256,192,257599,1,0,0:0:0:0:
256,192,257672,1,0,0:0:0:0:
256,192,257744,1,0,0:0:0:0:
256,192,257817,1,0,0:0:0:0:
256,192,257961,1,8,0:0:0:0:
256,192,258106,1,0,0:0:0:0:
256,192,258179,1,0,0:0:0:0:
256,192,258251,1,0,0:0:0:0:
256,192,258324,1,0,0:0:0:0:
256,192,258396,1,0,0:0:0:0:
256,192,258686,1,0,0:0:0:0:
256,192,258759,1,0,0:0:0:0:
256,192,258831,1,0,0:0:0:0:
256,192,258904,1,0,0:0:0:0:
256,192,258976,1,0,0:0:0:0:
256,192,259121,1,8,0:0:0:0:
256,192,259266,1,0,0:0:0:0:
256,192,259338,1,0,0:0:0:0:
256,192,259411,1,8,0:0:0:0:
256,192,259556,1,4,0:0:0:0:
256,192,259846,1,0,0:0:0:0:
256,192,259918,1,0,0:0:0:0:
256,192,259990,1,0,0:0:0:0:
256,192,260063,1,0,0:0:0:0:
256,192,260135,1,0,0:0:0:0:
256,192,260280,1,8,0:0:0:0:
256,192,260425,1,0,0:0:0:0:
256,192,260498,1,0,0:0:0:0:
256,192,260570,1,0,0:0:0:0:
256,192,260643,1,0,0:0:0:0:
256,192,260715,1,0,0:0:0:0:
256,192,261005,1,0,0:0:0:0:
256,192,261077,1,0,0:0:0:0:
256,192,261150,1,0,0:0:0:0:
256,192,261222,1,0,0:0:0:0:
256,192,261295,1,0,0:0:0:0:
256,192,261440,1,8,0:0:0:0:
256,192,261585,1,0,0:0:0:0:
256,192,261657,1,0,0:0:0:0:
256,192,261730,1,0,0:0:0:0:
256,192,261802,1,0,0:0:0:0:
256,192,261875,1,0,0:0:0:0:
256,192,262164,1,0,0:0:0:0:
256,192,262237,1,0,0:0:0:0:
256,192,262309,1,0,0:0:0:0:
256,192,262382,1,0,0:0:0:0:
256,192,262454,1,0,0:0:0:0:
256,192,262599,1,8,0:0:0:0:
256,192,262744,1,0,0:0:0:0:
256,192,262817,1,0,0:0:0:0:
256,192,262889,1,0,0:0:0:0:
256,192,262961,1,0,0:0:0:0:
256,192,263034,1,0,0:0:0:0:
256,192,263179,1,8,0:0:0:0:
256,192,263324,1,0,0:0:0:0:
256,192,263396,1,0,0:0:0:0:
256,192,263469,1,8,0:0:0:0:
256,192,263614,1,8,0:0:0:0:
256,192,263759,1,0,0:0:0:0:
256,192,263904,1,0,0:0:0:0:
256,192,264048,1,0,0:0:0:0:
256,192,264193,1,4,0:0:0:0:
256,192,264338,12,0,265353,0:0:0:0:
256,192,265498,5,8,0:0:0:0:
256,192,265570,1,0,0:0:0:0:
256,192,265643,1,8,0:0:0:0:
256,192,265715,1,8,0:0:0:0:
256,192,265788,1,0,0:0:0:0:
256,192,265860,1,0,0:0:0:0:
256,192,265932,1,8,0:0:0:0:
256,192,266005,1,0,0:0:0:0:
256,192,266077,1,8,0:0:0:0:
256,192,266150,1,8,0:0:0:0:
256,192,266222,1,0,0:0:0:0:
256,192,266295,1,0,0:0:0:0:
256,192,266367,1,8,0:0:0:0:
256,192,266512,1,4,0:0:0:0:
256,192,266657,1,0,0:0:0:0:
256,192,266730,1,0,0:0:0:0:
256,192,266802,1,8,0:0:0:0:
256,192,266875,1,0,0:0:0:0:
256,192,266947,1,8,0:0:0:0:
256,192,267019,1,8,0:0:0:0:
256,192,267092,1,0,0:0:0:0:
256,192,267164,1,0,0:0:0:0:
256,192,267237,1,8,0:0:0:0:
256,192,267309,1,0,0:0:0:0:
256,192,267382,1,8,0:0:0:0:
256,192,267454,1,0,0:0:0:0:
256,192,267527,1,8,0:0:0:0:
256,192,267599,1,8,0:0:0:0:
256,192,267672,1,0,0:0:0:0:
256,192,267744,1,0,0:0:0:0:
256,192,267817,1,0,0:0:0:0:
256,192,267889,1,0,0:0:0:0:
256,192,267961,1,8,0:0:0:0:
256,192,268034,1,0,0:0:0:0:
256,192,268106,1,8,0:0:0:0:
256,192,268179,1,8,0:0:0:0:
256,192,268251,1,0,0:0:0:0:
256,192,268324,1,0,0:0:0:0:
256,192,268396,1,8,0:0:0:0:
256,192,268469,1,0,0:0:0:0:
256,192,268541,1,8,0:0:0:0:
256,192,268614,1,0,0:0:0:0:
256,192,268686,1,8,0:0:0:0:
256,192,268759,1,8,0:0:0:0:
256,192,268831,1,0,0:0:0:0:
256,192,268904,1,0,0:0:0:0:
256,192,268976,1,0,0:0:0:0:
256,192,269048,1,0,0:0:0:0:
256,192,269121,1,8,0:0:0:0:
256,192,269193,1,0,0:0:0:0:
256,192,269266,1,8,0:0:0:0:
256,192,269338,1,8,0:0:0:0:
256,192,269411,1,0,0:0:0:0:
256,192,269483,1,0,0:0:0:0:
256,192,269556,1,8,0:0:0:0:
256,192,269628,1,0,0:0:0:0:
256,192,269701,1,8,0:0:0:0:
256,192,269773,1,0,0:0:0:0:
256,192,269846,1,8,0:0:0:0:
256,192,269918,1,8,0:0:0:0:
256,192,269990,1,8,0:0:0:0:
256,192,270063,1,0,0:0:0:0:
256,192,270135,1,8,0:0:0:0:
256,192,270208,1,8,0:0:0:0:
256,192,270280,1,0,0:0:0:0:
256,192,270353,1,0,0:0:0:0:
256,192,270425,1,8,0:0:0:0:
256,192,270498,1,0,0:0:0:0:
256,192,270570,1,8,0:0:0:0:
256,192,270643,1,0,0:0:0:0:
256,192,270715,1,8,0:0:0:0:
256,192,270788,1,8,0:0:0:0:
256,192,270860,1,0,0:0:0:0:
256,192,270932,1,0,0:0:0:0:
256,192,271005,1,8,0:0:0:0:
256,192,271150,1,12,0:0:0:0:
256,192,271440,1,0,0:0:0:0:
256,192,271585,1,8,0:0:0:0:
256,192,271730,1,0,0:0:0:0:
256,192,271802,1,0,0:0:0:0:
256,192,271875,1,0,0:0:0:0:
256,192,272019,1,0,0:0:0:0:
256,192,272164,1,8,0:0:0:0:
256,192,272309,1,0,0:0:0:0:
256,192,272599,1,0,0:0:0:0:
256,192,272744,1,8,0:0:0:0:
256,192,272889,1,0,0:0:0:0:
256,192,272961,1,0,0:0:0:0:
256,192,273034,1,0,0:0:0:0:
256,192,273179,1,8,0:0:0:0:
256,192,273324,1,8,0:0:0:0:
256,192,273469,1,0,0:0:0:0:
256,192,273541,1,8,0:0:0:0:
256,192,273614,1,0,0:0:0:0:
256,192,273759,1,8,0:0:0:0:
256,192,273831,1,0,0:0:0:0:
256,192,273904,1,8,0:0:0:0:
256,192,273976,1,8,0:0:0:0:
256,192,274048,1,0,0:0:0:0:
256,192,274193,1,0,0:0:0:0:
256,192,274338,1,0,0:0:0:0:
256,192,274411,1,0,0:0:0:0:
256,192,274483,1,8,0:0:0:0:
256,192,274628,1,0,0:0:0:0:
256,192,274918,1,8,0:0:0:0:
256,192,275063,1,0,0:0:0:0:
256,192,275135,1,0,0:0:0:0:
256,192,275208,1,8,0:0:0:0:
256,192,275353,1,0,0:0:0:0:
256,192,275498,1,8,0:0:0:0:
256,192,275570,1,8,0:0:0:0:
256,192,275643,1,0,0:0:0:0:
256,192,275788,1,4,0:0:0:0:
256,192,276077,1,0,0:0:0:0:
256,192,276150,1,0,0:0:0:0:
256,192,276222,1,8,0:0:0:0:
256,192,276295,1,8,0:0:0:0:
256,192,276367,1,0,0:0:0:0:
256,192,276440,1,0,0:0:0:0:
256,192,276512,1,8,0:0:0:0:
256,192,276585,1,0,0:0:0:0:
256,192,276657,1,8,0:0:0:0:
256,192,276730,1,0,0:0:0:0:
256,192,276802,1,8,0:0:0:0:
256,192,276875,1,8,0:0:0:0:
256,192,276947,1,0,0:0:0:0:
256,192,277019,1,0,0:0:0:0:
256,192,277092,1,8,0:0:0:0:
256,192,277164,1,0,0:0:0:0:
256,192,277237,1,0,0:0:0:0:
256,192,277309,1,0,0:0:0:0:
256,192,277382,1,8,0:0:0:0:
256,192,277454,1,0,0:0:0:0:
256,192,277527,1,8,0:0:0:0:
256,192,277599,1,0,0:0:0:0:
256,192,277672,1,8,0:0:0:0:
256,192,277744,1,8,0:0:0:0:
256,192,277817,1,0,0:0:0:0:
256,192,277889,1,0,0:0:0:0:
256,192,277961,1,8,0:0:0:0:
256,192,278034,1,0,0:0:0:0:
256,192,278106,1,8,0:0:0:0:
256,192,278179,1,8,0:0:0:0:
256,192,278251,1,0,0:0:0:0:
256,192,278396,1,8,0:0:0:0:
256,192,278469,1,0,0:0:0:0:
256,192,278541,1,8,0:0:0:0:
256,192,278614,1,8,0:0:0:0:
256,192,278686,1,0,0:0:0:0:
256,192,278759,1,8,0:0:0:0:
256,192,278831,1,0,0:0:0:0:
256,192,278976,1,0,0:0:0:0:
256,192,279121,1,8,0:0:0:0:
256,192,279193,1,0,0:0:0:0:
256,192,279266,1,8,0:0:0:0:
256,192,279338,1,8,0:0:0:0:
256,192,279411,1,0,0:0:0:0:
256,192,279556,1,0,0:0:0:0:
256,192,279628,1,0,0:0:0:0:
256,192,279701,1,8,0:0:0:0:
256,192,279773,1,8,0:0:0:0:
256,192,279846,1,0,0:0:0:0:
256,192,279990,1,8,0:0:0:0:
256,192,280135,1,0,0:0:0:0:
256,192,280208,1,0,0:0:0:0:
256,192,280280,1,8,0:0:0:0:
256,192,280425,1,4,0:0:0:0:
256,192,280715,1,0,0:0:0:0:
256,192,280860,1,8,0:0:0:0:
256,192,281005,1,0,0:0:0:0:
256,192,281150,1,0,0:0:0:0:
256,192,281295,1,0,0:0:0:0:
256,192,281367,1,0,0:0:0:0:
256,192,281440,1,8,0:0:0:0:
256,192,281512,1,8,0:0:0:0:
256,192,281585,1,0,0:0:0:0:
256,192,281875,1,0,0:0:0:0:
256,192,282019,1,8,0:0:0:0:
256,192,282164,1,0,0:0:0:0:
256,192,282309,1,0,0:0:0:0:
256,192,282454,1,0,0:0:0:0:
256,192,282527,1,0,0:0:0:0:
256,192,282599,1,8,0:0:0:0:
256,192,282744,1,4,0:0:0:0:
256,192,282889,1,8,0:0:0:0:
256,192,282961,1,8,0:0:0:0:
256,192,283034,1,0,0:0:0:0:
256,192,283179,1,8,0:0:0:0:
256,192,283324,1,0,0:0:0:0:
256,192,283396,1,0,0:0:0:0:
256,192,283469,1,0,0:0:0:0:
256,192,283614,1,0,0:0:0:0:
256,192,283759,1,8,0:0:0:0:
256,192,283904,1,8,0:0:0:0:
256,192,283976,1,8,0:0:0:0:
256,192,284048,1,0,0:0:0:0:
256,192,284193,1,8,0:0:0:0:
256,192,284338,1,0,0:0:0:0:
256,192,284411,1,0,0:0:0:0:
256,192,284483,1,8,0:0:0:0:
256,192,284556,1,8,0:0:0:0:
256,192,284628,1,0,0:0:0:0:
256,192,284701,1,8,0:0:0:0:
256,192,284773,1,0,0:0:0:0:
256,192,284846,1,0,0:0:0:0:
256,192,284918,1,8,0:0:0:0:
256,192,284990,1,0,0:0:0:0:
256,192,285063,1,8,0:0:0:0:
256,192,285208,5,12,0:0:0:0:
256,192,285353,1,0,0:0:0:0:
256,192,285425,1,0,0:0:0:0:
256,192,285498,1,8,0:0:0:0:
256,192,285643,1,0,0:0:0:0:
256,192,285788,1,8,0:0:0:0:
256,192,285860,1,8,0:0:0:0:
256,192,285932,1,0,0:0:0:0:
256,192,286005,1,0,0:0:0:0:
256,192,286077,1,8,0:0:0:0:
256,192,286222,1,0,0:0:0:0:
256,192,286295,1,0,0:0:0:0:
256,192,286367,1,8,0:0:0:0:
256,192,286440,1,8,0:0:0:0:
256,192,286512,1,0,0:0:0:0:
256,192,286585,1,0,0:0:0:0:
256,192,286657,1,8,0:0:0:0:
256,192,286802,1,0,0:0:0:0:
256,192,286947,1,8,0:0:0:0:
256,192,287019,1,8,0:0:0:0:
256,192,287092,1,0,0:0:0:0:
256,192,287164,1,0,0:0:0:0:
256,192,287237,1,8,0:0:0:0:
256,192,287309,1,0,0:0:0:0:
256,192,287382,1,8,0:0:0:0:
256,192,287454,1,8,0:0:0:0:
256,192,287527,1,0,0:0:0:0:
256,192,287672,1,0,0:0:0:0:
256,192,287744,1,0,0:0:0:0:
256,192,287817,1,8,0:0:0:0:
256,192,287961,1,0,0:0:0:0:
256,192,288034,1,0,0:0:0:0:
256,192,288106,1,8,0:0:0:0:
256,192,288179,1,8,0:0:0:0:
256,192,288251,1,0,0:0:0:0:
256,192,288324,1,0,0:0:0:0:
256,192,288396,1,8,0:0:0:0:
224,192,288541,1,0,0:0:0:0:
256,192,288614,1,0,0:0:0:0:
256,192,288686,1,8,0:0:0:0:
256,192,288759,1,8,0:0:0:0:
256,192,288831,1,0,0:0:0:0:
256,192,288976,1,8,0:0:0:0:
224,192,289121,1,0,0:0:0:0:
224,192,289193,1,0,0:0:0:0:
224,192,289266,1,8,0:0:0:0:
224,192,289411,1,0,0:0:0:0:
224,192,289556,1,8,0:0:0:0:
224,192,289628,1,0,0:0:0:0:
224,192,289701,1,8,0:0:0:0:
224,192,289773,1,8,0:0:0:0:
224,192,289846,1,0,0:0:0:0:
224,192,289990,1,0,0:0:0:0:
224,192,290063,1,0,0:0:0:0:
224,192,290135,1,8,0:0:0:0:
224,192,290280,1,0,0:0:0:0:
224,192,290353,1,0,0:0:0:0:
224,192,290425,1,8,0:0:0:0:
224,192,290498,1,0,0:0:0:0:
224,192,290570,1,0,0:0:0:0:
224,192,290643,1,0,0:0:0:0:
224,192,290715,1,8,0:0:0:0:
224,192,290860,1,0,0:0:0:0:
224,192,290932,1,0,0:0:0:0:
224,192,291005,1,8,0:0:0:0:
224,192,291077,1,8,0:0:0:0:
224,192,291150,1,0,0:0:0:0:
224,192,291222,1,0,0:0:0:0:
224,192,291295,1,8,0:0:0:0:
224,192,291367,1,0,0:0:0:0:
224,192,291440,1,0,0:0:0:0:
224,192,291512,1,0,0:0:0:0:
224,192,291585,1,8,0:0:0:0:
224,192,291730,1,0,0:0:0:0:
224,192,291802,1,0,0:0:0:0:
224,192,291875,1,8,0:0:0:0:
224,192,291947,1,0,0:0:0:0:
224,192,292019,1,8,0:0:0:0:
224,192,292092,1,8,0:0:0:0:
224,192,292164,1,0,0:0:0:0:
224,192,292309,1,0,0:0:0:0:
224,192,292382,1,0,0:0:0:0:
224,192,292454,1,8,0:0:0:0:
224,192,292599,1,0,0:0:0:0:
224,192,292672,1,0,0:0:0:0:
224,192,292744,1,8,0:0:0:0:
224,192,292817,1,0,0:0:0:0:
224,192,292889,1,0,0:0:0:0:
224,192,292961,1,0,0:0:0:0:
256,192,293034,5,8,0:0:0:0:
224,192,293179,1,0,0:0:0:0:
224,192,293251,1,0,0:0:0:0:
256,192,293324,1,8,0:0:0:0:
256,192,293396,1,0,0:0:0:0:
256,192,293469,1,0,0:0:0:0:
256,192,293541,1,0,0:0:0:0:
256,192,293614,1,8,0:0:0:0:
256,192,293686,1,0,0:0:0:0:
256,192,293759,1,0,0:0:0:0:
256,192,293831,1,0,0:0:0:0:
256,192,293904,1,8,0:0:0:0:
256,192,293976,1,8,0:0:0:0:
256,192,294048,1,0,0:0:0:0:
256,192,294121,1,0,0:0:0:0:
256,192,294193,1,8,0:0:0:0:
256,192,294338,1,12,0:0:0:0:
256,192,294628,1,8,0:0:0:0:
256,192,294701,1,0,0:0:0:0:
256,192,294773,1,8,0:0:0:0:
256,192,294918,1,0,0:0:0:0:
256,192,294990,1,0,0:0:0:0:
256,192,295063,1,8,0:0:0:0:
256,192,295208,1,8,0:0:0:0:
256,192,295353,1,0,0:0:0:0:
256,192,295425,1,0,0:0:0:0:
256,192,295498,1,8,0:0:0:0:
256,192,295643,1,8,0:0:0:0:
256,192,295788,1,0,0:0:0:0:
256,192,295860,1,0,0:0:0:0:
256,192,295932,1,8,0:0:0:0:
256,192,296077,1,8,0:0:0:0:
256,192,296222,1,0,0:0:0:0:
256,192,296295,1,0,0:0:0:0:
256,192,296367,1,8,0:0:0:0:
256,192,296440,1,0,0:0:0:0:
256,192,296512,1,8,0:0:0:0:
256,192,296657,1,12,0:0:0:0:
256,192,296947,1,0,0:0:0:0:
256,192,297019,1,0,0:0:0:0:
256,192,297092,1,8,0:0:0:0:
256,192,297237,1,0,0:0:0:0:
256,192,297309,1,0,0:0:0:0:
256,192,297382,1,0,0:0:0:0:
256,192,297527,1,0,0:0:0:0:
256,192,297672,1,8,0:0:0:0:
256,192,297817,1,12,0:0:0:0:
256,192,298106,1,0,0:0:0:0:
256,192,298251,1,8,0:0:0:0:
256,192,298396,1,0,0:0:0:0:
256,192,298469,1,0,0:0:0:0:
256,192,298541,1,8,0:0:0:0:
256,192,298686,1,8,0:0:0:0:
256,192,298831,1,8,0:0:0:0:
256,192,298976,1,4,0:0:0:0:
256,192,299266,1,0,0:0:0:0:
256,192,299411,1,8,0:0:0:0:
256,192,299556,1,0,0:0:0:0:
256,192,299628,1,0,0:0:0:0:
256,192,299701,1,0,0:0:0:0:
256,192,299846,1,0,0:0:0:0:
256,192,299990,1,8,0:0:0:0:
256,192,300135,1,8,0:0:0:0:
256,192,300425,1,0,0:0:0:0:
256,192,300570,1,8,0:0:0:0:
256,192,300715,1,8,0:0:0:0:
256,192,300788,1,8,0:0:0:0:
256,192,300860,1,0,0:0:0:0:
256,192,301005,1,0,0:0:0:0:
256,192,301150,1,8,0:0:0:0:
256,192,301295,1,8,0:0:0:0:
256,192,301585,1,0,0:0:0:0:
256,192,301730,1,8,0:0:0:0:
256,192,301875,1,0,0:0:0:0:
256,192,301947,1,0,0:0:0:0:
256,192,302019,1,8,0:0:0:0:
256,192,302164,1,0,0:0:0:0:
256,192,302309,1,8,0:0:0:0:
256,192,302454,1,8,0:0:0:0:
256,192,302744,1,8,0:0:0:0:
256,192,302889,1,8,0:0:0:0:
256,192,303034,1,0,0:0:0:0:
256,192,303106,1,0,0:0:0:0:
256,192,303179,1,0,0:0:0:0:
256,192,303324,1,8,0:0:0:0:
256,192,303469,1,8,0:0:0:0:
256,192,303614,1,4,0:0:0:0:
256,192,303904,1,0,0:0:0:0:
256,192,304048,1,8,0:0:0:0:
256,192,304338,1,0,0:0:0:0:
256,192,304483,1,0,0:0:0:0:
256,192,304628,1,8,0:0:0:0:
256,192,304773,1,0,0:0:0:0:
256,192,305063,1,0,0:0:0:0:
256,192,305208,1,8,0:0:0:0:
256,192,305498,1,8,0:0:0:0:
256,192,305643,1,0,0:0:0:0:
256,192,305788,1,8,0:0:0:0:
256,192,305932,1,8,0:0:0:0:
256,192,306077,1,0,0:0:0:0:
256,192,306150,1,8,0:0:0:0:
256,192,306222,1,0,0:0:0:0:
256,192,306295,1,0,0:0:0:0:
256,192,306367,1,8,0:0:0:0:
256,192,306512,1,0,0:0:0:0:
256,192,306657,1,0,0:0:0:0:
256,192,306850,1,8,0:0:0:0:
256,192,307044,1,8,0:0:0:0:
256,192,307237,1,0,0:0:0:0:
256,192,307382,1,0,0:0:0:0:
256,192,307527,1,8,0:0:0:0:
256,192,307672,1,0,0:0:0:0:
256,192,307744,1,8,0:0:0:0:
256,192,307817,1,0,0:0:0:0:
256,192,307961,1,8,0:0:0:0:
256,192,308106,1,8,0:0:0:0:
256,192,308251,1,4,0:0:0:0:
256,192,308541,1,0,0:0:0:0:
256,192,308686,1,8,0:0:0:0:
256,192,308831,1,8,0:0:0:0:
256,192,308904,1,8,0:0:0:0:
256,192,308976,1,0,0:0:0:0:
256,192,309121,1,0,0:0:0:0:
256,192,309266,1,8,0:0:0:0:
256,192,309411,1,0,0:0:0:0:
256,192,309701,1,0,0:0:0:0:
256,192,309846,1,8,0:0:0:0:
256,192,310135,1,0,0:0:0:0:
256,192,310280,1,0,0:0:0:0:
256,192,310425,1,8,0:0:0:0:
256,224,310570,1,8,0:0:0:0:
256,192,310715,1,12,0:0:0:0:
256,192,310860,1,0,0:0:0:0:
256,192,310932,1,0,0:0:0:0:
256,192,311005,1,0,0:0:0:0:
256,192,311150,1,12,0:0:0:0:
256,192,311295,1,0,0:0:0:0:
256,192,311367,1,0,0:0:0:0:
256,192,311440,1,0,0:0:0:0:
256,192,311585,1,8,0:0:0:0:
256,192,311730,1,12,0:0:0:0:
256,192,312019,1,12,0:0:0:0:
256,192,313034,1,8,0:0:0:0:
256,192,315353,1,8,0:0:0:0:
256,192,317672,1,8,0:0:0:0:
256,192,318831,1,8,0:0:0:0:
256,192,319411,1,8,0:0:0:0:
256,192,319701,1,8,0:0:0:0:
256,192,319990,1,8,0:0:0:0:
256,192,322309,1,8,0:0:0:0:
256,192,324628,1,8,0:0:0:0:
256,192,326367,1,8,0:0:0:0:
256,192,326947,1,8,0:0:0:0:
256,192,328106,1,8,0:0:0:0:
256,192,328686,1,8,0:0:0:0:
256,192,329266,1,8,0:0:0:0:
256,192,330280,1,0,0:0:0:0:
256,192,330425,1,12,0:0:0:0:
256,192,330643,1,12,0:0:0:0:
256,192,330860,1,12,0:0:0:0:
256,192,331585,1,4,0:0:0:0:
256,192,331875,1,8,0:0:0:0:
256,192,332019,1,8,0:0:0:0:
256,192,332164,1,0,0:0:0:0:
256,192,332237,1,0,0:0:0:0:
256,192,332309,1,8,0:0:0:0:
256,192,332454,1,8,0:0:0:0:
256,192,332599,1,0,0:0:0:0:
256,192,332672,1,0,0:0:0:0:
256,192,332744,1,0,0:0:0:0:
256,192,332889,1,0,0:0:0:0:
256,192,333034,1,8,0:0:0:0:
256,192,333179,1,0,0:0:0:0:
256,192,333251,1,0,0:0:0:0:
256,192,333324,1,8,0:0:0:0:
256,192,333396,1,0,0:0:0:0:
256,192,333469,1,0,0:0:0:0:
256,192,333614,1,8,0:0:0:0:
256,192,333759,1,8,0:0:0:0:
256,192,333904,1,0,0:0:0:0:
256,192,333976,1,0,0:0:0:0:
256,192,334048,1,0,0:0:0:0:
256,192,334193,1,8,0:0:0:0:
256,192,334338,1,8,0:0:0:0:
256,192,334411,1,8,0:0:0:0:
256,192,334483,1,0,0:0:0:0:
256,192,334628,1,8,0:0:0:0:
256,192,334773,1,8,0:0:0:0:
256,192,334918,1,0,0:0:0:0:
256,192,334990,1,0,0:0:0:0:
256,192,335063,1,0,0:0:0:0:
256,192,335208,1,0,0:0:0:0:
256,192,335353,1,8,0:0:0:0:
256,192,335498,1,0,0:0:0:0:
256,192,335570,1,0,0:0:0:0:
256,192,335643,1,8,0:0:0:0:
256,192,335715,1,8,0:0:0:0:
256,192,335788,1,0,0:0:0:0:
256,192,335860,1,0,0:0:0:0:
256,192,335932,1,8,0:0:0:0:
256,192,336077,1,8,0:0:0:0:
256,192,336222,1,0,0:0:0:0:
256,192,336512,1,8,0:0:0:0:
256,192,336657,1,0,0:0:0:0:
256,192,336802,1,0,0:0:0:0:
256,192,336875,1,0,0:0:0:0:
256,192,336947,1,0,0:0:0:0:
256,192,337092,1,8,0:0:0:0:
256,192,337237,1,8,0:0:0:0:
256,192,337382,1,0,0:0:0:0:
256,192,337454,1,0,0:0:0:0:
256,192,337527,1,0,0:0:0:0:
256,192,337672,1,8,0:0:0:0:
256,192,337817,1,0,0:0:0:0:
256,192,337889,1,0,0:0:0:0:
256,192,337961,1,8,0:0:0:0:
256,192,338034,1,8,0:0:0:0:
256,192,338106,1,0,0:0:0:0:
256,192,338251,1,8,0:0:0:0:
256,192,338396,1,8,0:0:0:0:
256,192,338469,1,8,0:0:0:0:
256,192,338541,1,0,0:0:0:0:
256,192,338686,1,0,0:0:0:0:
256,192,338759,1,0,0:0:0:0:
256,192,338831,1,8,0:0:0:0:
256,192,338976,1,0,0:0:0:0:
256,192,339266,1,0,0:0:0:0:
256,192,339411,1,8,0:0:0:0:
256,192,339556,1,0,0:0:0:0:
256,192,339628,1,0,0:0:0:0:
256,192,339701,1,0,0:0:0:0:
256,192,339846,1,0,0:0:0:0:
256,192,339990,1,8,0:0:0:0:
256,192,340135,1,0,0:0:0:0:
256,192,340208,1,0,0:0:0:0:
256,192,340280,1,8,0:0:0:0:
256,192,340353,1,8,0:0:0:0:
256,192,340425,1,0,0:0:0:0:
256,192,340570,1,12,0:0:0:0:
256,192,340860,1,4,0:0:0:0:
256,192,341150,1,8,0:0:0:0:
256,192,341295,1,0,0:0:0:0:
256,192,341367,1,0,0:0:0:0:
256,192,341440,1,8,0:0:0:0:
256,192,341585,1,0,0:0:0:0:
256,192,341730,1,8,0:0:0:0:
256,192,341875,1,8,0:0:0:0:
256,192,341947,1,8,0:0:0:0:
256,192,342019,1,0,0:0:0:0:
256,192,342164,1,0,0:0:0:0:
256,192,342309,1,8,0:0:0:0:
256,192,342599,1,0,0:0:0:0:
256,192,342744,1,0,0:0:0:0:
256,192,342889,1,8,0:0:0:0:
256,192,343179,1,4,0:0:0:0:
256,192,343469,1,8,0:0:0:0:
256,192,343614,1,8,0:0:0:0:
256,192,343686,1,8,0:0:0:0:
256,192,343759,1,0,0:0:0:0:
256,192,343904,1,0,0:0:0:0:
256,192,344048,1,8,0:0:0:0:
256,192,344193,1,0,0:0:0:0:
256,192,344266,1,0,0:0:0:0:
256,192,344338,1,0,0:0:0:0:
256,192,344483,1,0,0:0:0:0:
256,192,344628,1,8,0:0:0:0:
256,192,344918,1,8,0:0:0:0:
256,192,345063,1,0,0:0:0:0:
256,192,345208,1,8,0:0:0:0:
256,192,345353,1,8,0:0:0:0:
256,192,345498,1,0,0:0:0:0:
256,192,345788,1,8,0:0:0:0:
256,192,346077,1,0,0:0:0:0:
256,192,346222,1,0,0:0:0:0:
256,192,346367,1,8,0:0:0:0:
256,192,346512,1,0,0:0:0:0:
256,192,346657,1,0,0:0:0:0:
256,192,346730,1,0,0:0:0:0:
256,192,346802,1,0,0:0:0:0:
256,192,346947,1,8,0:0:0:0:
256,192,347092,1,0,0:0:0:0:
256,192,347164,1,0,0:0:0:0:
256,192,347237,1,8,0:0:0:0:
256,192,347309,1,8,0:0:0:0:
256,192,347382,1,0,0:0:0:0:
256,192,347527,1,8,0:0:0:0:
256,192,347672,1,8,0:0:0:0:
256,192,347817,1,4,0:0:0:0:
256,192,348106,1,8,0:0:0:0:
256,192,348251,1,0,0:0:0:0:
256,192,348396,1,0,0:0:0:0:
256,192,348469,1,0,0:0:0:0:
256,192,348541,1,0,0:0:0:0:
256,192,348686,1,8,0:0:0:0:
256,192,348831,1,0,0:0:0:0:
256,192,348976,1,12,0:0:0:0:
256,192,349193,1,12,0:0:0:0:
256,192,349411,1,12,0:0:0:0:
256,192,349556,1,0,0:0:0:0:
256,192,349628,1,0,0:0:0:0:
256,192,349701,1,0,0:0:0:0:
256,192,349846,1,8,0:0:0:0:
256,192,349990,1,8,0:0:0:0:
256,192,350135,5,4,0:0:0:0:
256,192,350425,1,8,0:0:0:0:
256,192,350570,1,0,0:0:0:0:
256,192,350643,1,0,0:0:0:0:
256,192,350715,1,0,0:0:0:0:
256,192,350860,1,8,0:0:0:0:
256,192,351005,1,8,0:0:0:0:
256,192,351150,1,0,0:0:0:0:
256,192,351222,1,0,0:0:0:0:
256,192,351295,1,8,0:0:0:0:
256,192,351440,1,0,0:0:0:0:
256,192,351585,1,8,0:0:0:0:
256,192,351730,1,8,0:0:0:0:
256,192,351802,1,8,0:0:0:0:
256,192,351875,1,0,0:0:0:0:
256,192,351947,1,0,0:0:0:0:
256,192,352019,1,0,0:0:0:0:
256,192,352164,1,8,0:0:0:0:
256,192,352309,1,0,0:0:0:0:
256,192,352382,1,0,0:0:0:0:
256,192,352454,1,8,0:0:0:0:
256,192,352599,1,0,0:0:0:0:
256,192,352744,1,8,0:0:0:0:
256,192,352889,1,0,0:0:0:0:
256,192,352961,1,0,0:0:0:0:
256,192,353034,1,0,0:0:0:0:
256,192,353179,1,8,0:0:0:0:
256,192,353324,1,0,0:0:0:0:
256,192,353469,1,8,0:0:0:0:
256,192,353541,1,8,0:0:0:0:
256,192,353614,1,8,0:0:0:0:
256,192,353759,1,0,0:0:0:0:
256,192,353904,1,8,0:0:0:0:
256,192,354048,1,8,0:0:0:0:
256,192,354121,1,8,0:0:0:0:
256,192,354193,1,0,0:0:0:0:
256,192,354266,1,8,0:0:0:0:
256,192,354338,1,0,0:0:0:0:
256,192,354411,1,0,0:0:0:0:
256,192,354483,1,8,0:0:0:0:
256,192,354628,1,8,0:0:0:0:
256,192,354773,1,0,0:0:0:0:
256,192,355063,1,8,0:0:0:0:
256,192,355208,1,0,0:0:0:0:
256,192,355280,1,0,0:0:0:0:
256,192,355353,1,8,0:0:0:0:
256,192,355498,1,0,0:0:0:0:
256,192,355643,1,8,0:0:0:0:
256,192,355788,1,0,0:0:0:0:
256,192,355860,1,0,0:0:0:0:
256,192,355932,1,0,0:0:0:0:
256,192,356077,1,0,0:0:0:0:
256,192,356222,1,8,0:0:0:0:
256,192,356367,1,0,0:0:0:0:
256,192,356440,1,0,0:0:0:0:
256,192,356512,1,8,0:0:0:0:
256,192,356585,1,8,0:0:0:0:
256,192,356657,1,0,0:0:0:0:
256,192,356802,1,8,0:0:0:0:
256,192,356947,1,8,0:0:0:0:
256,192,357092,1,0,0:0:0:0:
256,192,357382,1,8,0:0:0:0:
256,192,357527,1,0,0:0:0:0:
256,192,357599,1,0,0:0:0:0:
256,192,357672,1,0,0:0:0:0:
256,192,357817,1,0,0:0:0:0:
256,192,357961,1,8,0:0:0:0:
256,192,358106,1,0,0:0:0:0:
256,192,358251,1,0,0:0:0:0:
256,192,358396,1,8,0:0:0:0:
256,192,358469,1,8,0:0:0:0:
256,192,358541,1,0,0:0:0:0:
256,192,358614,1,0,0:0:0:0:
256,192,358686,1,8,0:0:0:0:
256,192,358759,1,8,0:0:0:0:
256,192,358831,1,0,0:0:0:0:
256,192,358904,1,0,0:0:0:0:
256,192,358976,1,0,0:0:0:0:
256,192,359048,1,0,0:0:0:0:
256,192,359121,1,8,0:0:0:0:
256,192,359193,1,8,0:0:0:0:
256,192,359266,1,8,0:0:0:0:
256,192,359411,1,4,0:0:0:0:
256,192,359701,1,8,0:0:0:0:
256,192,359846,1,0,0:0:0:0:
256,192,359918,1,0,0:0:0:0:
256,192,359990,1,0,0:0:0:0:
256,192,360135,1,8,0:0:0:0:
256,192,360280,1,8,0:0:0:0:
256,192,360425,1,0,0:0:0:0:
256,192,360498,1,0,0:0:0:0:
256,192,360570,1,8,0:0:0:0:
256,192,360715,1,0,0:0:0:0:
256,192,360860,1,8,0:0:0:0:
256,192,361005,1,0,0:0:0:0:
256,192,361150,1,0,0:0:0:0:
256,192,361222,1,0,0:0:0:0:
256,192,361295,1,0,0:0:0:0:
256,192,361367,1,0,0:0:0:0:
256,192,361440,1,8,0:0:0:0:
256,192,361585,1,0,0:0:0:0:
256,192,361730,1,8,0:0:0:0:
256,192,361802,1,8,0:0:0:0:
256,192,361875,1,0,0:0:0:0:
256,192,362019,1,8,0:0:0:0:
256,192,362164,1,0,0:0:0:0:
256,192,362237,1,0,0:0:0:0:
256,192,362309,1,0,0:0:0:0:
256,192,362454,1,8,0:0:0:0:
256,192,362599,1,0,0:0:0:0:
256,192,362744,1,12,0:0:0:0:
256,192,363034,1,0,0:0:0:0:
256,192,363179,1,8,0:0:0:0:
256,192,363251,1,8,0:0:0:0:
256,192,363324,1,0,0:0:0:0:
256,192,363396,1,0,0:0:0:0:
256,192,363469,1,0,0:0:0:0:
256,192,363614,1,0,0:0:0:0:
256,192,363759,1,12,0:0:0:0:
256,192,364048,1,4,0:0:0:0:
256,192,364338,1,8,0:0:0:0:
256,192,364483,1,0,0:0:0:0:
256,192,364556,1,0,0:0:0:0:
256,192,364628,1,0,0:0:0:0:
256,192,364773,1,0,0:0:0:0:
256,192,364918,1,8,0:0:0:0:
256,192,365063,1,8,0:0:0:0:
256,192,365208,1,0,0:0:0:0:
256,192,365353,1,0,0:0:0:0:
256,192,365425,1,0,0:0:0:0:
256,192,365498,1,8,0:0:0:0:
256,192,365643,1,0,0:0:0:0:
256,192,365932,1,0,0:0:0:0:
256,192,366077,1,8,0:0:0:0:
256,192,366222,1,0,0:0:0:0:
256,192,366367,1,4,0:0:0:0:
256,192,366512,1,0,0:0:0:0:
256,192,366585,1,0,0:0:0:0:
256,192,366657,1,8,0:0:0:0:
256,192,366802,1,0,0:0:0:0:
256,192,366947,1,8,0:0:0:0:
256,192,367019,1,8,0:0:0:0:
256,192,367092,1,0,0:0:0:0:
256,192,367164,1,0,0:0:0:0:
256,192,367237,1,8,0:0:0:0:
256,192,367382,1,0,0:0:0:0:
256,192,367454,1,8,0:0:0:0:
256,192,367527,1,0,0:0:0:0:
256,192,367672,1,0,0:0:0:0:
256,192,367744,1,0,0:0:0:0:
256,192,367817,1,8,0:0:0:0:
256,192,367961,1,0,0:0:0:0:
256,192,368034,1,0,0:0:0:0:
256,192,368106,1,8,0:0:0:0:
256,192,368179,1,0,0:0:0:0:
256,192,368251,1,8,0:0:0:0:
256,192,368324,1,8,0:0:0:0:
256,192,368396,1,0,0:0:0:0:
256,192,368469,1,0,0:0:0:0:
256,192,368541,1,8,0:0:0:0:
256,192,368686,1,4,0:0:0:0:
256,192,368976,1,8,0:0:0:0:
256,192,369121,1,0,0:0:0:0:
256,192,369193,1,0,0:0:0:0:
256,192,369266,1,0,0:0:0:0:
256,192,369411,1,0,0:0:0:0:
256,192,369556,1,8,0:0:0:0:
256,192,369701,1,8,0:0:0:0:
256,192,369773,1,8,0:0:0:0:
256,192,369846,1,0,0:0:0:0:
256,192,369990,1,0,0:0:0:0:
256,192,370135,1,8,0:0:0:0:
256,192,370280,1,0,0:0:0:0:
256,192,370570,1,0,0:0:0:0:
256,192,370715,1,8,0:0:0:0:
256,192,370860,1,0,0:0:0:0:
256,192,370932,1,0,0:0:0:0:
256,192,371005,1,8,0:0:0:0:
256,192,371150,1,0,0:0:0:0:
256,192,371295,1,8,0:0:0:0:
256,192,371440,1,0,0:0:0:0:
256,192,371512,1,8,0:0:0:0:
256,192,371585,1,0,0:0:0:0:
256,192,371730,1,0,0:0:0:0:
256,192,371802,1,0,0:0:0:0:
256,192,371875,1,8,0:0:0:0:
256,192,371947,1,8,0:0:0:0:
256,192,372019,1,0,0:0:0:0:
256,192,372092,1,0,0:0:0:0:
256,192,372164,1,8,0:0:0:0:
256,192,372309,1,0,0:0:0:0:
256,192,372382,1,0,0:0:0:0:
256,192,372454,1,8,0:0:0:0:
256,192,372599,1,8,0:0:0:0:
256,192,372672,1,8,0:0:0:0:
256,192,372744,1,0,0:0:0:0:
256,192,372817,1,0,0:0:0:0:
256,192,372889,1,0,0:0:0:0:
256,192,372961,1,0,0:0:0:0:
256,192,373034,1,8,0:0:0:0:
256,192,373106,1,0,0:0:0:0:
256,192,373179,1,8,0:0:0:0:
256,192,373324,1,4,0:0:0:0:
256,192,373469,1,0,0:0:0:0:
256,192,373614,1,8,0:0:0:0:
256,192,373759,1,0,0:0:0:0:
256,192,373831,1,0,0:0:0:0:
256,192,373904,1,0,0:0:0:0:
256,192,374048,1,0,0:0:0:0:
256,192,374193,1,8,0:0:0:0:
256,192,374338,1,0,0:0:0:0:
256,192,374411,1,0,0:0:0:0:
256,192,374483,1,0,0:0:0:0:
256,192,374628,1,0,0:0:0:0:
256,192,374773,1,8,0:0:0:0:
256,192,374918,1,0,0:0:0:0:
256,192,374990,1,0,0:0:0:0:
256,192,375063,1,0,0:0:0:0:
256,192,375208,1,0,0:0:0:0:
256,192,375280,1,0,0:0:0:0:
256,192,375353,1,8,0:0:0:0:
256,192,375498,1,8,0:0:0:0:
256,192,375643,1,0,0:0:0:0:
256,192,375715,1,0,0:0:0:0:
256,192,375788,1,0,0:0:0:0:
256,192,375860,1,0,0:0:0:0:
256,192,375932,1,8,0:0:0:0:
256,192,376005,1,8,0:0:0:0:
256,192,376077,1,0,0:0:0:0:
256,192,376222,1,4,0:0:0:0:
256,192,376367,1,4,0:0:0:0:
256,192,376512,1,4,0:0:0:0:
256,192,376657,1,4,0:0:0:0:
256,192,377382,1,8,0:0:0:0:
256,192,377817,1,4,0:0:0:0:
256,192,378106,1,0,0:0:0:0:
256,192,378251,1,8,0:0:0:0:
256,192,378396,1,0,0:0:0:0:
256,192,378541,1,8,0:0:0:0:
256,192,378686,1,0,0:0:0:0:
256,192,378759,1,0,0:0:0:0:
256,192,378831,1,8,0:0:0:0:
256,192,378976,1,0,0:0:0:0:
256,192,379266,1,0,0:0:0:0:
256,192,379411,1,8,0:0:0:0:
256,192,379556,1,0,0:0:0:0:
256,192,379628,1,0,0:0:0:0:
256,192,379701,1,0,0:0:0:0:
256,192,379846,1,0,0:0:0:0:
256,192,379990,1,8,0:0:0:0:
256,192,380135,1,0,0:0:0:0:
256,192,380425,1,0,0:0:0:0:
256,192,380570,1,8,0:0:0:0:
256,192,380715,1,0,0:0:0:0:
256,192,380788,1,0,0:0:0:0:
256,192,380860,1,8,0:0:0:0:
256,192,381005,1,0,0:0:0:0:
256,192,381150,1,8,0:0:0:0:
256,192,381295,1,8,0:0:0:0:
256,192,381367,1,8,0:0:0:0:
256,192,381440,1,0,0:0:0:0:
256,192,381585,1,0,0:0:0:0:
256,192,381730,1,8,0:0:0:0:
256,192,381875,1,0,0:0:0:0:
256,192,381947,1,0,0:0:0:0:
256,192,382019,1,0,0:0:0:0:
256,192,382164,1,0,0:0:0:0:
256,192,382309,1,8,0:0:0:0:
256,192,382454,1,4,0:0:0:0:
256,192,382744,1,0,0:0:0:0:
256,192,382889,1,8,0:0:0:0:
256,192,383034,1,0,0:0:0:0:
256,192,383179,1,8,0:0:0:0:
256,192,383324,1,0,0:0:0:0:
256,192,383396,1,0,0:0:0:0:
256,192,383469,1,8,0:0:0:0:
256,192,383614,1,0,0:0:0:0:
256,192,383904,1,0,0:0:0:0:
256,192,384048,1,8,0:0:0:0:
256,192,384193,1,0,0:0:0:0:
256,192,384266,1,0,0:0:0:0:
256,192,384338,1,0,0:0:0:0:
256,192,384483,1,0,0:0:0:0:
256,192,384628,1,8,0:0:0:0:
256,192,384773,1,0,0:0:0:0:
256,192,385063,1,0,0:0:0:0:
256,192,385208,1,8,0:0:0:0:
256,192,385353,1,0,0:0:0:0:
256,192,385425,1,0,0:0:0:0:
256,192,385498,1,8,0:0:0:0:
256,192,385643,1,0,0:0:0:0:
256,192,385788,1,12,0:0:0:0:
256,192,385932,1,0,0:0:0:0:
256,192,386005,1,0,0:0:0:0:
256,192,386077,1,0,0:0:0:0:
256,192,386222,1,8,0:0:0:0:
256,192,386295,1,0,0:0:0:0:
256,192,386367,1,8,0:0:0:0:
256,192,386440,1,8,0:0:0:0:
256,192,386512,1,0,0:0:0:0:
256,192,386657,1,8,0:0:0:0:
256,192,386730,1,8,0:0:0:0:
256,192,386802,1,0,0:0:0:0:
256,192,386875,1,0,0:0:0:0:
256,192,386947,1,0,0:0:0:0:
256,192,387092,1,4,0:0:0:0:
256,192,387382,1,0,0:0:0:0:
256,192,387454,1,0,0:0:0:0:
256,192,387527,1,8,0:0:0:0:
256,192,387672,1,0,0:0:0:0:
256,192,387744,1,0,0:0:0:0:
256,192,387817,1,8,0:0:0:0:
256,192,387961,1,0,0:0:0:0:
256,192,388106,1,8,0:0:0:0:
256,192,388251,1,0,0:0:0:0:
256,192,388324,1,0,0:0:0:0:
256,192,388396,1,8,0:0:0:0:
256,192,388541,1,0,0:0:0:0:
256,192,388614,1,0,0:0:0:0:
256,192,388686,1,8,0:0:0:0:
256,192,388831,1,0,0:0:0:0:
256,192,388976,1,8,0:0:0:0:
256,192,389048,1,8,0:0:0:0:
256,192,389121,1,0,0:0:0:0:
256,192,389193,1,0,0:0:0:0:
256,192,389266,1,8,0:0:0:0:
256,192,389411,1,0,0:0:0:0:
256,192,389556,1,8,0:0:0:0:
256,192,389701,1,0,0:0:0:0:
256,192,389773,1,0,0:0:0:0:
256,192,389846,1,8,0:0:0:0:
256,192,389990,1,0,0:0:0:0:
256,192,390063,1,0,0:0:0:0:
256,192,390135,1,8,0:0:0:0:
256,192,390280,1,0,0:0:0:0:
256,192,390425,1,8,0:0:0:0:
256,192,390570,1,0,0:0:0:0:
256,192,390643,1,0,0:0:0:0:
256,192,390715,1,8,0:0:0:0:
256,192,390860,1,0,0:0:0:0:
256,192,390932,1,0,0:0:0:0:
256,192,391005,1,8,0:0:0:0:
256,192,391150,1,0,0:0:0:0:
256,192,391295,1,8,0:0:0:0:
256,192,391367,1,8,0:0:0:0:
256,192,391440,1,0,0:0:0:0:
256,192,391512,1,0,0:0:0:0:
256,192,391585,1,8,0:0:0:0:
256,192,391730,1,4,0:0:0:0:
256,192,392019,1,0,0:0:0:0:
256,192,392092,1,0,0:0:0:0:
256,192,392164,1,8,0:0:0:0:
256,192,392309,1,0,0:0:0:0:
256,192,392382,1,0,0:0:0:0:
256,192,392454,1,8,0:0:0:0:
256,192,392599,1,0,0:0:0:0:
256,192,392744,1,8,0:0:0:0:
256,192,392889,1,0,0:0:0:0:
256,192,392961,1,0,0:0:0:0:
256,192,393034,1,8,0:0:0:0:
256,192,393179,1,0,0:0:0:0:
256,192,393251,1,0,0:0:0:0:
256,192,393324,1,8,0:0:0:0:
256,192,393469,1,0,0:0:0:0:
256,192,393614,1,8,0:0:0:0:
256,192,393686,1,8,0:0:0:0:
256,192,393759,1,0,0:0:0:0:
256,192,393831,1,0,0:0:0:0:
256,192,393904,1,8,0:0:0:0:
256,192,394048,1,4,0:0:0:0:
256,192,394338,1,0,0:0:0:0:
256,192,394411,1,0,0:0:0:0:
256,192,394483,1,8,0:0:0:0:
256,192,394628,1,0,0:0:0:0:
256,192,394701,1,0,0:0:0:0:
256,192,394773,1,8,0:0:0:0:
256,192,394918,1,0,0:0:0:0:
256,192,395063,1,12,0:0:0:0:
256,192,395208,1,0,0:0:0:0:
256,192,395353,1,8,0:0:0:0:
256,192,395425,1,0,0:0:0:0:
256,192,395498,1,8,0:0:0:0:
256,192,395570,1,8,0:0:0:0:
256,192,395643,1,0,0:0:0:0:
256,192,395715,1,0,0:0:0:0:
256,192,395788,1,8,0:0:0:0:
256,192,395860,1,8,0:0:0:0:
256,192,395932,1,0,0:0:0:0:
256,192,396005,1,0,0:0:0:0:
256,192,396077,1,0,0:0:0:0:
256,192,396150,1,0,0:0:0:0:
256,192,396222,1,8,0:0:0:0:
256,192,396295,1,8,0:0:0:0:
256,192,396367,1,0,0:0:0:0:
256,192,396512,1,4,0:0:0:0:
256,192,396657,12,0,410135,0:0:0:0:
