osu file format v11

[General]
AudioFilename: e363cb00ee47.mp3
AudioLeadIn: 3000
PreviewTime: 219341
Countdown: 0
SampleSet: Soft
StackLeniency: 0.7
Mode: 0
LetterboxInBreaks: 1
EpilepsyWarning: 1

[Editor]
DistanceSpacing: 2
BeatDivisor: 4
GridSize: 8

[Metadata]
Title:The Statement of Disorder
TitleUnicode:The Statement of Disorder
Artist:Dyprax ft. MC Tha Watcher
ArtistUnicode:Dyprax ft. MC Tha Watcher
Creator:VY1 Mizki
Version:Insane
Source:
Tags:
BeatmapID:210603
BeatmapSetID:74071

[Difficulty]
HPDrainRate:9
CircleSize:4
OverallDifficulty:10
ApproachRate:10
SliderMultiplier:1.4
SliderTickRate:4

[Events]
//Background and Video events
0,0,"Konachan.com - 68409 aki_shizuha animal_ears group hat katana kuromiya leaves long_hair red_eyes ribbons short_hair sword tail thighhighs touhou weapon white_hair wolfgirl.jpg"
//Break Periods
2,154998,168234
//Storyboard Layer 0 (Background)
//Storyboard Layer 1 (Fail)
//Storyboard Layer 2 (Pass)
//Storyboard Layer 3 (Foreground)
//Storyboard Sound Samples
//Background Colour Transformations
3,100,0,0,0

[TimingPoints]
1370.42495549157,342.857142857143,4,2,0,100,1,0

[HitObjects]
296,232,341,1,0,0:0:0
152,128,684,1,0,0:0:0
336,96,1027,2,0,P|480:48,1,140
352,312,1713,1,0,0:0:0
104,40,2056,1,0,0:0:0
416,264,2398,2,0,P|384:248|384:248|408:248,1,35
80,168,2741,2,0,P|232:112,1,140
248,344,3427,5,0,0:0:0
368,64,3770,1,0,0:0:0
104,168,4113,1,0,0:0:0
416,128,4456,1,0,0:0:0
104,256,4798,2,0,P|80:200|120:120,1,140
448,296,5484,1,0,0:0:0
176,344,5827,5,0,0:0:0
408,200,6170,1,0,0:0:0
128,192,6513,1,0,0:0:0
400,112,6856,2,0,P|432:96,1,35
280,240,7198,2,0,P|248:224,1,35
360,40,7541,1,0,0:0:0
192,264,7884,5,0,0:0:0
360,40,8227,2,0,P|440:40|480:112,1,140
320,312,8913,2,0,P|240:320|184:264,1,140
384,72,9598,2,0,P|368:240|272:336,1,280
264,256,10370,1,0,0:0:0
128,152,10970,2,0,P|168:136,1,35
328,272,11313,2,0,P|280:296,1,35
424,120,11656,5,0,0:0:0
296,192,11998,1,8,0:0:0
56,336,12341,2,0,P|56:264|56:240|56:240|72:256|72:256|56:232,1,140
328,320,13027,2,0,P|368:288|352:256,2,70
144,104,13713,2,0,P|104:136,1,35
328,120,14056,2,0,P|360:144,1,35
184,264,14398,2,0,P|160:232,1,35
368,272,14741,2,0,P|392:240,1,35
208,136,15084,5,0,0:0:0
472,40,15427,1,8,0:0:0
424,320,15770,1,0,0:0:0
288,280,15941,2,0,P|264:240|208:240,1,105
232,176,16284,1,0,0:0:0
96,144,16456,1,0,0:0:0
368,104,16798,1,8,0:0:0
88,64,17141,5,0,0:0:0
368,40,17484,1,8,0:0:0
144,208,17827,1,0,0:0:0
408,296,18170,2,0,P|440:320,1,35
304,152,18513,2,0,P|328:112,1,35
248,320,18856,2,0,P|208:288,1,35
400,184,19198,5,0,0:0:0
280,248,19370,1,0,0:0:0
48,88,19713,1,0,0:0:0
184,96,19884,1,0,0:0:0
320,112,20056,1,0,0:0:0
456,152,20227,1,8,0:0:0
184,216,20570,1,0,0:0:0
304,144,20741,1,0,0:0:0
224,256,20913,1,8,0:0:0
240,120,21084,1,0,0:0:0
288,248,21256,1,0,0:0:0
128,304,21941,1,0,0:0:0
368,64,22284,1,8,0:0:0
328,304,22627,1,0,0:0:0
80,112,22970,1,8,0:0:0
416,256,23313,1,0,0:0:0
472,48,23656,1,8,0:0:0
64,296,23998,6,0,P|80:248,1,35
48,48,24684,5,0,0:0:0
272,208,25027,1,0,0:0:0
464,40,25370,1,0,0:0:0
232,208,25713,1,0,0:0:0
40,336,26056,1,0,0:0:0
272,184,26398,1,0,0:0:0
360,232,26741,5,0,0:0:0
416,192,26827,1,0,0:0:0
432,120,26913,1,0,0:0:0
296,56,27084,1,0,0:0:0
296,56,27256,1,0,0:0:0
144,32,27427,1,0,0:0:0
352,328,27770,1,0,0:0:0
120,216,28113,1,8,0:0:0
384,120,28456,5,0,0:0:0
120,352,28798,1,8,0:0:0
152,80,29141,1,0,0:0:0
405,222,29484,2,0,P|392:256|336:312|288:320,1,140
304,315,29827,2,0,P|256:328,1,35
80,288,30170,2,0,P|48:256|64:168,1,140
96,144,30598,2,0,P|128:168,4,35
464,48,31198,1,0,0:0:0
320,288,31541,5,0,0:0:0
272,128,31884,1,0,0:0:0
432,288,32227,1,8,0:0:0
120,88,32398,1,0,0:0:0
432,160,32570,2,0,P|408:192,1,35
248,368,32913,1,8,0:0:0
464,48,33256,1,0,0:0:0
128,304,33598,2,0,P|88:280|88:168,1,140
352,224,34284,5,0,0:0:0
464,72,34627,1,0,0:0:0
280,72,34970,2,0,P|360:80|384:128,1,140
368,232,35656,1,0,0:0:0
416,56,35998,1,0,0:0:0
192,272,36341,1,0,0:0:0
472,256,36684,5,0,0:0:0
80,200,37027,1,0,0:0:0
176,352,37370,1,8,0:0:0
384,272,37713,1,8,0:0:0
400,192,38056,1,0,0:0:0
208,120,38227,5,0,0:0:0
416,88,38398,1,8,0:0:0
168,280,38741,1,0,0:0:0
320,72,38827,1,0,0:0:0
128,232,38913,5,8,0:0:0
232,288,39427,1,0,0:0:0
408,296,39770,1,8,0:0:0
432,48,39941,1,0,0:0:0
120,80,40113,1,0,0:0:0
320,104,41141,1,0,0:0:0
120,320,41827,1,0,0:0:0
400,328,42170,2,0,P|368:296,20,35
136,232,44227,5,0,0:0:0
360,72,44570,1,0,0:0:0
448,336,44913,1,0,0:0:0
168,344,45256,2,0,P|288:264,1,140
464,48,45941,1,0,0:0:0
128,96,46284,1,0,0:0:0
408,64,46627,1,0,0:0:0
208,264,46970,1,0,0:0:0
408,72,47313,5,0,0:0:0
152,176,47656,1,0,0:0:0
384,328,47998,1,0,0:0:0
288,64,48341,2,0,P|288:128|272:208,1,140
192,320,49027,2,0,P|136:224|112:224,1,140
272,240,50056,1,0,0:0:0
112,80,50741,1,0,0:0:0
408,336,51427,5,0,0:0:0
472,48,52113,1,8,0:0:0
272,168,52798,1,0,0:0:0
72,312,53484,1,8,0:0:0
112,128,54856,1,0,0:0:0
224,40,55027,1,0,0:0:0
360,80,55198,1,0,0:0:0
392,216,55370,1,0,0:0:0
280,296,55541,1,0,0:0:0
144,272,55713,1,0,0:0:0
112,136,55884,1,0,0:0:0
224,40,56056,2,0,P|288:56|248:120,1,140
144,176,56570,2,0,P|184:224|240:168,1,140
432,328,57427,5,0,0:0:0
64,96,57598,1,8,0:0:0
456,248,57770,1,0,0:0:0
48,168,57941,1,0,0:0:0
456,176,58113,1,0,0:0:0
48,240,58284,1,0,0:0:0
440,112,58456,1,0,0:0:0
64,312,58627,1,0,0:0:0
336,120,58798,5,0,0:0:0
192,320,58970,2,0,P|160:288|152:240,3,70
256,112,60341,5,0,0:0:0
360,192,60513,1,0,0:0:0
152,200,60684,1,0,0:0:0
248,288,60856,1,0,0:0:0
272,48,61027,1,0,0:0:0
224,344,61198,1,0,0:0:0
424,176,61370,1,0,0:0:0
96,224,61541,1,0,0:0:0
328,48,61885,5,0,0:0:0
296,272,62056,1,0,0:0:0
448,48,62227,1,0,0:0:0
248,232,62399,1,0,0:0:0
448,120,62570,1,0,0:0:0
464,352,63084,1,8,0:0:0
280,208,63256,1,0,0:0:0
384,344,63427,1,0,0:0:0
320,136,63598,1,0,0:0:0
160,304,63770,2,0,P|112:272|96:192,1,140
448,64,64456,5,0,0:0:0
304,264,64627,1,0,0:0:0
384,48,64798,1,0,0:0:0
360,288,64970,1,0,0:0:0
320,56,65141,1,0,0:0:0
432,288,65313,2,0,P|384:304|352:296|296:280|272:264,1,140
104,288,65827,1,0,0:0:0
152,112,66170,1,8,0:0:0
320,248,66513,1,0,0:0:0
416,176,66856,1,8,0:0:0
328,288,67198,1,0,0:0:0
216,128,67541,1,8,0:0:0
168,304,67884,5,0,0:0:0
344,96,68056,1,0,0:0:0
128,128,68227,1,8,0:0:0
352,248,68398,1,0,0:0:0
96,240,68570,1,8,0:0:0
392,72,68741,1,0,0:0:0
112,328,68913,1,0,0:0:0
416,288,69256,5,0,0:0:0
304,336,69598,1,0,0:0:0
160,224,69941,1,8,0:0:0
96,320,70284,1,0,0:0:0
96,320,70370,1,0,0:0:0
184,64,70541,1,0,0:0:0
352,96,70627,1,8,0:0:0
88,112,70970,5,0,0:0:0
352,320,71313,1,8,0:0:0
240,320,71656,1,0,0:0:0
128,160,71998,1,0,0:0:0
328,160,72341,1,0,0:0:0
456,96,72684,1,0,0:0:0
256,40,73027,1,0,0:0:0
136,312,73370,5,0,0:0:0
168,80,73541,1,0,0:0:0
208,312,73713,1,0,0:0:0
232,80,73884,1,0,0:0:0
280,312,74056,1,0,0:0:0
384,64,74227,5,0,0:0:0
360,288,74398,1,8,0:0:0
432,168,74741,1,0,0:0:0
48,344,75256,2,0,P|40:312|56:312|56:312|48:312|48:312|56:272|80:232|120:216|152:208|144:200|144:224|152:192,1,210
408,88,76113,1,8,0:0:0
432,88,76798,1,0,0:0:0
216,224,76970,1,0,0:0:0
424,280,77141,1,0,0:0:0
272,80,77313,1,0,0:0:0
272,80,77484,1,8,0:0:0
136,184,77827,1,0,0:0:0
136,184,77998,1,0,0:0:0
152,64,78170,1,8,0:0:0
216,288,78513,1,0,0:0:0
328,80,78856,1,8,0:0:0
432,184,79027,1,0,0:0:0
312,304,79198,1,0,0:0:0
328,184,79370,1,0,0:0:0
424,88,79541,1,8,0:0:0
400,336,79884,1,0,0:0:0
232,160,80227,1,8,0:0:0
120,272,80570,1,0,0:0:0
336,192,80913,1,8,0:0:0
336,312,81256,1,0,0:0:0
120,120,81598,1,8,0:0:0
120,88,81770,1,0,0:0:0
224,48,82027,1,8,0:0:0
344,128,82284,1,0,0:0:0
424,168,82627,1,0,0:0:0
416,288,82970,1,0,0:0:0
224,312,83313,1,0,0:0:0
224,240,83484,1,0,0:0:0
128,232,83656,1,0,0:0:0
344,56,83998,2,0,P|352:72|352:56,4,35
448,80,85027,1,0,0:0:0
360,184,85198,1,0,0:0:0
384,48,85370,1,0,0:0:0
424,184,85541,1,0,0:0:0
288,208,85713,1,0,0:0:0
400,288,85884,1,0,0:0:0
256,280,86056,1,0,0:0:0
56,320,86398,1,0,0:0:0
80,184,86570,1,0,0:0:0
176,80,86741,1,0,0:0:0
320,72,86913,1,0,0:0:0
432,160,87084,1,0,0:0:0
464,296,87256,1,0,0:0:0
464,296,87770,1,0,0:0:0
184,264,88113,5,0,0:0:0
184,264,88284,2,0,P|160:224|176:192,1,70
440,144,88798,2,0,P|416:96|352:80,1,105
370,78,89141,2,0,P|328:64|264:80,1,105
270,76,89484,2,0,P|248:88|256:72|264:88|264:88|264:80,4,35
320,208,89998,1,0,0:0:0
216,112,90170,1,0,0:0:0
256,248,90341,1,0,0:0:0
152,312,90513,1,0,0:0:0
288,64,90856,2,0,P|336:72|368:88|384:112|392:144,1,140
168,112,91541,1,0,0:0:0
392,80,92227,1,0,0:0:0
384,320,93256,1,0,0:0:0
120,232,93598,1,0,0:0:0
80,304,94284,1,0,0:0:0
184,48,94627,1,0,0:0:0
400,96,95313,1,0,0:0:0
304,344,95656,1,0,0:0:0
352,72,95998,1,0,0:0:0
400,200,96170,1,0,0:0:0
288,112,96341,1,0,0:0:0
424,144,96513,1,0,0:0:0
288,184,96684,1,0,0:0:0
128,304,98056,1,0,0:0:0
96,272,98227,1,8,0:0:0
328,120,98570,1,0,0:0:0
328,120,98741,1,0,0:0:0
272,192,99256,1,0,0:0:0
272,192,99427,1,0,0:0:0
336,136,99941,1,0,0:0:0
336,136,100113,1,0,0:0:0
336,136,100284,1,0,0:0:0
88,56,101313,1,0,0:0:0
88,56,101484,1,0,0:0:0
408,344,101998,1,0,0:0:0
408,344,102170,1,8,0:0:0
336,56,102684,1,0,0:0:0
336,56,102856,1,0,0:0:0
336,56,103027,1,0,0:0:0
112,320,103541,1,8,0:0:0
256,312,103713,2,0,P|280:224|224:184|256:144,1,140
376,112,104227,1,0,0:0:0
368,184,104741,1,0,0:0:0
416,208,104913,1,8,0:0:0
392,336,105427,1,0,0:0:0
392,336,105598,1,0,0:0:0
280,328,105770,1,0,0:0:0
104,96,106970,1,0,0:0:0
336,88,107656,1,0,0:0:0
256,192,107998,12,0,109713,0:0:0
128,88,110398,1,8,0:0:0
392,96,111084,1,8,0:0:0
144,328,111770,2,0,P|96:272|96:224|96:168|128:128|184:88,1,280
144,144,113141,1,0,0:0:0
120,240,113827,1,0,0:0:0
384,48,114513,2,0,P|416:120|408:184|400:256|344:304|320:312,1,280
400,320,115884,1,0,0:0:0
336,184,116570,1,0,0:0:0
352,80,117256,1,0,0:0:0
144,104,117941,1,0,0:0:0
136,272,120513,1,0,0:0:0
152,256,120598,1,8,0:0:0
152,240,120684,1,0,0:0:0
192,256,120770,1,8,0:0:0
248,240,120856,1,0,0:0:0
144,152,122056,1,0,0:0:0
112,112,122141,1,8,0:0:0
232,112,122398,1,0,0:0:0
272,80,122741,1,0,0:0:0
344,64,123084,1,0,0:0:0
368,136,123341,1,0,0:0:0
376,216,123598,1,0,0:0:0
368,248,123770,1,0,0:0:0
328,288,123856,1,0,0:0:0
232,304,124113,1,0,0:0:0
160,304,124284,1,8,0:0:0
112,264,124456,1,8,0:0:0
112,168,124713,1,0,0:0:0
160,120,124970,1,8,0:0:0
216,104,125141,1,0,0:0:0
304,96,125313,1,8,0:0:0
336,112,125484,1,0,0:0:0
400,240,125827,1,8,0:0:0
400,288,125998,1,0,0:0:0
296,328,126341,1,8,0:0:0
224,320,126513,1,0,0:0:0
256,24,126856,1,8,0:0:0
144,296,127113,1,0,0:0:0
128,312,127370,1,8,0:0:0
168,120,127713,1,0,0:0:0
152,96,127884,1,8,0:0:0
264,144,128227,1,0,0:0:0
432,184,128570,1,8,0:0:0
448,216,128741,1,0,0:0:0
432,336,128998,1,0,0:0:0
440,344,129256,1,8,0:0:0
96,328,130284,1,0,0:0:0
88,296,130627,1,0,0:0:0
104,208,130970,1,0,0:0:0
88,168,131313,1,0,0:0:0
224,128,131656,1,0,0:0:0
256,104,131827,1,0,0:0:0
320,112,131998,1,8,0:0:0
384,144,132170,1,0,0:0:0
400,200,132341,1,8,0:0:0
392,304,132684,1,0,0:0:0
336,312,132856,1,8,0:0:0
208,320,133198,1,0,0:0:0
144,320,133370,1,8,0:0:0
104,312,133541,1,0,0:0:0
56,240,133713,1,8,0:0:0
96,112,134056,1,0,0:0:0
120,80,134227,1,8,0:0:0
272,72,134570,1,0,0:0:0
296,64,134741,1,8,0:0:0
336,80,134913,1,0,0:0:0
392,112,135084,1,8,0:0:0
416,168,135427,1,0,0:0:0
416,184,135598,1,8,0:0:0
408,280,135941,1,0,0:0:0
384,312,136113,1,0,0:0:0
360,320,136284,1,8,0:0:0
296,328,136456,1,0,0:0:0
176,320,136798,1,0,0:0:0
88,320,136970,1,8,0:0:0
40,192,137313,1,0,0:0:0
56,112,137484,1,8,0:0:0
80,72,137656,1,0,0:0:0
128,40,137827,1,8,0:0:0
240,48,138170,1,0,0:0:0
288,56,138341,1,8,0:0:0
376,64,138684,1,0,0:0:0
384,64,139027,1,0,0:0:0
304,192,139198,1,0,0:0:0
224,280,139541,1,0,0:0:0
200,296,139713,1,0,0:0:0
88,288,140056,1,0,0:0:0
80,288,140227,1,8,0:0:0
80,152,140398,1,0,0:0:0
80,128,140570,1,8,0:0:0
352,200,140913,1,0,0:0:0
368,216,141084,1,8,0:0:0
384,80,141427,1,0,0:0:0
376,48,141598,1,8,0:0:0
240,280,141941,1,0,0:0:0
200,152,142284,1,8,0:0:0
192,344,142627,1,0,0:0:0
360,320,142884,1,8,0:0:0
408,304,143141,1,0,0:0:0
440,128,143313,1,8,0:0:0
408,80,143656,1,0,0:0:0
288,48,143827,1,8,0:0:0
192,56,144170,1,0,0:0:0
104,104,144341,1,8,0:0:0
56,168,144513,1,0,0:0:0
48,232,144684,1,8,0:0:0
128,304,145027,1,0,0:0:0
144,328,145198,1,0,0:0:0
280,328,145541,1,0,0:0:0
304,328,145713,1,0,0:0:0
368,312,145884,1,0,0:0:0
400,288,146056,1,0,0:0:0
448,176,146398,1,8,0:0:0
448,136,146570,1,0,0:0:0
352,96,146913,1,0,0:0:0
184,272,147856,1,0,0:0:0
176,272,148027,1,0,0:0:0
280,256,148370,1,8,0:0:0
312,272,148627,1,0,0:0:0
336,288,148798,1,8,0:0:0
424,184,149141,1,0,0:0:0
432,168,149313,1,0,0:0:0
368,88,149656,1,0,0:0:0
320,80,149827,1,8,0:0:0
248,80,149998,1,0,0:0:0
176,120,150170,1,8,0:0:0
128,248,150513,1,0,0:0:0
136,272,150684,1,8,0:0:0
272,312,151027,1,0,0:0:0
288,320,151198,1,8,0:0:0
424,256,151541,1,0,0:0:0
392,120,151798,1,0,0:0:0
376,96,151970,1,0,0:0:0
280,88,152141,1,8,0:0:0
240,104,152313,1,0,0:0:0
192,144,152741,1,0,0:0:0
184,160,152913,1,0,0:0:0
160,184,153256,1,0,0:0:0
160,208,154113,1,8,0:0:0
144,304,154370,1,0,0:0:0
336,296,154798,1,8,0:0:0
80,328,168684,5,0,0:0:0
424,64,170056,1,8,0:0:0
72,64,171427,1,0,0:0:0
448,344,172798,1,0,0:0:0
440,56,174170,1,0,0:0:0
56,336,175456,1,0,0:0:0
48,40,176913,1,0,0:0:0
464,336,178284,1,8,0:0:0
464,40,179656,1,0,0:0:0
56,344,182398,1,0,0:0:0
80,64,183770,1,0,0:0:0
440,72,185056,1,8,0:0:0
432,312,186427,1,0,0:0:0
48,304,187798,1,8,0:0:0
80,64,189256,1,0,0:0:0
448,56,190541,1,0,0:0:0
456,336,191998,1,0,0:0:0
48,328,193370,1,0,0:0:0
56,40,194741,1,8,0:0:0
448,64,195084,1,0,0:0:0
432,312,195427,1,8,0:0:0
80,328,195770,1,0,0:0:0
