osu file format v5

[General]
AudioFilename: Dynamite SHU - Gouing! Going! My Soul.mp3
AudioLeadIn: 1974
PreviewTime: -1
Countdown: 0
SampleSet: Normal
StackLeniency: 0.7
Mode: 0
LetterboxInBreaks: 0

[Metadata]
Title:Gouing! Going! My Soul (TV Size)
Artist:Dynamite SHU
Creator:Ekaru
Version:Hard
Source:Digimon Savers
Tags:Digimon anime opening japanese j-rock

[Difficulty]
HPDrainRate:7
CircleSize:5
OverallDifficulty:7
SliderMultiplier:2
SliderTickRate:2

[Events]
//Background and Video events
1,0,"GouingGoingMySoul.avi"
0,0,"GouingGoingWallpaper.jpg"
//Break Periods
//Storyboard Layer 0 (Background)
//Storyboard Layer 1 (Failing)
//Storyboard Layer 2 (Passing)
//Storyboard Layer 3 (Foreground)
//Storyboard Sound Samples
//Background Colour Transformations
3,100,163,162,255

[TimingPoints]
9491,363.636363636364,4,1,0,50,1,0
32763,-100,4,1,0,50,0,1

[Colours]
Combo1 : 0,128,255
Combo2 : 255,159,251
Combo3 : 244,130,15

[HitObjects]
88,280,9309,5,0
168,280,9491,1,8
328,280,9854,1,8
248,280,10036,2,2,B|176:208|320:104|248:-8,1,300,2|8
176,32,10763,5,0
176,112,10945,2,0,B|280:112,1,100,8|0
272,32,11309,1,2
352,32,11491,1,0
432,32,11672,1,8
352,128,11945,1,4
352,248,12218,5,0
272,248,12400,1,8
112,248,12763,1,8
192,248,12945,2,2,B|216:352|416:344|432:224,1,300,2|8
432,160,13672,6,0,B|296:160,1,100
248,160,14036,1,0
192,96,14218,1,2
248,40,14400,1,0
304,96,14581,2,2,B|408:96,1,100
480,96,14945,1,4
480,264,15127,5,4
400,264,15309,2,4,B|400:56,1,200
304,160,15854,5,4
304,240,16036,2,4,B|80:240,1,200
104,72,16581,5,0
184,72,16763,1,2
184,152,16945,1,0
104,152,17127,1,2
104,232,17309,1,0
184,232,17490,2,0,B|288:232,1,100,2|8
288,312,17854,1,8
208,312,18036,6,2,B|72:312,1,100
24,312,18400,1,8
24,232,18581,2,2,B|24:88,1,100
72,64,18945,1,0
152,64,19127,1,0
112,136,19309,1,8
112,216,19490,1,8
192,216,19672,2,0,B|272:368|368:152,1,200,8|0
264,176,20218,2,2,B|304:112|392:112|440:184|432:248|384:304,1,300,2|4
240,352,21127,5,0
80,352,21490,1,0
160,216,21854,1,2
160,296,22036,2,2,B|256:208|352:304,1,200
328,128,22763,5,0
408,128,22945,1,0
368,56,23127,1,0
288,56,23309,2,2,B|160:56,2,100,2|2|4
256,216,24036,6,0,B|296:264|248:312,1,100
176,304,24400,2,0,B|120:256|184:208,1,100
216,152,24763,1,2
168,88,24945,2,2,B|224:40|272:104,1,100
336,88,25309,2,8,B|400:88|416:136|432:232|408:288|296:288,1,300
320,208,26036,2,8,B|224:168|368:128,1,100
472,144,26400,5,4
472,144,26581,1,4
472,304,26763,5,0
392,304,26945,2,0,B|352:352|304:304,1,100,2|0
224,304,27309,2,0,B|184:248|136:312,1,100,2|0
144,224,27672,1,2
144,144,27854,1,2
216,184,28036,2,2,B|352:184,1,100
424,64,28581,5,0
360,120,28763,1,8
424,168,28945,1,0
488,120,29127,1,8
488,200,29309,2,4,B|424:312|272:200,1,200
320,304,29854,5,0
16,176,30218,1,0
320,32,30581,1,8
320,176,30763,1,8
256,192,31127,12,4,32400
224,352,32763,6,0,B|224:120,1,200
296,192,33309,2,0,B|296:-32,1,200
432,72,34036,1,0
432,232,34400,1,2
488,288,34581,1,2
432,344,34763,1,2
376,288,34945,1,2
336,48,35490,5,0
264,72,35672,2,0,B|168:120|168:208|200:256,1,200
256,192,36218,2,0,B|312:280|312:328|256:384,1,200
128,288,36945,1,0
128,128,37309,1,2
72,72,37490,1,2
128,16,37672,1,2
184,72,37854,1,2
336,16,38218,5,4
336,176,38581,5,0
176,176,38945,1,0
176,256,39127,1,0
336,256,39490,1,0
336,96,39854,1,8
336,16,40036,1,8
200,96,40400,1,8
200,16,40581,1,8
200,176,40945,2,2,B|304:256|400:160,1,200
384,96,41490,2,2,B|464:128|464:208|464:264|408:296|360:296|328:272,1,300
256,280,42218,1,2
40,168,42763,5,8
120,168,42945,1,8
280,168,43309,1,8
200,168,43490,2,8,B|200:48,3,100
472,352,44400,5,0
312,352,44763,1,0
232,352,44945,2,0,B|16:352,1,200
176,280,45672,1,2
280,160,46036,1,2
232,96,46218,1,2
184,160,46400,1,2
136,96,46581,1,2
56,320,47127,5,0
136,320,47309,1,0
96,160,47672,1,0
96,240,47854,2,0,B|144:184|240:280|296:232,2,200
96,160,48763,2,2,B|112:96|112:64|176:64|192:88|176:184,1,200
256,160,49309,1,0
336,160,49491,2,2,B|352:96|352:64|416:64|432:88|416:184,1,200
424,304,50036,5,8
424,224,50218,1,12
424,64,50581,1,8
424,144,50763,2,8,B|200:144,1,200
224,224,51309,2,8,B|448:224,1,200
288,312,52036,2,8,B|48:312,1,200
88,152,52763,1,0
216,56,53127,2,0,B|272:104|160:224|240:264,1,200
224,328,53672,1,0
256,192,53854,12,4,55309
256,32,56036,5,0
144,152,56400,1,0
224,152,56581,1,0
384,152,56945,1,0
384,312,57309,1,0
224,312,57672,1,0
64,312,58036,1,0
256,192,58400,12,4,59127
