osu file format v14

[General]
AudioFilename: [www.92cc.com].mp3
AudioLeadIn: 0
PreviewTime: 11879
Countdown: 0
SampleSet: None
StackLeniency: 0.3
Mode: 0
LetterboxInBreaks: 0
WidescreenStoryboard: 1

[Editor]
Bookmarks: 17004,18004,24129,53004
DistanceSpacing: 2
BeatDivisor: 2
GridSize: 4
TimelineZoom: 1.7

[Metadata]
Title:The environment of nothingness
TitleUnicode:The environment of nothingness
Artist:Dungeon and Fighter
ArtistUnicode:Dungeon and Fighter
Creator:09kami
Version:Hyper
Source:Dungeon and Fighter
Tags:DNF Dungeon and Fighter
BeatmapID:718474
BeatmapSetID:322675

[Difficulty]
HPDrainRate:5
CircleSize:3
OverallDifficulty:6
ApproachRate:8
SliderMultiplier:1
SliderTickRate:1

[Events]
//Background and Video events
0,0,"552489.jpg",0,0
//Break Periods
//Storyboard Layer 0 (Background)
//Storyboard Layer 1 (Fail)
//Storyboard Layer 2 (Pass)
//Storyboard Layer 3 (Foreground)
//Storyboard Sound Samples

[TimingPoints]
3254,250,4,3,2,100,1,0
12004,-133.333333333333,4,2,2,100,0,0
15504,-133.333333333333,4,3,2,100,0,0
17004,-133.333333333333,4,3,2,100,0,0
18004,-100,4,3,2,100,0,0
22004,-133.333333333333,4,2,2,100,0,0
26004,-100,4,3,2,100,0,0
30004,-133.333333333333,4,2,2,100,0,0
34004,-100,4,3,2,100,0,0
38004,-133.333333333333,4,2,2,100,0,1
44004,-200,4,3,2,100,0,0
45504,-117.647058823529,4,3,2,100,0,0
60504,-117.647058823529,4,3,2,50,0,0
61004,-200,4,3,2,50,0,0
61504,-100,4,3,2,100,0,0

[HitObjects]
192,148,3254,6,0,P|172:188|200:244,1,100
320,236,3754,2,0,P|340:196|312:140,1,100
244,76,4129,2,0,B|210:57|210:57|196:60,2,50
120,100,4504,2,8,B|88:152|88:152|88:200,1,100
144,292,4879,2,0,P|192:272|244:284,2,100
364,292,5629,2,0,P|348:248|344:240,2,50
396,80,6129,6,0,L|376:132,2,50
284,184,6504,2,8,L|192:120,1,100
48,108,6879,2,0,L|108:120,1,50
144,192,7129,2,0,L|94:201,1,50
144,280,7379,2,0,L|204:292,1,50
252,364,7629,2,0,L|312:348,2,50
400,288,8004,6,0,L|424:232,1,50
320,228,8254,2,0,L|344:172,1,50
244,168,8504,6,8,P|240:112|264:76,1,100
348,44,8879,1,0,0:0:0:0:
400,156,9129,1,0,0:0:0:0:
328,268,9379,1,0,0:0:0:0:
200,288,9629,2,0,L|184:232,2,50
256,192,10004,1,0,0:0:0:0:
312,96,10129,2,0,L|328:152,2,50
352,236,10504,6,8,P|396:208|420:164,1,100
116,176,11004,1,0,0:0:0:0:
312,96,11254,2,0,P|268:124|244:168,2,100
96,52,12004,6,0,P|72:140|124:272,1,225.000008583069
276,172,13004,6,0,P|300:260|284:356,1,187.500007152558
384,320,13754,2,0,L|384:282,1,37.5000014305115
480,324,14004,2,0,P|464:232|488:142,1,187.500007152558
456,48,14754,2,0,P|416:76|392:76,1,75.0000028610231
320,144,15129,2,0,P|283:147|255:171,1,75.0000028610231
192,264,15504,6,0,L|216:236,5,25.0000009536744
156,144,16003,2,0,L|132:172,11,25.0000009536744
97,66,17004,6,0,L|124:40,1,37.5000014305115
168,192,17379,1,0,0:0:0:0:
248,288,17629,1,0,0:0:0:0:
264,308,17754,2,0,L|284:332,2,25.0000009536744
239,313,18004,2,0,L|200:344,1,50
168,192,18379,5,0,0:0:0:0:
196,80,18504,2,8,B|232:76|232:76|264:104|264:104|300:112,1,100
284,108,18879,1,0,0:0:0:0:
428,172,19129,1,0,0:0:0:0:
380,88,19379,1,0,0:0:0:0:
396,308,19629,2,0,L|360:264,2,50
500,312,20004,1,0,0:0:0:0:
448,240,20129,1,0,0:0:0:0:
180,208,20379,5,0,0:0:0:0:
264,176,20504,2,8,P|256:240|240:276,1,100
296,356,20879,2,0,P|300:328|320:308,1,50
396,308,21129,2,0,P|392:336|372:356,1,50
232,376,21379,2,0,P|236:348|256:328,1,50
456,292,21629,2,0,P|460:312|436:344,2,50
272,104,22004,6,0,P|320:144|312:232,1,150.000005722046
220,184,22754,2,0,P|212:252|136:288,1,150.000005722046
132,200,23379,2,0,L|96:168,2,37.5000014305115
136,96,23754,2,0,L|100:64,2,37.5000014305115
244,72,24129,6,0,L|208:40,1,37.5000014305115
404,82,24504,1,0,0:0:0:0:
328,211,24754,1,0,0:0:0:0:
329,82,25004,1,0,0:0:0:0:
441,147,25254,1,0,0:0:0:0:
291,147,25504,1,0,0:0:0:0:
404,212,25754,1,0,0:0:0:0:
228,348,26004,6,0,L|284:328,1,50
136,232,26379,1,0,0:0:0:0:
52,200,26504,2,8,B|76:168|76:168|140:128,1,100
252,100,26879,2,0,B|244:116|244:116|216:136,2,50
260,284,27379,1,0,0:0:0:0:
328,220,27629,2,0,L|368:180,2,50
240,196,28004,5,0,0:0:0:0:
352,316,28129,2,0,L|312:356,1,50
420,252,28379,1,0,0:0:0:0:
400,164,28504,2,8,L|328:88,1,100
200,92,28879,6,0,L|252:108,1,50
96,172,29129,2,0,L|152:168,1,50
64,292,29379,2,0,L|116:256,1,50
136,384,29629,2,0,L|156:328,2,50
288,304,30004,6,0,P|228:240|248:192,1,150.000005722046
336,228,30629,2,0,L|376:216,1,37.5000014305115
400,136,30879,2,0,L|440:124,1,37.5000014305115
376,48,31129,2,0,L|336:60,1,37.5000014305115
312,140,31379,2,0,L|272:152,1,37.5000014305115
220,84,31629,2,0,L|180:96,2,37.5000014305115
88,76,32004,5,0,0:0:0:0:
100,144,32254,1,0,0:0:0:0:
116,216,32504,1,0,0:0:0:0:
136,288,32754,1,0,0:0:0:0:
152,360,33004,1,0,0:0:0:0:
272,308,33254,2,0,P|316:272|328:248,1,75.0000028610231
280,148,33754,2,0,P|276:88|280:72,1,75.0000028610231
403,63,34129,6,0,P|403:91|387:115,2,50
460,176,34504,2,8,B|448:208|476:244|448:288,1,100
368,328,34879,1,0,0:0:0:0:
376,228,35129,1,0,0:0:0:0:
352,136,35379,1,0,0:0:0:0:
288,62,35629,2,0,L|240:38,2,50
304,56,36004,6,0,P|324:104|296:152,1,100
232,188,36379,1,0,0:0:0:0:
160,236,36504,2,8,P|140:280|161:325,1,100
264,320,36879,1,0,0:0:0:0:
88,104,37129,1,0,0:0:0:0:
340,208,37379,1,0,0:0:0:0:
28,180,37629,2,0,L|88:192,2,50
256,62,38004,6,0,B|221:82|221:82|185:146|185:146|145:166,2,150.000005722046
256,322,39254,6,0,B|291:302|291:302|327:238|327:238|367:218,1,150.000005722046
384,65,40004,2,0,P|413:116|439:134,1,75.0000028610231
128,65,40504,2,0,P|99:116|73:134,1,75.0000028610231
322,147,41004,2,0,P|339:177|327:224,1,75.0000028610231
190,147,41504,2,0,P|173:177|185:224,1,75.0000028610231
398,271,42004,2,0,P|366:293|352:293,1,37.5000014305115
114,271,42504,2,0,P|146:293|160:293,1,37.5000014305115
256,331,42754,2,0,L|257:280,1,37.5000014305115
256,202,43004,2,0,L|255:160,1,37.5000014305115
255,73,43254,2,0,L|255:27,1,37.5000014305115
216,139,43504,2,0,L|305:138,1,75.0000028610231
256,192,44004,12,0,45254,0:0:0:0:
248,180,45504,6,0,L|272:248,1,56.6666677474976
356,304,45879,1,0,0:0:0:0:
360,312,46004,2,0,L|368:260,1,42.5000008106232
452,140,46254,2,0,L|420:188,1,42.5000008106232
304,32,46504,2,0,L|344:80,1,42.5000008106232
106,65,46754,2,0,L|196:92,1,85.0000016212464
120,160,47129,2,0,B|156:188|156:188|168:232,1,85.0000016212464
140,304,47504,6,0,L|184:348,2,42.5000008106232
248,288,47879,2,0,L|296:300,2,42.5000008106232
336,224,48254,2,0,L|392:204,2,42.5000008106232
368,120,48629,2,0,L|404:80,2,42.5000008106232
304,44,49004,6,0,L|312:-8,1,42.5000008106232
188,96,49254,2,0,L|220:64,1,42.5000008106232
56,112,49504,6,0,L|108:92,2,42.5000008106232
136,200,49879,2,0,L|88:188,2,42.5000008106232
260,148,50254,2,0,L|204:168,2,42.5000008106232
220,256,50629,2,0,L|184:296,2,42.5000008106232
296,300,51004,6,0,L|288:352,1,42.5000008106232
396,296,51254,2,0,L|404:244,1,42.5000008106232
332,184,51504,6,0,P|352:152|392:136,1,56.6666677474976
492,144,51879,2,0,P|472:176|432:192,1,56.6666677474976
56,168,52254,2,0,P|76:200|116:216,1,56.6666677474976
204,224,52629,2,0,P|184:192|168:184,2,42.5000008106232
260,76,53087,2,0,L|228:56,2,28.3333338737488
336,132,53379,1,0,0:0:0:0:
416,192,53504,6,0,L|384:244,2,42.5000008106232
292,232,53879,2,0,L|240:252,2,42.5000008106232
180,176,54254,2,0,L|136:148,2,42.5000008106232
16,168,54629,2,0,L|48:220,2,42.5000008106232
48,308,55004,6,0,L|100:328,1,42.5000008106232
192,300,55254,2,0,L|240:292,1,42.5000008106232
332,332,55504,6,0,L|368:292,2,42.5000008106232
456,252,55879,2,0,L|452:200,2,42.5000008106232
500,100,56254,2,0,L|456:64,2,42.5000008106232
384,8,56629,2,0,L|332:28,2,42.5000008106232
280,96,57004,6,0,L|240:80,1,42.5000008106232
164,12,57254,2,0,L|112:36,1,42.5000008106232
32,56,57504,2,0,L|32:112,2,42.5000008106232
112,136,57879,2,0,L|112:192,2,42.5000008106232
28,232,58254,6,0,L|28:288,2,42.5000008106232
208,172,58629,2,0,L|208:228,1,42.5000008106232
128,268,58879,2,0,L|128:324,2,42.5000008106232
240,312,59254,2,0,L|280:280,1,42.5000008106232
372,288,59504,6,0,L|412:256,1,42.5000008106232
420,168,59879,2,0,L|460:136,1,42.5000008106232
464,40,60254,2,0,L|504:8,1,42.5000008106232
348,108,60504,2,0,L|308:140,3,42.5000008106232
236,96,61004,2,0,B|236:132|236:132|196:136|184:180,1,100
96,220,61754,6,0,L|96:164,2,50
220,176,62254,2,0,L|220:226,2,50
348,224,62754,6,0,L|348:168,2,50
460,284,63254,1,0,0:0:0:0:
464,192,63504,2,0,P|464:132|352:56,1,200
180,56,64254,2,0,P|204:88|228:100,1,50
284,136,64504,6,0,P|276:200|184:328,1,200
36,348,65254,2,0,P|36:316|56:300,1,50
116,240,65504,2,0,P|136:172|96:36,1,200
32,152,66254,1,0,0:0:0:0:
248,128,66504,2,0,L|368:116,2,100
284,232,67254,1,0,0:0:0:0:
260,344,67504,2,0,P|332:336|404:224,1,200
472,164,68254,5,0,0:0:0:0:
416,88,68504,2,0,L|416:24,1,50
320,88,68879,2,0,L|320:24,1,50
216,84,69254,2,0,L|216:20,2,50
108,80,69754,2,0,B|104:144|104:144|72:208|100:284,1,200
184,360,70504,2,0,P|220:336|232:304,1,50
260,252,70754,2,0,P|340:248|460:316,1,200
332,344,71504,5,0,0:0:0:0:
260,252,71754,1,0,0:0:0:0:
332,172,72004,1,0,0:0:0:0:
264,88,72254,1,0,0:0:0:0:
328,8,72504,2,0,L|388:8,1,50
464,32,72754,2,0,P|476:96|472:148,1,100
404,188,73129,2,0,P|384:196|368:232,1,50
416,296,73379,2,0,P|348:308|264:292,1,150
117,85,74004,6,0,P|185:73|269:89,1,150
263,87,74504,2,0,P|264:152|244:200,1,100
144,184,75004,1,0,0:0:0:0:
44,260,75254,2,0,L|44:328,1,50
128,364,75504,2,0,L|128:296,1,50
216,364,75754,2,0,L|216:300,1,50
304,260,76004,2,0,L|304:328,2,50
384,368,76504,2,0,P|428:328|380:72,1,350
