osu file format v14

[General]
AudioFilename: [www.92cc.com].mp3
AudioLeadIn: 0
PreviewTime: 11879
Countdown: 0
SampleSet: None
StackLeniency: 0.3
Mode: 0
LetterboxInBreaks: 0
WidescreenStoryboard: 0

[Editor]
Bookmarks: 17004,18004,53004
DistanceSpacing: 1
BeatDivisor: 4
GridSize: 4
TimelineZoom: 2.599999

[Metadata]
Title:The environment of nothingness
TitleUnicode:The environment of nothingness
Artist:Dungeon and Fighter
ArtistUnicode:Dungeon and Fighter
Creator:09kami
Version:Another
Source:Dungeon and Fighter
Tags:DNF Dungeon and Fighter
BeatmapID:717317
BeatmapSetID:322675

[Difficulty]
HPDrainRate:6
CircleSize:4
OverallDifficulty:8
ApproachRate:9
SliderMultiplier:1.4
SliderTickRate:1

[Events]
//Background and Video events
0,0,"552489.jpg",0,0
//Break Periods
//Storyboard Layer 0 (Background)
//Storyboard Layer 1 (Fail)
//Storyboard Layer 2 (Pass)
//Storyboard Layer 3 (Foreground)
//Storyboard Sound Samples

[TimingPoints]
3254,250,4,3,2,80,1,0
12004,-133.333333333333,4,3,2,80,0,0
12129,-133.333333333333,4,3,2,80,0,0
15504,-133.333333333333,4,3,2,80,0,0
17004,-133.333333333333,4,3,2,80,0,0
18004,-100,4,3,2,80,0,0
22004,-80,4,3,2,80,0,0
26004,-100,4,3,2,80,0,0
30004,-80,4,3,2,80,0,0
34004,-100,4,3,2,80,0,0
38004,-80,4,3,2,100,0,1
41504,-66.6666666666667,4,3,2,30,0,1
42004,-66.6666666666667,4,3,2,40,0,1
43004,-66.6666666666667,4,3,2,70,0,1
43504,-66.6666666666667,4,3,2,90,0,1
44004,-200,4,3,2,80,0,0
45504,-117.647058823529,4,3,2,80,0,0
52379,-200,4,3,2,80,0,0
52754,-117.647058823529,4,3,2,80,0,0
60504,-117.647058823529,4,3,2,50,0,0
61004,-200,4,3,2,50,0,0
61504,-100,4,3,2,80,0,0

[HitObjects]
148,84,3254,6,0,P|132:124|140:156,1,70,0|0,2:0|2:0,2:0:0:0:
364,300,3504,2,0,P|380:260|372:228,1,70,0|0,2:0|2:0,2:0:0:0:
212,140,3754,2,0,B|232:192|280:192|304:248,1,140,0|0,2:0|0:0,0:0:0:0:
216,296,4129,6,0,P|260:344|288:348,1,70
372,360,4379,1,8,0:0:0:0:
428,268,4504,2,2,B|436:240|436:240|396:176|396:176|404:128,1,140,2|0,0:0|0:0,0:0:0:0:
328,72,4879,2,8,B|352:72|352:72|376:52|376:52|400:48,1,70,8|8,0:0|0:0,0:0:0:0:
172,92,5129,2,8,B|196:92|196:92|220:72|220:72|244:68,1,70,8|8,0:0|0:0,0:0:0:0:
20,120,5379,2,8,B|44:120|44:120|68:100|68:100|92:96,1,70,8|8,0:0|0:0,0:0:0:0:
148,208,5629,2,0,B|124:208|124:208|100:228|100:228|76:232,2,70
236,240,6004,5,8,0:0:0:0:
296,176,6129,1,8,0:0:0:0:
360,240,6254,2,8,B|352:288|352:288|316:304,1,70
69,319,6504,2,2,B|104:304|104:304|144:332|144:332|192:308,1,140,2|0,0:0|0:0,0:0:0:0:
340,276,6879,2,8,B|320:284|320:284|288:260|288:260|264:256,1,70
296,112,7129,2,8,B|292:136|292:136|264:152|264:152|256:176,1,70,8|8,0:0|0:0,0:0:0:0:
132,120,7379,2,8,B|148:132|148:132|152:172|152:172|168:180,2,70
279,258,7754,2,8,B|288:260|288:260|320:284|320:284|340:276,1,70
188,268,8004,6,8,L|144:328,1,70
400,148,8254,2,8,L|356:208,1,70
200,160,8504,2,2,B|208:124|208:124|260:80|260:80|272:36,1,140,2|0,0:0|0:0,0:0:0:0:
420,32,8879,2,8,B|464:8|464:8|482:14,1,70
392,128,9130,2,8,B|432:136|432:136|448:160,1,70,8|8,0:0|0:0,0:0:0:0:
332,212,9379,2,8,B|356:248|356:248|348:280,1,70,8|8,0:0|0:0,0:0:0:0:
188,360,9629,2,0,B|164:324|164:324|172:292,2,70
240,256,10004,6,8,B|260:292|260:292|276:320,1,70
364,348,10254,1,0,0:0:0:0:
448,300,10379,1,0,0:0:0:0:
480,200,10504,2,2,P|464:120|408:88,1,140,2|0,0:0|0:0,0:0:0:0:
32,184,10879,2,8,P|48:264|104:296,1,140
140,312,11254,5,0,0:0:0:0:
308,320,11504,1,0,0:0:0:0:
416,212,11754,1,0,0:0:0:0:
384,48,12004,1,0,0:0:0:0:
368,80,12129,6,0,P|288:112|216:88,1,157.500006008148
128,124,12629,2,0,P|152:168|128:224,1,105.000004005432
220,236,13004,2,0,P|300:204|328:212,2,105.000004005432
300,296,13629,2,0,P|252:320|196:320,1,105.000004005432
100,336,14004,6,0,B|48:304|56:232|132:156,1,210.000008010865
232,152,14629,2,0,P|284:150|330:126,1,105.000004005432
412,48,15004,2,0,B|464:80|456:152|380:228,1,210.000008010865
356,236,15587,1,0,0:0:0:0:
328,240,15670,1,0,0:0:0:0:
300,240,15754,1,0,0:0:0:0:
272,232,15837,1,0,0:0:0:0:
248,220,15920,1,0,0:0:0:0:
216,208,16003,5,0,0:0:0:0:
192,180,16087,1,0,0:0:0:0:
180,148,16170,1,0,0:0:0:0:
180,112,16254,5,0,0:0:0:0:
192,80,16337,1,0,0:0:0:0:
216,52,16420,1,0,0:0:0:0:
252,44,16504,1,0,0:0:0:0:
288,48,16587,1,0,0:0:0:0:
320,64,16670,1,0,0:0:0:0:
344,84,16754,1,0,0:0:0:0:
376,108,16837,1,0,0:0:0:0:
412,116,16920,1,0,0:0:0:0:
440,104,17004,6,0,P|472:84|472:68,1,52.5000020027161
192,36,17379,2,0,P|160:56|160:72,1,52.5000020027161
100,120,17629,2,0,P|120:152|116:172,1,52.5000020027161
104,208,17837,1,0,0:0:0:0:
96,252,17920,1,0,0:0:0:0:
108,296,18004,6,8,P|124:316|188:332,1,70
322,278,18254,2,0,P|374:262|394:238,1,70
400,100,18504,2,2,B|360:124|360:124|340:172|340:172|300:188,1,140,2|0,0:0|0:0,0:0:0:0:
192,196,18879,2,8,B|184:220|184:220|212:248|212:248|216:268,1,70
344,336,19129,2,8,B|352:312|352:312|324:284|324:284|320:264,2,70
80,272,19629,2,8,B|81:277|81:277|109:305|109:305|101:329,2,70
0,204,20004,6,8,B|16:156|16:156|40:140,1,70
200,40,20254,2,8,B|216:88|216:88|240:104,1,70
352,60,20504,2,2,B|376:84|376:84|396:164|396:164|380:192,1,140,2|0,0:0|0:0,0:0:0:0:
247,206,20879,6,8,P|220:226|228:258,1,70,8|8,0:0|0:0,0:0:0:0:
268,111,21129,2,8,P|234:107|208:129,1,70,8|8,0:0|0:0,0:0:0:0:
352,60,21380,2,8,P|330:33|296:29,1,70
92,59,21629,2,8,P|113:33|147:28,2,70
72,152,22004,6,0,P|96:244|52:332,1,175
184,184,22379,2,0,P|172:220|192:268,1,87.5
224,92,22629,2,0,P|284:144|308:240,1,175
195,343,23004,2,0,P|247:339|276:312,1,87.5
343,367,23254,2,0,P|368:322|364:280,1,87.5
451,284,23504,2,0,P|440:232|412:196,1,87.5
488,152,23754,2,0,P|440:112|400:104,1,87.5
428,24,24004,6,0,P|356:28|324:44,1,87.5
211,35,24254,1,0,0:0:0:0:
300,348,24504,1,0,0:0:0:0:
88,188,24754,1,0,0:0:0:0:
432,196,25004,1,0,0:0:0:0:
256,192,25254,1,0,0:0:0:0:
264,104,25504,1,0,0:0:0:0:
248,280,25754,1,0,0:0:0:0:
160,140,26004,5,8,0:0:0:0:
352,244,26129,1,8,0:0:0:0:
388,108,26254,2,8,B|368:124|368:124|340:124|340:124|316:148,1,70
64,292,26504,2,2,B|84:272|84:272|172:260|172:260|196:236,1,140,2|0,0:0|0:0,0:0:0:0:
181,76,26879,2,8,B|173:100|173:100|173:124|173:124|153:148,1,70,8|8,0:0|0:0,0:0:0:0:
284,44,27129,2,8,B|276:68|276:68|276:92|276:92|256:116,1,70,8|8,0:0|0:0,0:0:0:0:
384,24,27379,2,8,B|376:48|376:48|376:72|376:72|356:96,1,70,8|8,0:0|0:0,0:0:0:0:
440,180,27629,2,0,B|448:204|448:204|448:228|448:228|468:252,2,70
352,296,28004,6,8,L|288:336,1,70
120,360,28254,2,8,L|184:320,1,70
252,144,28504,2,2,B|220:164|220:164|176:220|176:220|144:240,1,140,2|0,0:0|0:0,0:0:0:0:
36,96,28879,2,8,P|69:89|98:107,1,70
167,155,29129,2,8,P|179:123|211:110,1,70
299,107,29379,2,8,P|282:77|292:44,1,70
408,168,29629,2,8,P|425:138|415:105,2,70
448,260,30004,6,0,P|380:304|272:288,1,175
76,308,30379,2,0,P|140:320|160:336,1,87.5
128,228,30629,2,0,P|180:172|196:68,1,175
260,216,31004,2,0,P|222:251|220:288,1,87.5
364,200,31254,2,0,P|408:248|432:248,1,87.5
344,96,31504,2,0,P|381:60|384:24,1,87.5
244,116,31754,2,0,P|200:68|160:72,1,87.5
212,280,32004,5,0,0:0:0:0:
432,244,32254,1,0,0:0:0:0:
392,32,32504,1,0,0:0:0:0:
176,72,32754,1,0,0:0:0:0:
336,324,33004,5,0,0:0:0:0:
480,116,33254,1,0,0:0:0:0:
276,8,33504,1,0,0:0:0:0:
132,188,33754,1,0,0:0:0:0:
288,212,34004,5,8,0:0:0:0:
336,132,34129,1,8,0:0:0:0:
264,72,34254,2,8,P|240:116|256:148,1,70
412,236,34504,2,2,P|413:312|365:356,1,140,2|0,0:0|0:0,0:0:0:0:
284,336,34879,2,8,P|256:304|220:304,1,70,8|8,0:0|0:0,0:0:0:0:
196,224,35129,2,8,P|160:232|132:264,1,70,8|8,0:0|0:0,0:0:0:0:
56,224,35379,2,8,P|40:264|56:300,1,70,8|8,0:0|0:0,0:0:0:0:
132,348,35629,5,8,0:0:0:0:
284,336,35754,2,0,L|348:276,1,70
402,151,36004,6,8,P|384:176|336:172,1,70
216,92,36254,6,8,P|190:114|196:148,1,70
224,364,36504,2,2,B|256:312|256:312|248:268|248:268|272:232,1,140,2|0,0:0|0:0,0:0:0:0:
334,310,36879,2,8,L|384:360,1,70
492,348,37129,2,8,L|432:288,1,70
424,212,37379,2,8,L|364:152,1,70,8|8,0:0|0:0,0:0:0:0:
360,128,37629,5,0,0:0:0:0:
312,120,37754,1,0,0:0:0:0:
288,160,37879,1,0,0:0:0:0:
320,196,38004,6,0,B|288:236|288:236|352:252|352:252|408:320,1,175
496,328,38379,2,0,L|396:324,2,87.5
304,360,38754,2,0,P|261:329|216:348,1,87.5
264,80,39004,2,0,P|221:110|180:92,2,87.5
136,184,39379,2,0,P|160:248|144:276,2,87.5
72,244,39754,1,0,0:0:0:0:
228,172,39879,1,0,0:0:0:0:
48,56,40004,5,0,0:0:0:0:
404,192,40254,2,0,B|376:208|376:208|368:252|368:252|336:264,1,87.5
256,136,40504,2,0,B|284:152|284:152|292:196|292:196|324:208,1,87.5
404,60,40754,2,0,B|376:76|376:76|368:120|368:120|336:132,2,87.5
108,324,41129,2,0,B|136:308|136:308|144:264|144:264|176:252,2,87.5
220,96,41504,6,0,B|208:124|232:160|208:208,1,105.000004005432
292,288,41754,2,0,B|304:260|280:224|304:176,1,105.000004005432
96,68,42004,2,0,B|124:92|112:148|144:160,1,105.000004005432
416,316,42254,2,0,B|388:292|400:236|368:224,1,105.000004005432
36,24,42504,2,0,B|-8:64|60:112|20:120,1,105.000004005432
476,360,42754,2,0,B|520:320|452:272|492:264,1,105.000004005432
48,272,43004,2,0,P|80:220|56:180,1,105.000004005432
464,112,43254,2,0,P|432:164|456:204,1,105.000004005432
32,360,43504,2,0,P|116:320|120:296,1,105.000004005432
480,24,43754,2,0,P|396:64|392:88,1,105.000004005432
256,192,44004,12,0,45254,0:0:0:0:
152,124,45504,6,0,L|116:184,2,59.5000011348725
360,260,45879,2,0,L|396:200,2,59.5000011348725
396,336,46254,1,0,0:0:0:0:
312,336,46379,1,0,0:0:0:0:
224,332,46504,2,2,B|232:308|232:308|184:268|184:268|188:236,1,119.000002269745,2|0,0:0|0:0,0:0:0:0:
36,244,46879,2,0,P|64:224|100:236,1,59.5000011348725
168,124,47129,2,0,P|140:144|104:132,2,59.5000011348725
240,64,47504,6,0,P|272:84|288:112,1,59.5000011348725
224,304,47754,2,0,P|244:300|260:276,2,29.7500005674362
388,228,48004,2,0,P|384:276|400:292,2,59.5000011348725
296,200,48379,2,0,P|300:152|284:136,2,59.5000011348725
212,256,48754,2,0,P|221:228|211:201,1,59.5000011348725
120,104,49004,2,0,L|184:144,1,59.5000011348725
156,8,49254,2,0,L|204:68,1,59.5000011348725
48,184,49504,6,0,L|112:196,1,59.5000011348725
192,288,49754,2,0,L|160:280,2,29.7500005674362
340,328,50004,2,0,L|292:284,1,59.5000011348725
476,320,50254,2,0,L|408:288,1,59.5000011348725
452,96,50504,2,2,B|432:116|432:116|440:192|440:192|420:212,1,119.000002269745,2|0,0:0|0:0,0:0:0:0:
280,108,50879,2,0,B|292:96|292:96|292:64|292:64|308:56,2,59.5000011348725
360,172,51254,1,0,0:0:0:0:
240,176,51379,1,0,0:0:0:0:
208,64,51504,6,0,L|180:124,2,59.5000011348725
208,320,51879,2,0,L|180:260,2,59.5000011348725
248,212,52254,1,0,0:0:0:0:
352,172,52379,2,0,B|352:192|352:192|368:208|352:220|352:220|352:236,1,70
464,208,52754,1,0,0:0:0:0:
464,72,52879,2,0,P|424:92|400:92,1,59.5000011348725
340,40,53129,1,0,0:0:0:0:
260,60,53254,1,0,0:0:0:0:
176,144,53379,6,0,P|208:144|236:132,2,59.5000011348725
84,104,53754,1,0,0:0:0:0:
56,200,53879,2,0,P|88:200|116:212,2,59.5000011348725
120,292,54254,2,0,P|156:316|164:336,2,59.5000011348725
328,316,54629,2,0,P|292:292|284:272,2,59.5000011348725
352,220,55004,1,0,0:0:0:0:
284,152,55129,1,0,0:0:0:0:
184,140,55254,2,0,L|204:200,1,59.5000011348725
80,88,55504,6,0,P|104:56|128:52,2,59.5000011348725
284,92,55879,2,0,P|311:102|325:128,2,59.5000011348725
184,252,56254,2,0,P|169:277|142:288,2,59.5000011348725
112,208,56629,1,0,0:0:0:0:
248,168,56754,1,0,0:0:0:0:
392,296,56879,2,0,L|332:276,1,59.5000011348725
392,208,57129,1,0,0:0:0:0:
392,380,57254,1,0,0:0:0:0:
468,248,57379,1,0,0:0:0:0:
372,128,57504,6,0,P|340:104|316:100,2,59.5000011348725
190,100,57879,2,0,P|162:108|140:128,2,59.5000011348725
240,336,58254,2,0,P|268:327|290:308,2,59.5000011348725
228,248,58629,2,0,L|200:188,1,59.5000011348725
264,132,58879,1,0,0:0:0:0:
144,260,59004,1,0,0:0:0:0:
192,176,59129,1,0,0:0:0:0:
290,308,59254,2,0,P|306:268|302:236,2,59.5000011348725
290,308,59879,5,0,0:0:0:0:
290,308,60254,1,0,0:0:0:0:
222,76,60504,2,0,L|192:128,2,59.5000011348725
290,308,61004,2,0,L|328:240,1,70
416,336,61504,6,0,P|432:292|312:108,1,280
380,196,62129,2,0,P|356:168|316:148,1,70
184,151,62504,2,0,P|154:169|132:196,1,70
136,348,62754,2,0,P|166:330|188:303,1,70
64,280,63004,2,0,P|52:208|72:128,1,140
140,44,63504,6,0,B|196:68|196:68|252:48|420:96,1,280
316,112,64129,2,0,P|368:120|400:132,1,70
464,312,64504,2,0,L|464:264,2,35
372,312,64754,2,0,L|372:264,2,35
276,312,65004,2,0,L|276:264,2,35
184,312,65254,2,0,L|184:264,2,35
84,340,65504,6,0,B|96:288|64:208|84:120,1,210
200,56,66004,2,0,B|188:72|208:100|196:140,1,70
224,220,66254,2,0,P|268:196|272:164,1,70
332,96,66504,2,0,P|360:136|360:172,1,70
468,216,66754,2,0,P|464:144|432:80,2,140
404,312,67504,6,0,P|360:336|112:316,1,280
260,236,68254,1,0,0:0:0:0:
124,144,68504,2,0,B|139:114|139:114|175:112,1,70
128,40,68879,2,0,B|91:42|91:42|76:71,2,70
388,144,69379,2,0,B|373:114|373:114|337:112,1,70
384,40,69754,2,0,B|421:42|421:42|436:71,2,70
256,176,70129,6,0,L|256:324,1,140
324,384,70504,2,0,P|356:348|360:312,1,70
200,384,70754,2,0,P|156:348|140:252,2,140
456,360,71504,6,0,P|468:316|424:80,1,280
420,188,72129,2,0,P|412:144|392:108,1,70
208,56,72504,2,0,P|188:92|200:128,1,70
292,268,72754,2,0,P|312:232|300:196,1,70
168,248,73004,2,0,B|128:268|128:268|80:240|72:184|132:116|132:116,1,210
208,56,73504,6,0,L|280:68,1,70
432,32,73754,2,0,L|432:176,1,140
468,100,74129,2,0,L|468:176,1,70
476,264,74504,1,0,0:0:0:0:
468,364,74754,2,0,P|388:320|244:292,1,210
152,352,75254,2,0,P|136:308|168:212,2,140
368,216,76004,2,0,P|376:168|340:64,2,140
284,312,76629,2,0,L|284:268,2,35
220,156,76879,2,0,L|220:208,2,35
124,344,77129,2,0,B|116:284|144:248|124:188,1,140
