osu file format v14

[General]
AudioFilename: Dunderpatrullen_Tumba_Ping_Pong_Song.mp3
AudioLeadIn: 0
PreviewTime: 50466
Countdown: 0
SampleSet: Soft
StackLeniency: 0.7
Mode: 3
LetterboxInBreaks: 0
SpecialStyle: 0
WidescreenStoryboard: 1

[Editor]
DistanceSpacing: 0.8
BeatDivisor: 4
GridSize: 8
TimelineZoom: 1.6

[Metadata]
Title:Tumba Ping Pong Song
TitleUnicode:Tumba Ping Pong Song
Artist:Dunderpatrullen
ArtistUnicode:Dunderpatrullen
Creator:ModernTiger
Version:7K Ping Pong Master
Source:
Tags:techno
BeatmapID:667468
BeatmapSetID:297333

[Difficulty]
HPDrainRate:8
CircleSize:7
OverallDifficulty:7
ApproachRate:7
SliderMultiplier:1.50000000596046
SliderTickRate:1

[Events]
//Background and Video events
0,0,"keep-calm-lets-play-ping-pong.jpg",0,0
//Break Periods
//Storyboard Layer 0 (Background)
//Storyboard Layer 1 (Fail)
//Storyboard Layer 2 (Pass)
//Storyboard Layer 3 (Foreground)
//Storyboard Sound Samples

[TimingPoints]
65,333.333333333333,4,2,1,10,1,0
53398,-100,4,2,1,10,0,1
74731,-100,4,2,1,10,0,0
109731,-100,4,2,1,10,0,1
130731,-100,4,2,1,10,0,0

[HitObjects]
109,192,65,5,0,0:0:0:0:
402,192,398,1,0,0:0:0:0:
109,192,898,1,0,0:0:0:0:
402,192,1064,1,0,0:0:0:0:
109,192,1398,1,0,0:0:0:0:
402,192,1731,1,0,0:0:0:0:
109,192,2231,1,0,0:0:0:0:
402,192,2398,1,0,0:0:0:0:
109,192,2564,1,0,0:0:0:0:
109,192,2731,1,0,0:0:0:0:
402,192,3064,1,0,0:0:0:0:
109,192,3564,1,0,0:0:0:0:
402,192,3731,1,0,0:0:0:0:
109,192,4064,1,0,0:0:0:0:
402,192,4398,1,0,0:0:0:0:
109,192,4564,1,0,0:0:0:0:
36,192,4731,1,0,0:0:0:0:
36,192,4898,1,0,0:0:0:0:
402,192,5064,1,0,0:0:0:0:
402,192,5231,1,0,0:0:0:0:
109,192,5398,1,0,0:0:0:0:
402,192,5564,1,0,0:0:0:0:
109,192,5731,1,0,0:0:0:0:
475,192,5898,1,0,0:0:0:0:
475,192,6231,1,0,0:0:0:0:
182,192,6398,1,0,0:0:0:0:
109,192,6564,1,0,0:0:0:0:
36,192,6731,1,0,0:0:0:0:
475,192,6898,1,0,0:0:0:0:
256,192,7064,1,0,0:0:0:0:
475,192,7231,1,0,0:0:0:0:
109,192,7564,1,0,0:0:0:0:
109,192,7731,1,0,0:0:0:0:
182,192,7898,1,0,0:0:0:0:
182,192,8064,1,0,0:0:0:0:
109,192,8231,1,0,0:0:0:0:
36,192,8398,1,0,0:0:0:0:
402,192,8564,1,0,0:0:0:0:
402,192,8898,1,0,0:0:0:0:
109,192,9064,1,0,0:0:0:0:
109,192,9231,1,0,0:0:0:0:
402,192,9398,1,0,0:0:0:0:
402,192,9731,1,0,0:0:0:0:
109,192,9898,1,0,0:0:0:0:
36,192,10064,128,0,10231:0:0:0:0:
475,192,10231,128,0,10398:0:0:0:0:
36,192,10398,128,0,10564:0:0:0:0:
475,192,10564,128,0,10731:0:0:0:0:
182,192,10731,1,0,0:0:0:0:
182,192,10898,1,0,0:0:0:0:
329,192,11064,1,0,0:0:0:0:
329,192,11398,1,0,0:0:0:0:
182,192,11564,1,0,0:0:0:0:
182,192,11731,1,0,0:0:0:0:
182,192,11898,1,0,0:0:0:0:
329,192,12064,1,0,0:0:0:0:
329,192,12398,1,0,0:0:0:0:
182,192,12731,1,0,0:0:0:0:
182,192,12898,1,0,0:0:0:0:
329,192,13064,1,0,0:0:0:0:
182,192,13231,1,0,0:0:0:0:
36,192,13398,1,0,0:0:0:0:
36,192,13564,1,0,0:0:0:0:
182,192,13731,1,0,0:0:0:0:
402,192,14064,1,0,0:0:0:0:
109,192,14231,1,0,0:0:0:0:
109,192,14398,1,0,0:0:0:0:
109,192,14564,1,0,0:0:0:0:
402,192,14731,1,0,0:0:0:0:
182,192,14731,1,0,0:0:0:0:
256,192,14898,1,0,0:0:0:0:
402,192,15064,1,0,0:0:0:0:
256,192,15064,1,0,0:0:0:0:
182,192,15231,1,0,0:0:0:0:
402,192,15398,1,0,0:0:0:0:
256,192,15398,1,0,0:0:0:0:
329,192,15564,1,0,0:0:0:0:
182,192,15564,1,0,0:0:0:0:
402,192,15731,1,0,0:0:0:0:
256,192,15731,1,0,0:0:0:0:
36,192,16064,1,0,0:0:0:0:
256,192,16064,1,0,0:0:0:0:
36,192,16231,1,0,0:0:0:0:
329,192,16231,1,0,0:0:0:0:
182,192,16398,1,0,0:0:0:0:
329,192,16398,1,0,0:0:0:0:
36,192,16564,1,0,0:0:0:0:
256,192,16564,1,0,0:0:0:0:
402,192,16731,128,0,16898:0:0:0:0:
36,192,16898,1,0,0:0:0:0:
329,192,16898,1,0,0:0:0:0:
182,192,17064,1,0,0:0:0:0:
256,192,17064,1,0,0:0:0:0:
36,192,17231,1,0,0:0:0:0:
329,192,17231,1,0,0:0:0:0:
36,192,17398,1,0,0:0:0:0:
329,192,17398,1,0,0:0:0:0:
182,192,17564,1,0,0:0:0:0:
329,192,17564,1,0,0:0:0:0:
182,192,17731,1,0,0:0:0:0:
475,192,17731,1,0,0:0:0:0:
36,192,17898,1,0,0:0:0:0:
475,192,17898,1,0,0:0:0:0:
402,192,18064,1,0,0:0:0:0:
182,192,18231,1,0,0:0:0:0:
329,192,18231,1,0,0:0:0:0:
36,192,18398,1,0,0:0:0:0:
256,192,18398,1,0,0:0:0:0:
182,192,18564,1,0,0:0:0:0:
329,192,18564,1,0,0:0:0:0:
329,192,18648,1,0,0:0:0:0:
36,192,18731,1,0,0:0:0:0:
256,192,18731,1,0,0:0:0:0:
182,192,18898,1,0,0:0:0:0:
329,192,18898,1,0,0:0:0:0:
182,192,19064,1,0,0:0:0:0:
329,192,19064,1,0,0:0:0:0:
36,192,19231,1,0,0:0:0:0:
256,192,19231,1,0,0:0:0:0:
182,192,19398,1,0,0:0:0:0:
402,192,19398,1,0,0:0:0:0:
36,192,19564,1,0,0:0:0:0:
329,192,19564,1,0,0:0:0:0:
36,192,19731,1,0,0:0:0:0:
256,192,19731,1,0,0:0:0:0:
329,192,19898,1,0,0:0:0:0:
109,192,19898,1,0,0:0:0:0:
182,192,20064,1,0,0:0:0:0:
256,192,20064,1,0,0:0:0:0:
329,192,20231,1,0,0:0:0:0:
256,192,20231,1,0,0:0:0:0:
182,192,20398,1,0,0:0:0:0:
256,192,20398,1,0,0:0:0:0:
329,192,20564,1,0,0:0:0:0:
256,192,20564,1,0,0:0:0:0:
109,192,20731,1,0,0:0:0:0:
402,192,20731,1,0,0:0:0:0:
475,192,20731,128,0,20898:0:0:0:0:
256,192,20898,128,0,21064:0:0:0:0:
329,192,21064,1,0,0:0:0:0:
402,192,21064,1,0,0:0:0:0:
182,192,21064,1,0,0:0:0:0:
109,192,21064,1,0,0:0:0:0:
36,192,21398,1,0,0:0:0:0:
329,192,21398,1,0,0:0:0:0:
329,192,21564,1,0,0:0:0:0:
182,192,21564,1,0,0:0:0:0:
182,192,21731,1,0,0:0:0:0:
475,192,21731,1,0,0:0:0:0:
36,192,21898,1,0,0:0:0:0:
182,192,22064,1,0,0:0:0:0:
475,192,22064,1,0,0:0:0:0:
109,192,22231,1,0,0:0:0:0:
36,192,22398,1,0,0:0:0:0:
475,192,22398,1,0,0:0:0:0:
329,192,22564,1,0,0:0:0:0:
109,192,22564,1,0,0:0:0:0:
109,192,22731,128,0,22981:0:0:0:0:
475,192,22731,1,0,0:0:0:0:
109,192,23064,128,0,23314:0:0:0:0:
475,192,23064,1,0,0:0:0:0:
182,192,23398,1,0,0:0:0:0:
475,192,23398,1,0,0:0:0:0:
36,192,23564,1,0,0:0:0:0:
329,192,23564,1,0,0:0:0:0:
109,192,23731,128,0,24064:0:0:0:0:
329,192,23731,1,0,0:0:0:0:
475,192,23898,1,0,0:0:0:0:
256,192,24064,1,0,0:0:0:0:
36,192,24064,1,0,0:0:0:0:
329,192,24231,1,0,0:0:0:0:
182,192,24231,1,0,0:0:0:0:
329,192,24398,1,0,0:0:0:0:
182,192,24398,1,0,0:0:0:0:
256,192,24564,1,0,0:0:0:0:
402,192,24731,1,0,0:0:0:0:
182,192,24731,1,0,0:0:0:0:
329,192,24898,1,0,0:0:0:0:
36,192,24898,1,0,0:0:0:0:
256,192,25064,1,0,0:0:0:0:
36,192,25064,1,0,0:0:0:0:
329,192,25231,1,0,0:0:0:0:
182,192,25231,1,0,0:0:0:0:
329,192,25564,1,0,0:0:0:0:
109,192,25731,1,0,0:0:0:0:
182,192,25752,1,0,0:0:0:0:
256,192,25773,1,0,0:0:0:0:
329,192,25794,1,0,0:0:0:0:
109,192,26064,1,0,0:0:0:0:
36,192,26064,1,0,0:0:0:0:
182,192,26085,1,0,0:0:0:0:
256,192,26106,1,0,0:0:0:0:
329,192,26127,1,0,0:0:0:0:
475,192,26231,1,0,0:0:0:0:
36,192,26398,1,0,0:0:0:0:
475,192,26564,1,0,0:0:0:0:
109,192,26731,1,0,0:0:0:0:
329,192,26898,1,0,0:0:0:0:
182,192,26898,1,0,0:0:0:0:
402,192,27064,1,0,0:0:0:0:
182,192,27064,1,0,0:0:0:0:
329,192,27231,1,0,0:0:0:0:
109,192,27231,1,0,0:0:0:0:
402,192,27398,1,0,0:0:0:0:
329,192,27564,1,0,0:0:0:0:
109,192,27564,1,0,0:0:0:0:
256,192,27731,1,0,0:0:0:0:
182,192,27731,1,0,0:0:0:0:
329,192,27898,1,0,0:0:0:0:
109,192,27898,1,0,0:0:0:0:
402,192,28064,1,0,0:0:0:0:
109,192,28064,1,0,0:0:0:0:
182,192,28231,1,0,0:0:0:0:
475,192,28398,128,0,28564:0:0:0:0:
182,192,28398,1,0,0:0:0:0:
109,192,28564,1,0,0:0:0:0:
402,192,28731,128,0,28898:0:0:0:0:
182,192,28731,1,0,0:0:0:0:
329,192,28898,128,0,29064:0:0:0:0:
109,192,28898,1,0,0:0:0:0:
256,192,29064,128,0,29231:0:0:0:0:
36,192,29064,1,0,0:0:0:0:
329,192,29231,128,0,29398:0:0:0:0:
182,192,29231,1,0,0:0:0:0:
36,192,29398,1,0,0:0:0:0:
182,192,29398,1,0,0:0:0:0:
109,192,29398,1,0,0:0:0:0:
256,192,29398,1,0,0:0:0:0:
329,192,29731,1,0,0:0:0:0:
475,192,29731,1,0,0:0:0:0:
402,192,29731,1,0,0:0:0:0:
256,192,29731,1,0,0:0:0:0:
36,192,29898,1,0,0:0:0:0:
182,192,29898,1,0,0:0:0:0:
109,192,29898,1,0,0:0:0:0:
256,192,29898,1,0,0:0:0:0:
329,192,30231,1,0,0:0:0:0:
475,192,30231,1,0,0:0:0:0:
402,192,30231,1,0,0:0:0:0:
256,192,30231,1,0,0:0:0:0:
36,192,30398,1,0,0:0:0:0:
182,192,30398,1,0,0:0:0:0:
109,192,30398,1,0,0:0:0:0:
256,192,30398,1,0,0:0:0:0:
329,192,30731,1,0,0:0:0:0:
475,192,30731,1,0,0:0:0:0:
402,192,30731,1,0,0:0:0:0:
36,192,30898,1,0,0:0:0:0:
182,192,30898,1,0,0:0:0:0:
109,192,30898,1,0,0:0:0:0:
256,192,31064,1,0,0:0:0:0:
256,192,31231,128,0,31398:0:0:0:0:
402,192,31398,128,0,31731:0:0:0:0:
475,192,31564,1,0,0:0:0:0:
475,192,31731,1,0,0:0:0:0:
182,192,31731,128,0,32064:0:0:0:0:
475,192,31898,1,0,0:0:0:0:
36,192,32064,1,0,0:0:0:0:
256,192,32064,1,0,0:0:0:0:
109,192,32231,1,0,0:0:0:0:
109,192,32398,1,0,0:0:0:0:
256,192,32398,128,0,32564:0:0:0:0:
402,192,32564,1,0,0:0:0:0:
36,192,32648,1,0,0:0:0:0:
109,192,32731,1,0,0:0:0:0:
402,192,32898,1,0,0:0:0:0:
109,192,33064,1,0,0:0:0:0:
36,192,33231,1,0,0:0:0:0:
402,192,33231,1,0,0:0:0:0:
109,192,33398,1,0,0:0:0:0:
402,192,33564,1,0,0:0:0:0:
36,192,33648,1,0,0:0:0:0:
109,192,33731,1,0,0:0:0:0:
109,192,33898,1,0,0:0:0:0:
36,192,33898,1,0,0:0:0:0:
402,192,33898,1,0,0:0:0:0:
36,192,34064,1,0,0:0:0:0:
475,192,34064,1,0,0:0:0:0:
109,192,34231,1,0,0:0:0:0:
402,192,34231,1,0,0:0:0:0:
109,192,34398,1,0,0:0:0:0:
475,192,34398,1,0,0:0:0:0:
109,192,34564,1,0,0:0:0:0:
36,192,34564,1,0,0:0:0:0:
402,192,34564,1,0,0:0:0:0:
36,192,34731,1,0,0:0:0:0:
109,192,34898,1,0,0:0:0:0:
256,192,34898,1,0,0:0:0:0:
109,192,35064,1,0,0:0:0:0:
329,192,35064,1,0,0:0:0:0:
402,192,35231,1,0,0:0:0:0:
36,192,35314,1,0,0:0:0:0:
109,192,35398,1,0,0:0:0:0:
329,192,35564,1,0,0:0:0:0:
109,192,35731,1,0,0:0:0:0:
256,192,35731,1,0,0:0:0:0:
36,192,35898,1,0,0:0:0:0:
329,192,35898,1,0,0:0:0:0:
109,192,36064,1,0,0:0:0:0:
402,192,36064,1,0,0:0:0:0:
256,192,36231,1,0,0:0:0:0:
36,192,36314,1,0,0:0:0:0:
109,192,36398,1,0,0:0:0:0:
475,192,36398,1,0,0:0:0:0:
36,192,36564,1,0,0:0:0:0:
109,192,36564,1,0,0:0:0:0:
256,192,36564,1,0,0:0:0:0:
36,192,36731,1,0,0:0:0:0:
402,192,36731,1,0,0:0:0:0:
109,192,36898,1,0,0:0:0:0:
329,192,36898,1,0,0:0:0:0:
109,192,37064,1,0,0:0:0:0:
256,192,37064,1,0,0:0:0:0:
109,192,37231,1,0,0:0:0:0:
36,192,37231,1,0,0:0:0:0:
402,192,37231,1,0,0:0:0:0:
182,192,37398,1,0,0:0:0:0:
256,192,37398,1,0,0:0:0:0:
329,192,37398,1,0,0:0:0:0:
182,192,37731,1,0,0:0:0:0:
256,192,37731,1,0,0:0:0:0:
329,192,37731,1,0,0:0:0:0:
402,192,37898,1,0,0:0:0:0:
182,192,38064,1,0,0:0:0:0:
256,192,38064,1,0,0:0:0:0:
329,192,38064,1,0,0:0:0:0:
402,192,38231,1,0,0:0:0:0:
182,192,38398,1,0,0:0:0:0:
256,192,38398,1,0,0:0:0:0:
329,192,38398,1,0,0:0:0:0:
402,192,38564,1,0,0:0:0:0:
182,192,38731,1,0,0:0:0:0:
256,192,38731,1,0,0:0:0:0:
329,192,38731,1,0,0:0:0:0:
402,192,38898,1,0,0:0:0:0:
182,192,39064,1,0,0:0:0:0:
256,192,39064,1,0,0:0:0:0:
329,192,39064,1,0,0:0:0:0:
402,192,39231,1,0,0:0:0:0:
182,192,39398,1,0,0:0:0:0:
256,192,39398,1,0,0:0:0:0:
329,192,39398,1,0,0:0:0:0:
475,192,39398,1,0,0:0:0:0:
402,192,39564,1,0,0:0:0:0:
182,192,39731,1,0,0:0:0:0:
256,192,39731,1,0,0:0:0:0:
329,192,39731,1,0,0:0:0:0:
256,192,39898,1,0,0:0:0:0:
36,192,39898,1,0,0:0:0:0:
475,192,39898,1,0,0:0:0:0:
256,192,40231,1,0,0:0:0:0:
36,192,40231,1,0,0:0:0:0:
402,192,40398,1,0,0:0:0:0:
109,192,40398,1,0,0:0:0:0:
256,192,40564,1,0,0:0:0:0:
182,192,40564,1,0,0:0:0:0:
402,192,40731,1,0,0:0:0:0:
182,192,40898,1,0,0:0:0:0:
36,192,41064,1,0,0:0:0:0:
329,192,41064,1,0,0:0:0:0:
109,192,41231,1,0,0:0:0:0:
329,192,41231,1,0,0:0:0:0:
256,192,41398,1,0,0:0:0:0:
182,192,41398,1,0,0:0:0:0:
36,192,41564,1,0,0:0:0:0:
256,192,41731,1,0,0:0:0:0:
329,192,41731,1,0,0:0:0:0:
402,192,41898,1,0,0:0:0:0:
182,192,41898,1,0,0:0:0:0:
36,192,41898,1,0,0:0:0:0:
256,192,42064,1,0,0:0:0:0:
329,192,42064,1,0,0:0:0:0:
182,192,42064,1,0,0:0:0:0:
402,192,42231,1,0,0:0:0:0:
182,192,42231,1,0,0:0:0:0:
109,192,42231,1,0,0:0:0:0:
256,192,42398,1,0,0:0:0:0:
329,192,42398,128,0,42648:0:0:0:0:
36,192,42398,1,0,0:0:0:0:
402,192,42564,1,0,0:0:0:0:
109,192,42564,1,0,0:0:0:0:
475,192,42731,1,0,0:0:0:0:
256,192,42898,1,0,0:0:0:0:
109,192,42898,1,0,0:0:0:0:
182,192,42981,1,0,0:0:0:0:
36,192,42981,1,0,0:0:0:0:
256,192,43064,1,0,0:0:0:0:
109,192,43064,1,0,0:0:0:0:
475,192,43231,1,0,0:0:0:0:
256,192,43398,1,0,0:0:0:0:
109,192,43398,1,0,0:0:0:0:
182,192,43481,1,0,0:0:0:0:
36,192,43481,1,0,0:0:0:0:
256,192,43564,1,0,0:0:0:0:
109,192,43564,1,0,0:0:0:0:
475,192,43731,1,0,0:0:0:0:
256,192,43898,1,0,0:0:0:0:
109,192,43898,1,0,0:0:0:0:
182,192,43981,1,0,0:0:0:0:
36,192,43981,1,0,0:0:0:0:
256,192,44064,1,0,0:0:0:0:
109,192,44064,1,0,0:0:0:0:
402,192,44231,1,0,0:0:0:0:
182,192,44314,1,0,0:0:0:0:
329,192,44398,1,0,0:0:0:0:
36,192,44564,1,0,0:0:0:0:
329,192,44731,1,0,0:0:0:0:
182,192,44898,1,0,0:0:0:0:
402,192,45064,128,0,45314:0:0:0:0:
329,192,45398,1,0,0:0:0:0:
256,192,45564,1,0,0:0:0:0:
182,192,45564,1,0,0:0:0:0:
109,192,45648,1,0,0:0:0:0:
36,192,45648,1,0,0:0:0:0:
182,192,45731,1,0,0:0:0:0:
256,192,45731,1,0,0:0:0:0:
329,192,45898,1,0,0:0:0:0:
182,192,46064,1,0,0:0:0:0:
256,192,46064,1,0,0:0:0:0:
109,192,46148,1,0,0:0:0:0:
36,192,46148,1,0,0:0:0:0:
182,192,46231,1,0,0:0:0:0:
256,192,46231,1,0,0:0:0:0:
329,192,46398,1,0,0:0:0:0:
109,192,46564,1,0,0:0:0:0:
402,192,46564,1,0,0:0:0:0:
182,192,46648,1,0,0:0:0:0:
475,192,46648,1,0,0:0:0:0:
36,192,46731,1,0,0:0:0:0:
256,192,46731,1,0,0:0:0:0:
329,192,46898,1,0,0:0:0:0:
36,192,47064,1,0,0:0:0:0:
256,192,47064,1,0,0:0:0:0:
109,192,47148,1,0,0:0:0:0:
329,192,47148,1,0,0:0:0:0:
36,192,47231,1,0,0:0:0:0:
256,192,47231,1,0,0:0:0:0:
402,192,47398,1,0,0:0:0:0:
256,192,47731,1,0,0:0:0:0:
256,192,48064,1,0,0:0:0:0:
109,192,48064,1,0,0:0:0:0:
402,192,48148,1,0,0:0:0:0:
109,192,48231,1,0,0:0:0:0:
402,192,48314,1,0,0:0:0:0:
109,192,48398,1,0,0:0:0:0:
402,192,48481,1,0,0:0:0:0:
109,192,48564,1,0,0:0:0:0:
402,192,48648,1,0,0:0:0:0:
109,192,48731,1,0,0:0:0:0:
402,192,48814,1,0,0:0:0:0:
109,192,48898,1,0,0:0:0:0:
402,192,48981,1,0,0:0:0:0:
256,192,49064,1,0,0:0:0:0:
109,192,49064,1,0,0:0:0:0:
402,192,49148,1,0,0:0:0:0:
109,192,49231,1,0,0:0:0:0:
402,192,49314,1,0,0:0:0:0:
256,192,49398,1,0,0:0:0:0:
36,192,49398,1,0,0:0:0:0:
109,192,49398,1,0,0:0:0:0:
182,192,49398,1,0,0:0:0:0:
402,192,49481,1,0,0:0:0:0:
475,192,49481,1,0,0:0:0:0:
36,192,49564,1,0,0:0:0:0:
109,192,49564,1,0,0:0:0:0:
402,192,49648,1,0,0:0:0:0:
475,192,49648,1,0,0:0:0:0:
36,192,49731,1,0,0:0:0:0:
109,192,49731,1,0,0:0:0:0:
182,192,49731,1,0,0:0:0:0:
402,192,49814,1,0,0:0:0:0:
475,192,49814,1,0,0:0:0:0:
36,192,49898,1,0,0:0:0:0:
109,192,49898,1,0,0:0:0:0:
402,192,49981,1,0,0:0:0:0:
475,192,49981,1,0,0:0:0:0:
36,192,50064,1,0,0:0:0:0:
109,192,50064,1,0,0:0:0:0:
182,192,50064,1,0,0:0:0:0:
402,192,50148,1,0,0:0:0:0:
475,192,50148,1,0,0:0:0:0:
36,192,50231,1,0,0:0:0:0:
109,192,50231,1,0,0:0:0:0:
329,192,50231,1,0,0:0:0:0:
402,192,50314,1,0,0:0:0:0:
475,192,50314,1,0,0:0:0:0:
36,192,50398,1,0,0:0:0:0:
109,192,50398,1,0,0:0:0:0:
182,192,50398,1,0,0:0:0:0:
329,192,50481,1,0,0:0:0:0:
402,192,50481,1,0,0:0:0:0:
475,192,50481,1,0,0:0:0:0:
36,192,50564,1,0,0:0:0:0:
109,192,50564,1,0,0:0:0:0:
182,192,50564,1,0,0:0:0:0:
329,192,50648,1,0,0:0:0:0:
402,192,50648,1,0,0:0:0:0:
475,192,50648,1,0,0:0:0:0:
256,192,50731,1,0,0:0:0:0:
256,192,51231,1,0,0:0:0:0:
329,192,51564,1,0,0:0:0:0:
402,192,51731,1,0,0:0:0:0:
329,192,51898,1,0,0:0:0:0:
475,192,52064,1,0,0:0:0:0:
256,192,52064,1,0,0:0:0:0:
36,192,52231,1,0,0:0:0:0:
402,192,52398,1,0,0:0:0:0:
256,192,52398,1,0,0:0:0:0:
36,192,52564,1,0,0:0:0:0:
256,192,52731,1,0,0:0:0:0:
36,192,52731,1,0,0:0:0:0:
109,192,52898,1,0,0:0:0:0:
329,192,52898,1,0,0:0:0:0:
182,192,53064,1,0,0:0:0:0:
402,192,53064,1,0,0:0:0:0:
256,192,53231,1,0,0:0:0:0:
475,192,53231,1,0,0:0:0:0:
182,192,53398,1,0,0:0:0:0:
329,192,53398,128,0,53564:0:0:0:0:
402,192,53398,128,0,53564:0:0:0:0:
109,192,53564,1,0,0:0:0:0:
36,192,53731,1,0,0:0:0:0:
329,192,53731,128,0,53898:0:0:0:0:
402,192,53731,128,0,53898:0:0:0:0:
109,192,53898,1,0,0:0:0:0:
182,192,54064,1,0,0:0:0:0:
329,192,54064,128,0,54231:0:0:0:0:
402,192,54064,128,0,54231:0:0:0:0:
109,192,54231,1,0,0:0:0:0:
329,192,54398,1,0,0:0:0:0:
36,192,54398,1,0,0:0:0:0:
402,192,54398,1,0,0:0:0:0:
109,192,54564,1,0,0:0:0:0:
402,192,54564,128,0,54898:0:0:0:0:
475,192,54564,128,0,54898:0:0:0:0:
182,192,54898,1,0,0:0:0:0:
36,192,55064,1,0,0:0:0:0:
402,192,55064,128,0,55231:0:0:0:0:
475,192,55064,128,0,55231:0:0:0:0:
109,192,55231,1,0,0:0:0:0:
402,192,55398,128,0,55564:0:0:0:0:
475,192,55398,128,0,55564:0:0:0:0:
182,192,55398,1,0,0:0:0:0:
329,192,55564,128,0,55731:0:0:0:0:
256,192,55564,128,0,55731:0:0:0:0:
402,192,55731,128,0,55898:0:0:0:0:
182,192,55731,1,0,0:0:0:0:
475,192,55731,128,0,55898:0:0:0:0:
329,192,56064,128,0,58398:0:0:0:0:
475,192,56064,128,0,58398:0:0:0:0:
182,192,56064,1,0,0:0:0:0:
256,192,56064,1,0,0:0:0:0:
109,192,56231,1,0,0:0:0:0:
36,192,56398,1,0,0:0:0:0:
256,192,56398,1,0,0:0:0:0:
109,192,56564,1,0,0:0:0:0:
182,192,56731,1,0,0:0:0:0:
256,192,56731,1,0,0:0:0:0:
109,192,56898,1,0,0:0:0:0:
36,192,57064,1,0,0:0:0:0:
256,192,57064,1,0,0:0:0:0:
109,192,57231,1,0,0:0:0:0:
256,192,57231,1,0,0:0:0:0:
182,192,57398,1,0,0:0:0:0:
36,192,57564,1,0,0:0:0:0:
256,192,57564,1,0,0:0:0:0:
402,192,57731,1,0,0:0:0:0:
256,192,57731,1,0,0:0:0:0:
36,192,57898,1,0,0:0:0:0:
256,192,57898,1,0,0:0:0:0:
256,192,58064,1,0,0:0:0:0:
402,192,58064,1,0,0:0:0:0:
182,192,58231,1,0,0:0:0:0:
256,192,58398,1,0,0:0:0:0:
402,192,58398,1,0,0:0:0:0:
329,192,58564,1,0,0:0:0:0:
109,192,58731,128,0,58981:0:0:0:0:
182,192,58731,128,0,58981:0:0:0:0:
182,192,59064,128,0,59314:0:0:0:0:
329,192,59064,128,0,59314:0:0:0:0:
256,192,59398,128,0,59648:0:0:0:0:
329,192,59398,128,0,59648:0:0:0:0:
256,192,59731,128,0,59814:0:0:0:0:
329,192,59731,128,0,59814:0:0:0:0:
256,192,59898,128,0,60064:0:0:0:0:
402,192,59898,128,0,60064:0:0:0:0:
475,192,60231,128,0,60398:0:0:0:0:
329,192,60231,128,0,60398:0:0:0:0:
402,192,60398,128,0,60564:0:0:0:0:
256,192,60398,128,0,60564:0:0:0:0:
36,192,60564,1,0,0:0:0:0:
109,192,60564,1,0,0:0:0:0:
402,192,60752,1,0,0:0:0:0:
475,192,60814,128,0,61064:0:0:0:0:
329,192,61231,128,0,63731:0:0:0:0:
475,192,61398,1,0,0:0:0:0:
256,192,61398,1,0,0:0:0:0:
402,192,61564,1,0,0:0:0:0:
182,192,61731,1,0,0:0:0:0:
256,192,61731,1,0,0:0:0:0:
109,192,61898,1,0,0:0:0:0:
36,192,62064,1,0,0:0:0:0:
256,192,62064,1,0,0:0:0:0:
182,192,62231,1,0,0:0:0:0:
256,192,62398,1,0,0:0:0:0:
402,192,62398,1,0,0:0:0:0:
182,192,62564,1,0,0:0:0:0:
256,192,62564,1,0,0:0:0:0:
109,192,62731,1,0,0:0:0:0:
256,192,62898,1,0,0:0:0:0:
36,192,62898,1,0,0:0:0:0:
109,192,63064,1,0,0:0:0:0:
256,192,63064,1,0,0:0:0:0:
256,192,63231,1,0,0:0:0:0:
36,192,63231,1,0,0:0:0:0:
256,192,63398,1,0,0:0:0:0:
475,192,63398,1,0,0:0:0:0:
109,192,63564,1,0,0:0:0:0:
256,192,63731,1,0,0:0:0:0:
475,192,63731,1,0,0:0:0:0:
109,192,63898,1,0,0:0:0:0:
256,192,64064,1,0,0:0:0:0:
329,192,64064,1,0,0:0:0:0:
109,192,64064,1,0,0:0:0:0:
36,192,64064,1,0,0:0:0:0:
329,192,64398,1,0,0:0:0:0:
402,192,64398,1,0,0:0:0:0:
109,192,64398,1,0,0:0:0:0:
182,192,64398,1,0,0:0:0:0:
329,192,64731,1,0,0:0:0:0:
402,192,64731,1,0,0:0:0:0:
109,192,64731,1,0,0:0:0:0:
182,192,64731,1,0,0:0:0:0:
329,192,65064,1,0,0:0:0:0:
402,192,65064,1,0,0:0:0:0:
109,192,65064,1,0,0:0:0:0:
182,192,65064,1,0,0:0:0:0:
475,192,65231,1,0,0:0:0:0:
329,192,65231,1,0,0:0:0:0:
109,192,65231,1,0,0:0:0:0:
256,192,65231,1,0,0:0:0:0:
329,192,65398,1,0,0:0:0:0:
402,192,65398,1,0,0:0:0:0:
109,192,65398,1,0,0:0:0:0:
182,192,65398,1,0,0:0:0:0:
329,192,65731,1,0,0:0:0:0:
402,192,65731,1,0,0:0:0:0:
109,192,65731,1,0,0:0:0:0:
182,192,65731,1,0,0:0:0:0:
329,192,66064,1,0,0:0:0:0:
256,192,66064,1,0,0:0:0:0:
36,192,66064,1,0,0:0:0:0:
109,192,66064,1,0,0:0:0:0:
402,192,66231,1,0,0:0:0:0:
329,192,66231,1,0,0:0:0:0:
182,192,66231,1,0,0:0:0:0:
109,192,66231,1,0,0:0:0:0:
475,192,66398,1,0,0:0:0:0:
402,192,66398,1,0,0:0:0:0:
182,192,66398,1,0,0:0:0:0:
256,192,66398,1,0,0:0:0:0:
329,192,66731,128,0,69064:0:0:0:0:
109,192,66731,1,0,0:0:0:0:
256,192,66731,1,0,0:0:0:0:
182,192,66898,1,0,0:0:0:0:
402,192,67064,1,0,0:0:0:0:
256,192,67064,1,0,0:0:0:0:
36,192,67231,1,0,0:0:0:0:
109,192,67398,1,0,0:0:0:0:
256,192,67398,1,0,0:0:0:0:
182,192,67564,1,0,0:0:0:0:
402,192,67731,1,0,0:0:0:0:
256,192,67731,1,0,0:0:0:0:
109,192,67898,1,0,0:0:0:0:
36,192,67898,1,0,0:0:0:0:
256,192,68064,1,0,0:0:0:0:
109,192,68231,1,0,0:0:0:0:
36,192,68231,1,0,0:0:0:0:
402,192,68398,1,0,0:0:0:0:
182,192,68398,1,0,0:0:0:0:
109,192,68564,1,0,0:0:0:0:
256,192,68564,1,0,0:0:0:0:
109,192,68731,1,0,0:0:0:0:
475,192,68731,1,0,0:0:0:0:
256,192,68898,1,0,0:0:0:0:
402,192,69064,1,0,0:0:0:0:
182,192,69064,1,0,0:0:0:0:
36,192,69231,1,0,0:0:0:0:
256,192,69398,128,0,69898:0:0:0:0:
402,192,69398,128,0,69898:0:0:0:0:
182,192,69898,128,0,70398:0:0:0:0:
329,192,69898,128,0,70398:0:0:0:0:
36,192,70398,128,0,70731:0:0:0:0:
109,192,70398,128,0,70731:0:0:0:0:
402,192,70731,128,0,71231:0:0:0:0:
256,192,70731,128,0,71231:0:0:0:0:
475,192,71231,128,0,71731:0:0:0:0:
329,192,71231,128,0,71731:0:0:0:0:
109,192,71731,128,0,73398:0:0:0:0:
182,192,72064,1,0,0:0:0:0:
402,192,72398,1,0,0:0:0:0:
182,192,72731,1,0,0:0:0:0:
402,192,73064,1,0,0:0:0:0:
182,192,73231,1,0,0:0:0:0:
475,192,73564,1,0,0:0:0:0:
329,192,73898,1,0,0:0:0:0:
36,192,74064,128,0,74231:0:0:0:0:
109,192,74231,128,0,74398:0:0:0:0:
182,192,74398,128,0,74564:0:0:0:0:
256,192,74564,128,0,74731:0:0:0:0:
109,192,74731,1,0,0:0:0:0:
402,192,74898,1,0,0:0:0:0:
109,192,75064,1,0,0:0:0:0:
402,192,75231,1,0,0:0:0:0:
402,192,75564,1,0,0:0:0:0:
402,192,75898,1,0,0:0:0:0:
256,192,76064,128,0,77148:0:0:0:0:
402,192,76231,1,0,0:0:0:0:
402,192,76564,1,0,0:0:0:0:
402,192,76898,1,0,0:0:0:0:
256,192,77231,1,0,0:0:0:0:
475,192,77398,1,0,0:0:0:0:
256,192,77398,1,0,0:0:0:0:
36,192,77731,1,0,0:0:0:0:
256,192,77731,1,0,0:0:0:0:
475,192,78064,1,0,0:0:0:0:
256,192,78064,1,0,0:0:0:0:
36,192,78398,1,0,0:0:0:0:
256,192,78398,1,0,0:0:0:0:
36,192,78731,1,0,0:0:0:0:
256,192,78731,1,0,0:0:0:0:
475,192,78898,1,0,0:0:0:0:
36,192,79064,1,0,0:0:0:0:
256,192,79064,1,0,0:0:0:0:
475,192,79231,1,0,0:0:0:0:
36,192,79398,1,0,0:0:0:0:
256,192,79398,1,0,0:0:0:0:
475,192,79564,1,0,0:0:0:0:
36,192,79731,1,0,0:0:0:0:
256,192,79898,1,0,0:0:0:0:
256,192,80064,1,0,0:0:0:0:
475,192,80064,1,0,0:0:0:0:
256,192,80398,1,0,0:0:0:0:
36,192,80398,1,0,0:0:0:0:
256,192,80731,1,0,0:0:0:0:
475,192,80731,1,0,0:0:0:0:
256,192,81064,1,0,0:0:0:0:
36,192,81064,1,0,0:0:0:0:
256,192,81398,1,0,0:0:0:0:
329,192,81398,1,0,0:0:0:0:
36,192,81398,1,0,0:0:0:0:
329,192,81564,1,0,0:0:0:0:
475,192,81564,1,0,0:0:0:0:
256,192,81731,1,0,0:0:0:0:
329,192,81731,1,0,0:0:0:0:
36,192,81731,1,0,0:0:0:0:
329,192,81898,1,0,0:0:0:0:
475,192,81898,1,0,0:0:0:0:
329,192,82064,1,0,0:0:0:0:
256,192,82064,1,0,0:0:0:0:
36,192,82064,1,0,0:0:0:0:
329,192,82231,1,0,0:0:0:0:
475,192,82231,1,0,0:0:0:0:
329,192,82398,128,0,82731:0:0:0:0:
256,192,82398,1,0,0:0:0:0:
475,192,82398,1,0,0:0:0:0:
256,192,82731,1,0,0:0:0:0:
475,192,82731,1,0,0:0:0:0:
329,192,82898,1,0,0:0:0:0:
36,192,83064,1,0,0:0:0:0:
329,192,83064,1,0,0:0:0:0:
256,192,83064,1,0,0:0:0:0:
329,192,83231,1,0,0:0:0:0:
329,192,83398,128,0,83731:0:0:0:0:
256,192,83398,1,0,0:0:0:0:
475,192,83398,1,0,0:0:0:0:
36,192,83731,1,0,0:0:0:0:
256,192,83731,1,0,0:0:0:0:
329,192,83898,1,0,0:0:0:0:
329,192,84064,1,0,0:0:0:0:
256,192,84064,1,0,0:0:0:0:
36,192,84064,1,0,0:0:0:0:
329,192,84231,1,0,0:0:0:0:
109,192,84231,1,0,0:0:0:0:
329,192,84398,1,0,0:0:0:0:
256,192,84398,1,0,0:0:0:0:
36,192,84398,1,0,0:0:0:0:
109,192,84564,1,0,0:0:0:0:
329,192,84564,1,0,0:0:0:0:
256,192,84731,1,0,0:0:0:0:
36,192,84731,1,0,0:0:0:0:
329,192,84731,1,0,0:0:0:0:
109,192,84898,1,0,0:0:0:0:
329,192,84898,1,0,0:0:0:0:
329,192,85064,128,0,85398:0:0:0:0:
256,192,85064,1,0,0:0:0:0:
36,192,85064,1,0,0:0:0:0:
109,192,85148,1,0,0:0:0:0:
182,192,85231,1,0,0:0:0:0:
256,192,85398,1,0,0:0:0:0:
36,192,85398,1,0,0:0:0:0:
329,192,85564,1,0,0:0:0:0:
109,192,85564,1,0,0:0:0:0:
256,192,85731,1,0,0:0:0:0:
329,192,85731,1,0,0:0:0:0:
36,192,85731,1,0,0:0:0:0:
329,192,85898,1,0,0:0:0:0:
109,192,85898,1,0,0:0:0:0:
36,192,86064,1,0,0:0:0:0:
256,192,86064,1,0,0:0:0:0:
329,192,86064,1,0,0:0:0:0:
109,192,86231,1,0,0:0:0:0:
36,192,86398,1,0,0:0:0:0:
182,192,86398,1,0,0:0:0:0:
256,192,86398,1,0,0:0:0:0:
329,192,86398,1,0,0:0:0:0:
109,192,86564,1,0,0:0:0:0:
329,192,86564,1,0,0:0:0:0:
36,192,86731,1,0,0:0:0:0:
256,192,86731,1,0,0:0:0:0:
329,192,86731,1,0,0:0:0:0:
109,192,86898,1,0,0:0:0:0:
329,192,86898,1,0,0:0:0:0:
256,192,87064,1,0,0:0:0:0:
109,192,87064,1,0,0:0:0:0:
329,192,87064,1,0,0:0:0:0:
182,192,87231,1,0,0:0:0:0:
329,192,87231,1,0,0:0:0:0:
182,192,87398,1,0,0:0:0:0:
256,192,87398,1,0,0:0:0:0:
329,192,87398,1,0,0:0:0:0:
329,192,87564,1,0,0:0:0:0:
256,192,87731,1,0,0:0:0:0:
329,192,87731,1,0,0:0:0:0:
402,192,87731,1,0,0:0:0:0:
402,192,87898,1,0,0:0:0:0:
182,192,88064,1,0,0:0:0:0:
329,192,88064,1,0,0:0:0:0:
475,192,88064,1,0,0:0:0:0:
256,192,88064,1,0,0:0:0:0:
36,192,88398,1,0,0:0:0:0:
182,192,88398,1,0,0:0:0:0:
329,192,88398,1,0,0:0:0:0:
256,192,88398,1,0,0:0:0:0:
182,192,88731,1,0,0:0:0:0:
329,192,88731,1,0,0:0:0:0:
475,192,88731,1,0,0:0:0:0:
256,192,88731,1,0,0:0:0:0:
36,192,89064,1,0,0:0:0:0:
182,192,89064,1,0,0:0:0:0:
329,192,89064,1,0,0:0:0:0:
256,192,89064,1,0,0:0:0:0:
402,192,89398,1,0,0:0:0:0:
256,192,89398,1,0,0:0:0:0:
402,192,89731,1,0,0:0:0:0:
256,192,89731,1,0,0:0:0:0:
402,192,90064,1,0,0:0:0:0:
256,192,90064,1,0,0:0:0:0:
36,192,90064,128,0,90231:0:0:0:0:
475,192,90231,128,0,90398:0:0:0:0:
402,192,90398,1,0,0:0:0:0:
256,192,90398,1,0,0:0:0:0:
36,192,90398,128,0,90564:0:0:0:0:
475,192,90564,128,0,90731:0:0:0:0:
402,192,90731,1,0,0:0:0:0:
256,192,90731,1,0,0:0:0:0:
402,192,91064,1,0,0:0:0:0:
256,192,91064,1,0,0:0:0:0:
475,192,91064,1,0,0:0:0:0:
36,192,91231,1,0,0:0:0:0:
402,192,91398,1,0,0:0:0:0:
256,192,91398,1,0,0:0:0:0:
475,192,91398,1,0,0:0:0:0:
256,192,91731,1,0,0:0:0:0:
402,192,91731,1,0,0:0:0:0:
475,192,91731,1,0,0:0:0:0:
36,192,91898,1,0,0:0:0:0:
256,192,92064,1,0,0:0:0:0:
402,192,92064,1,0,0:0:0:0:
475,192,92064,1,0,0:0:0:0:
402,192,92398,1,0,0:0:0:0:
256,192,92398,1,0,0:0:0:0:
475,192,92398,1,0,0:0:0:0:
36,192,92564,1,0,0:0:0:0:
402,192,92731,1,0,0:0:0:0:
256,192,92731,1,0,0:0:0:0:
475,192,92731,1,0,0:0:0:0:
182,192,92731,1,0,0:0:0:0:
329,192,92898,1,0,0:0:0:0:
402,192,93064,1,0,0:0:0:0:
182,192,93064,1,0,0:0:0:0:
256,192,93064,1,0,0:0:0:0:
475,192,93064,1,0,0:0:0:0:
329,192,93231,1,0,0:0:0:0:
36,192,93231,1,0,0:0:0:0:
402,192,93398,1,0,0:0:0:0:
475,192,93398,1,0,0:0:0:0:
256,192,93398,1,0,0:0:0:0:
402,192,93731,1,0,0:0:0:0:
256,192,93731,1,0,0:0:0:0:
475,192,93731,1,0,0:0:0:0:
36,192,93898,1,0,0:0:0:0:
402,192,94064,1,0,0:0:0:0:
475,192,94064,1,0,0:0:0:0:
256,192,94064,1,0,0:0:0:0:
402,192,94398,1,0,0:0:0:0:
256,192,94398,1,0,0:0:0:0:
475,192,94398,1,0,0:0:0:0:
36,192,94564,1,0,0:0:0:0:
475,192,94731,1,0,0:0:0:0:
402,192,94731,1,0,0:0:0:0:
256,192,94731,1,0,0:0:0:0:
475,192,95064,1,0,0:0:0:0:
402,192,95064,1,0,0:0:0:0:
256,192,95064,1,0,0:0:0:0:
36,192,95231,1,0,0:0:0:0:
475,192,95398,1,0,0:0:0:0:
402,192,95398,1,0,0:0:0:0:
256,192,95398,1,0,0:0:0:0:
329,192,95398,1,0,0:0:0:0:
329,192,95564,1,0,0:0:0:0:
475,192,95731,1,0,0:0:0:0:
402,192,95731,1,0,0:0:0:0:
256,192,95731,1,0,0:0:0:0:
329,192,95731,1,0,0:0:0:0:
329,192,95898,1,0,0:0:0:0:
109,192,95898,1,0,0:0:0:0:
475,192,96064,1,0,0:0:0:0:
402,192,96064,1,0,0:0:0:0:
256,192,96064,1,0,0:0:0:0:
475,192,96398,1,0,0:0:0:0:
402,192,96398,1,0,0:0:0:0:
256,192,96398,1,0,0:0:0:0:
329,192,96564,1,0,0:0:0:0:
109,192,96564,1,0,0:0:0:0:
475,192,96731,1,0,0:0:0:0:
402,192,96731,1,0,0:0:0:0:
256,192,96731,1,0,0:0:0:0:
475,192,96898,1,0,0:0:0:0:
402,192,97064,1,0,0:0:0:0:
256,192,97064,1,0,0:0:0:0:
329,192,97231,1,0,0:0:0:0:
475,192,97231,1,0,0:0:0:0:
182,192,97398,1,0,0:0:0:0:
256,192,97398,1,0,0:0:0:0:
329,192,97481,1,0,0:0:0:0:
182,192,97564,1,0,0:0:0:0:
329,192,97648,1,0,0:0:0:0:
182,192,97731,1,0,0:0:0:0:
256,192,97731,1,0,0:0:0:0:
329,192,97814,1,0,0:0:0:0:
182,192,97898,1,0,0:0:0:0:
329,192,97981,1,0,0:0:0:0:
182,192,98064,1,0,0:0:0:0:
256,192,98064,1,0,0:0:0:0:
36,192,98064,1,0,0:0:0:0:
329,192,98148,1,0,0:0:0:0:
182,192,98231,1,0,0:0:0:0:
475,192,98231,1,0,0:0:0:0:
329,192,98314,1,0,0:0:0:0:
182,192,98398,1,0,0:0:0:0:
256,192,98398,1,0,0:0:0:0:
36,192,98398,1,0,0:0:0:0:
329,192,98481,1,0,0:0:0:0:
182,192,98564,1,0,0:0:0:0:
475,192,98564,1,0,0:0:0:0:
329,192,98648,1,0,0:0:0:0:
402,192,101398,1,0,0:0:0:0:
329,192,101398,128,0,101898:0:0:0:0:
109,192,101564,1,0,0:0:0:0:
402,192,101731,1,0,0:0:0:0:
109,192,101898,1,0,0:0:0:0:
182,192,101898,128,0,102064:0:0:0:0:
402,192,102064,1,0,0:0:0:0:
329,192,102064,128,0,102564:0:0:0:0:
109,192,102231,1,0,0:0:0:0:
402,192,102398,1,0,0:0:0:0:
109,192,102564,1,0,0:0:0:0:
182,192,102564,128,0,102731:0:0:0:0:
402,192,102731,1,0,0:0:0:0:
329,192,102731,128,0,103231:0:0:0:0:
109,192,102898,1,0,0:0:0:0:
402,192,103064,1,0,0:0:0:0:
109,192,103231,1,0,0:0:0:0:
182,192,103231,128,0,103398:0:0:0:0:
402,192,103398,1,0,0:0:0:0:
329,192,103398,128,0,103898:0:0:0:0:
109,192,103564,1,0,0:0:0:0:
256,192,103731,1,0,0:0:0:0:
402,192,103731,1,0,0:0:0:0:
109,192,103898,1,0,0:0:0:0:
182,192,103898,128,0,104064:0:0:0:0:
256,192,104064,1,0,0:0:0:0:
402,192,104064,1,0,0:0:0:0:
329,192,104064,128,0,104564:0:0:0:0:
109,192,104231,1,0,0:0:0:0:
402,192,104398,1,0,0:0:0:0:
109,192,104564,1,0,0:0:0:0:
182,192,104564,128,0,104731:0:0:0:0:
402,192,104731,1,0,0:0:0:0:
329,192,104731,128,0,105231:0:0:0:0:
109,192,104898,1,0,0:0:0:0:
256,192,105064,1,0,0:0:0:0:
402,192,105064,1,0,0:0:0:0:
109,192,105231,1,0,0:0:0:0:
182,192,105231,128,0,105398:0:0:0:0:
256,192,105398,1,0,0:0:0:0:
402,192,105398,1,0,0:0:0:0:
329,192,105398,128,0,105898:0:0:0:0:
109,192,105564,1,0,0:0:0:0:
402,192,105731,1,0,0:0:0:0:
109,192,105898,1,0,0:0:0:0:
182,192,105898,128,0,106064:0:0:0:0:
402,192,106064,1,0,0:0:0:0:
329,192,106064,128,0,106564:0:0:0:0:
109,192,106231,1,0,0:0:0:0:
402,192,106398,1,0,0:0:0:0:
109,192,106564,1,0,0:0:0:0:
182,192,106564,128,0,106731:0:0:0:0:
402,192,106731,1,0,0:0:0:0:
329,192,106731,128,0,107231:0:0:0:0:
256,192,106731,1,0,0:0:0:0:
109,192,107231,1,0,0:0:0:0:
182,192,107231,128,0,107398:0:0:0:0:
256,192,107231,1,0,0:0:0:0:
329,192,107398,128,0,107898:0:0:0:0:
256,192,107564,1,0,0:0:0:0:
402,192,107731,1,0,0:0:0:0:
256,192,107731,1,0,0:0:0:0:
256,192,107898,1,0,0:0:0:0:
182,192,107898,128,0,108064:0:0:0:0:
475,192,108064,1,0,0:0:0:0:
402,192,108064,1,0,0:0:0:0:
329,192,108064,128,0,108564:0:0:0:0:
402,192,108398,1,0,0:0:0:0:
256,192,108398,1,0,0:0:0:0:
182,192,108564,128,0,108731:0:0:0:0:
109,192,108731,1,0,0:0:0:0:
36,192,108731,1,0,0:0:0:0:
329,192,108731,128,0,109231:0:0:0:0:
402,192,108814,1,0,0:0:0:0:
475,192,108814,1,0,0:0:0:0:
36,192,108898,1,0,0:0:0:0:
109,192,108898,1,0,0:0:0:0:
402,192,108981,1,0,0:0:0:0:
475,192,108981,1,0,0:0:0:0:
36,192,109064,1,0,0:0:0:0:
109,192,109064,1,0,0:0:0:0:
402,192,109148,1,0,0:0:0:0:
475,192,109148,1,0,0:0:0:0:
182,192,109231,128,0,109398:0:0:0:0:
36,192,109231,1,0,0:0:0:0:
109,192,109231,1,0,0:0:0:0:
402,192,109314,1,0,0:0:0:0:
475,192,109314,1,0,0:0:0:0:
256,192,109564,1,0,0:0:0:0:
256,192,109731,128,0,109898:0:0:0:0:
402,192,109731,128,0,109898:0:0:0:0:
36,192,109898,1,0,0:0:0:0:
182,192,109898,128,0,110064:0:0:0:0:
329,192,109898,128,0,110064:0:0:0:0:
256,192,110064,128,0,110314:0:0:0:0:
402,192,110064,128,0,110314:0:0:0:0:
36,192,110231,1,0,0:0:0:0:
402,192,110398,128,0,110564:0:0:0:0:
256,192,110398,128,0,110564:0:0:0:0:
36,192,110564,1,0,0:0:0:0:
329,192,110564,128,0,110731:0:0:0:0:
182,192,110564,128,0,110731:0:0:0:0:
256,192,110731,128,0,111064:0:0:0:0:
402,192,110731,128,0,111064:0:0:0:0:
109,192,110898,1,0,0:0:0:0:
182,192,111064,128,0,111398:0:0:0:0:
329,192,111064,128,0,111398:0:0:0:0:
109,192,111231,1,0,0:0:0:0:
256,192,111398,128,0,111731:0:0:0:0:
402,192,111398,128,0,111731:0:0:0:0:
109,192,111564,1,0,0:0:0:0:
475,192,111731,128,0,112398:0:0:0:0:
329,192,111731,128,0,112398:0:0:0:0:
109,192,111898,1,0,0:0:0:0:
36,192,112231,1,0,0:0:0:0:
256,192,112398,128,0,112564:0:0:0:0:
402,192,112398,128,0,112564:0:0:0:0:
329,192,112564,128,0,112731:0:0:0:0:
182,192,112564,128,0,112731:0:0:0:0:
36,192,112564,1,0,0:0:0:0:
256,192,112731,128,0,112981:0:0:0:0:
402,192,112731,128,0,112981:0:0:0:0:
36,192,112898,1,0,0:0:0:0:
402,192,113064,128,0,113231:0:0:0:0:
256,192,113064,128,0,113231:0:0:0:0:
182,192,113231,128,0,113398:0:0:0:0:
329,192,113231,128,0,113398:0:0:0:0:
36,192,113231,1,0,0:0:0:0:
256,192,113398,128,0,113731:0:0:0:0:
402,192,113398,128,0,113731:0:0:0:0:
475,192,113564,1,0,0:0:0:0:
329,192,113731,128,0,114064:0:0:0:0:
182,192,113731,128,0,114064:0:0:0:0:
475,192,113898,1,0,0:0:0:0:
256,192,114064,128,0,114398:0:0:0:0:
402,192,114064,128,0,114398:0:0:0:0:
475,192,114231,1,0,0:0:0:0:
36,192,114398,128,0,114731:0:0:0:0:
182,192,114398,128,0,114731:0:0:0:0:
402,192,114564,1,0,0:0:0:0:
109,192,114731,1,0,0:0:0:0:
256,192,114731,1,0,0:0:0:0:
36,192,114898,1,0,0:0:0:0:
256,192,115064,128,0,115231:0:0:0:0:
402,192,115064,128,0,115231:0:0:0:0:
329,192,115231,128,0,115398:0:0:0:0:
182,192,115231,128,0,115398:0:0:0:0:
36,192,115231,1,0,0:0:0:0:
256,192,115398,128,0,115648:0:0:0:0:
402,192,115398,128,0,115648:0:0:0:0:
36,192,115564,1,0,0:0:0:0:
256,192,115731,128,0,115898:0:0:0:0:
402,192,115731,128,0,115898:0:0:0:0:
182,192,115898,128,0,116064:0:0:0:0:
329,192,115898,128,0,116064:0:0:0:0:
36,192,115898,1,0,0:0:0:0:
256,192,116064,1,0,0:0:0:0:
402,192,116064,1,0,0:0:0:0:
256,192,116231,1,0,0:0:0:0:
402,192,116231,1,0,0:0:0:0:
475,192,116231,1,0,0:0:0:0:
109,192,116398,128,0,116564:0:0:0:0:
182,192,116398,1,0,0:0:0:0:
256,192,116564,1,0,0:0:0:0:
182,192,116564,128,0,116731:0:0:0:0:
475,192,116564,1,0,0:0:0:0:
329,192,116731,128,0,117064:0:0:0:0:
402,192,116731,1,0,0:0:0:0:
36,192,116898,1,0,0:0:0:0:
256,192,117064,128,0,118064:0:0:0:0:
475,192,117064,128,0,118064:0:0:0:0:
36,192,117398,1,0,0:0:0:0:
182,192,117564,1,0,0:0:0:0:
109,192,117731,1,0,0:0:0:0:
182,192,117898,1,0,0:0:0:0:
329,192,118064,128,0,118231:0:0:0:0:
402,192,118064,128,0,118231:0:0:0:0:
36,192,118064,1,0,0:0:0:0:
182,192,118231,1,0,0:0:0:0:
109,192,118398,1,0,0:0:0:0:
402,192,118398,128,0,118981:0:0:0:0:
475,192,118398,128,0,118981:0:0:0:0:
36,192,118564,1,0,0:0:0:0:
182,192,118564,1,0,0:0:0:0:
36,192,118898,1,0,0:0:0:0:
182,192,118898,1,0,0:0:0:0:
109,192,119064,1,0,0:0:0:0:
256,192,119064,128,0,119398:0:0:0:0:
329,192,119064,128,0,119398:0:0:0:0:
36,192,119231,1,0,0:0:0:0:
182,192,119231,1,0,0:0:0:0:
36,192,119398,1,0,0:0:0:0:
182,192,119564,1,0,0:0:0:0:
109,192,119731,1,0,0:0:0:0:
256,192,119731,128,0,120064:0:0:0:0:
329,192,119731,128,0,120064:0:0:0:0:
182,192,119898,1,0,0:0:0:0:
36,192,120064,128,0,121398:0:0:0:0:
402,192,120231,128,0,120398:0:0:0:0:
256,192,120398,1,0,0:0:0:0:
329,192,120398,1,0,0:0:0:0:
182,192,120564,1,0,0:0:0:0:
256,192,120564,1,0,0:0:0:0:
402,192,120564,128,0,120731:0:0:0:0:
256,192,120731,128,0,120898:0:0:0:0:
329,192,120731,128,0,120898:0:0:0:0:
402,192,120898,128,0,121064:0:0:0:0:
256,192,121064,1,0,0:0:0:0:
329,192,121064,1,0,0:0:0:0:
182,192,121231,1,0,0:0:0:0:
256,192,121231,1,0,0:0:0:0:
402,192,121231,128,0,121398:0:0:0:0:
109,192,121398,128,0,122731:0:0:0:0:
256,192,121398,128,0,121731:0:0:0:0:
329,192,121398,128,0,121731:0:0:0:0:
475,192,121564,128,0,121731:0:0:0:0:
182,192,121731,128,0,122064:0:0:0:0:
36,192,121731,128,0,122064:0:0:0:0:
475,192,121898,128,0,122064:0:0:0:0:
256,192,122064,128,0,122398:0:0:0:0:
329,192,122064,128,0,122398:0:0:0:0:
182,192,122231,128,0,122398:0:0:0:0:
402,192,122398,128,0,123064:0:0:0:0:
475,192,122398,128,0,123064:0:0:0:0:
182,192,122564,128,0,122731:0:0:0:0:
36,192,122731,128,0,124064:0:0:0:0:
182,192,122898,128,0,123064:0:0:0:0:
256,192,123064,1,0,0:0:0:0:
329,192,123064,1,0,0:0:0:0:
256,192,123231,1,0,0:0:0:0:
109,192,123231,1,0,0:0:0:0:
182,192,123231,128,0,123398:0:0:0:0:
256,192,123398,128,0,123564:0:0:0:0:
402,192,123398,128,0,123564:0:0:0:0:
182,192,123564,128,0,123731:0:0:0:0:
402,192,123731,1,0,0:0:0:0:
256,192,123731,1,0,0:0:0:0:
256,192,123898,1,0,0:0:0:0:
109,192,123898,1,0,0:0:0:0:
182,192,123898,128,0,124064:0:0:0:0:
256,192,124064,128,0,124731:0:0:0:0:
402,192,124064,128,0,124398:0:0:0:0:
109,192,124064,128,0,124398:0:0:0:0:
475,192,124231,128,0,124398:0:0:0:0:
329,192,124398,128,0,124731:0:0:0:0:
36,192,124398,128,0,124731:0:0:0:0:
475,192,124564,128,0,124731:0:0:0:0:
182,192,124731,128,0,125398:0:0:0:0:
402,192,124731,128,0,125064:0:0:0:0:
109,192,124731,128,0,125064:0:0:0:0:
36,192,124898,128,0,125064:0:0:0:0:
256,192,125064,128,0,125231:0:0:0:0:
329,192,125064,128,0,125231:0:0:0:0:
109,192,125231,128,0,125398:0:0:0:0:
36,192,125398,128,0,126731:0:0:0:0:
256,192,125398,128,0,125648:0:0:0:0:
329,192,125398,128,0,125648:0:0:0:0:
402,192,125731,1,0,0:0:0:0:
256,192,125731,1,0,0:0:0:0:
182,192,125898,1,0,0:0:0:0:
329,192,125898,1,0,0:0:0:0:
256,192,126064,128,0,126314:0:0:0:0:
402,192,126064,128,0,126314:0:0:0:0:
256,192,126398,1,0,0:0:0:0:
402,192,126398,1,0,0:0:0:0:
182,192,126564,1,0,0:0:0:0:
329,192,126564,1,0,0:0:0:0:
256,192,126731,1,0,0:0:0:0:
402,192,126731,1,0,0:0:0:0:
109,192,126731,128,0,128064:0:0:0:0:
402,192,126898,1,0,0:0:0:0:
256,192,126898,1,0,0:0:0:0:
256,192,126981,1,0,0:0:0:0:
402,192,126981,1,0,0:0:0:0:
329,192,127064,1,0,0:0:0:0:
182,192,127231,1,0,0:0:0:0:
402,192,127231,1,0,0:0:0:0:
256,192,127398,128,0,127731:0:0:0:0:
402,192,127398,128,0,127731:0:0:0:0:
329,192,127731,128,0,128398:0:0:0:0:
475,192,127731,128,0,128398:0:0:0:0:
256,192,128064,128,0,130731:0:0:0:0:
36,192,128064,1,0,0:0:0:0:
182,192,128398,128,0,129731:0:0:0:0:
109,192,128398,128,0,129064:0:0:0:0:
402,192,128398,1,0,0:0:0:0:
36,192,128731,1,0,0:0:0:0:
329,192,129064,128,0,130398:0:0:0:0:
36,192,129231,1,0,0:0:0:0:
36,192,129564,1,0,0:0:0:0:
402,192,129731,128,0,130398:0:0:0:0:
36,192,129898,1,0,0:0:0:0:
109,192,130064,128,0,130398:0:0:0:0:
36,192,130064,1,0,0:0:0:0:
475,192,130398,128,0,134231:0:0:0:0:
182,192,130731,1,0,0:0:0:0:
36,192,130731,1,0,0:0:0:0:
256,192,130898,1,0,0:0:0:0:
109,192,130898,1,0,0:0:0:0:
329,192,131064,1,0,0:0:0:0:
109,192,131064,1,0,0:0:0:0:
256,192,131231,1,0,0:0:0:0:
36,192,131231,1,0,0:0:0:0:
329,192,131398,1,0,0:0:0:0:
109,192,131398,1,0,0:0:0:0:
256,192,131564,1,0,0:0:0:0:
36,192,131564,1,0,0:0:0:0:
182,192,131731,1,0,0:0:0:0:
36,192,131731,1,0,0:0:0:0:
256,192,131898,1,0,0:0:0:0:
109,192,131898,1,0,0:0:0:0:
182,192,132064,128,0,132231:0:0:0:0:
36,192,132064,1,0,0:0:0:0:
182,192,132398,128,0,132564:0:0:0:0:
109,192,132398,1,0,0:0:0:0:
329,192,132731,1,0,0:0:0:0:
109,192,132731,1,0,0:0:0:0:
182,192,132898,1,0,0:0:0:0:
36,192,132898,1,0,0:0:0:0:
256,192,133064,128,0,133231:0:0:0:0:
36,192,133064,1,0,0:0:0:0:
109,192,133231,1,0,0:0:0:0:
182,192,133398,1,0,0:0:0:0:
36,192,133398,1,0,0:0:0:0:
256,192,133564,1,0,0:0:0:0:
109,192,133564,1,0,0:0:0:0:
256,192,133731,1,0,0:0:0:0:
109,192,133731,1,0,0:0:0:0:
182,192,133898,1,0,0:0:0:0:
36,192,133898,1,0,0:0:0:0:
329,192,134064,1,0,0:0:0:0:
109,192,134064,1,0,0:0:0:0:
256,192,134231,1,0,0:0:0:0:
36,192,134231,1,0,0:0:0:0:
182,192,134398,1,0,0:0:0:0:
36,192,134398,1,0,0:0:0:0:
256,192,134564,1,0,0:0:0:0:
109,192,134564,1,0,0:0:0:0:
36,192,134731,1,0,0:0:0:0:
475,192,134898,1,0,0:0:0:0:
256,192,135064,1,0,0:0:0:0:
109,192,135064,1,0,0:0:0:0:
329,192,135085,1,0,0:0:0:0:
402,192,135106,1,0,0:0:0:0:
475,192,135127,1,0,0:0:0:0:
36,192,135231,1,0,0:0:0:0:
256,192,135398,1,0,0:0:0:0:
109,192,135398,1,0,0:0:0:0:
329,192,135419,1,0,0:0:0:0:
402,192,135439,1,0,0:0:0:0:
475,192,135460,1,0,0:0:0:0:
36,192,135564,1,0,0:0:0:0:
256,192,135731,1,0,0:0:0:0:
36,192,135731,1,0,0:0:0:0:
329,192,135752,1,0,0:0:0:0:
402,192,135773,1,0,0:0:0:0:
475,192,135794,1,0,0:0:0:0:
329,192,135898,1,0,0:0:0:0:
109,192,135898,1,0,0:0:0:0:
182,192,136064,1,0,0:0:0:0:
109,192,136064,1,0,0:0:0:0:
402,192,136231,1,0,0:0:0:0:
329,192,136231,1,0,0:0:0:0:
402,192,136398,1,0,0:0:0:0:
329,192,136398,1,0,0:0:0:0:
109,192,136564,1,0,0:0:0:0:
182,192,136564,1,0,0:0:0:0:
402,192,136731,1,0,0:0:0:0:
109,192,136898,1,0,0:0:0:0:
182,192,136898,1,0,0:0:0:0:
329,192,137064,1,0,0:0:0:0:
109,192,137064,1,0,0:0:0:0:
182,192,137231,1,0,0:0:0:0:
402,192,137231,1,0,0:0:0:0:
182,192,137398,1,0,0:0:0:0:
109,192,137398,128,0,137564:0:0:0:0:
329,192,137564,1,0,0:0:0:0:
329,192,137731,1,0,0:0:0:0:
402,192,137731,128,0,137898:0:0:0:0:
182,192,137898,1,0,0:0:0:0:
329,192,138064,1,0,0:0:0:0:
475,192,138064,1,0,0:0:0:0:
109,192,138231,1,0,0:0:0:0:
182,192,138231,1,0,0:0:0:0:
109,192,138398,1,0,0:0:0:0:
36,192,138398,1,0,0:0:0:0:
402,192,138564,1,0,0:0:0:0:
329,192,138564,1,0,0:0:0:0:
36,192,138731,1,0,0:0:0:0:
182,192,138731,1,0,0:0:0:0:
109,192,138731,1,0,0:0:0:0:
256,192,138731,1,0,0:0:0:0:
256,192,138898,1,0,0:0:0:0:
329,192,139064,1,0,0:0:0:0:
475,192,139064,1,0,0:0:0:0:
402,192,139064,1,0,0:0:0:0:
256,192,139064,1,0,0:0:0:0:
36,192,139231,1,0,0:0:0:0:
182,192,139231,1,0,0:0:0:0:
256,192,139231,1,0,0:0:0:0:
109,192,139231,1,0,0:0:0:0:
256,192,139398,1,0,0:0:0:0:
329,192,139564,1,0,0:0:0:0:
475,192,139564,1,0,0:0:0:0:
256,192,139564,1,0,0:0:0:0:
402,192,139564,1,0,0:0:0:0:
36,192,139731,1,0,0:0:0:0:
182,192,139731,1,0,0:0:0:0:
256,192,139731,1,0,0:0:0:0:
109,192,139731,1,0,0:0:0:0:
36,192,140064,1,0,0:0:0:0:
182,192,140064,1,0,0:0:0:0:
109,192,140064,1,0,0:0:0:0:
329,192,140231,1,0,0:0:0:0:
475,192,140231,1,0,0:0:0:0:
256,192,140231,1,0,0:0:0:0:
36,192,140398,1,0,0:0:0:0:
182,192,140398,1,0,0:0:0:0:
109,192,140398,1,0,0:0:0:0:
329,192,140564,1,0,0:0:0:0:
475,192,140564,1,0,0:0:0:0:
256,192,140564,1,0,0:0:0:0:
475,192,140731,1,0,0:0:0:0:
36,192,140731,1,0,0:0:0:0:
109,192,140731,128,0,141064:0:0:0:0:
402,192,140731,128,0,141064:0:0:0:0:
182,192,141064,1,0,0:0:0:0:
329,192,141064,1,0,0:0:0:0:
36,192,141398,1,0,0:0:0:0:
182,192,141398,1,0,0:0:0:0:
329,192,141398,1,0,0:0:0:0:
475,192,141398,1,0,0:0:0:0:
256,192,141398,1,0,0:0:0:0:
