osu file format v14

[General]
AudioFilename: singularity.mp3
AudioLeadIn: 0
PreviewTime: -1
Countdown: 0
SampleSet: Normal
StackLeniency: 0.6
Mode: 1
LetterboxInBreaks: 0
WidescreenStoryboard: 0

[Editor]
Bookmarks: 267,24252,34630,55387,78738,109873,130630,172143,182522,213657,231819,255170,275927
DistanceSpacing: 0.5
BeatDivisor: 4
GridSize: 32
TimelineZoom: 1.9

[Metadata]
Title:Singularity
TitleUnicode:Singularity
Artist:Dunderpatrullen
ArtistUnicode:Dunderpatrullen
Creator:Fraolinch
Version:Inner Oni
Source:
Tags:Keygeneration
BeatmapID:680626
BeatmapSetID:303748

[Difficulty]
HPDrainRate:7
CircleSize:5
OverallDifficulty:5
ApproachRate:5
SliderMultiplier:1.4
SliderTickRate:1

[Events]
//Background and Video events
0,0,"dunder.jpg",0,0
//Break Periods
//Storyboard Layer 0 (Background)
//Storyboard Layer 1 (Fail)
//Storyboard Layer 2 (Pass)
//Storyboard Layer 3 (Foreground)
//Storyboard Sound Samples

[TimingPoints]
267.304347826087,638.297872340426,4,1,0,10,1,0
1543,666.666666666667,4,1,0,10,1,0
2209,731.707317073171,4,1,0,10,1,0
2940,685.714285714286,4,1,0,10,1,0
3282,631.578947368421,4,1,0,10,1,0
3597,545.454545454546,4,1,0,10,1,0
3869,558.139534883721,4,1,0,10,1,0
4427,666.666666666667,4,1,0,30,1,0
4760,697.674418604651,4,1,0,10,1,0
5457,600,4,1,0,10,1,0
5757,500,4,1,0,10,1,0
6257,545.454545454546,4,1,0,30,1,0
6529,600,4,1,0,10,1,0
6829,666.666666666667,4,1,0,10,1,0
7162,705.882352941176,4,1,0,10,1,0
7514,750,4,1,0,10,1,0
7889,705.882352941176,4,1,0,20,1,0
8241,666.666666666667,4,1,0,30,1,0
8574,631.578947368421,4,1,0,15,1,0
8889,600,4,1,0,40,1,0
9189,-100,4,1,0,15,0,0
9789,-100,4,1,0,30,0,0
10089,-100,4,1,0,10,0,0
10689,631.578947368421,4,1,0,30,1,0
11004,-100,4,1,0,10,0,0
11636,-100,4,1,0,20,0,0
11952,705.882352941176,4,1,0,15,1,0
12304,-100,4,1,0,10,0,0
13363,631.578947368421,4,1,0,10,1,0
13678,545.454545454546,4,1,0,13,1,0
13950,500,4,1,0,17,1,0
14200,480,4,1,0,20,1,0
14440,545.454545454546,4,1,0,30,1,0
14985,571.428571428571,4,1,0,30,1,0
15270,600,4,1,0,30,1,0
15870,615.384615384615,4,1,0,30,1,0
16485,631.578947368421,4,1,0,20,1,0
17116,666.666666666667,4,1,0,10,1,0
17449,-100,4,1,0,30,0,0
17782,705.882352941176,4,1,0,40,1,0
18134,-100,4,1,0,10,0,0
18487,750,4,1,0,10,1,0
18862,-100,4,1,0,20,0,0
19237,800,4,1,0,40,1,0
19637,-100,4,1,0,60,0,0
20037,857.142857142857,4,1,0,80,1,0
24252,324.324324324324,4,1,0,70,1,0
34630,-100,4,1,0,90,0,0
39819,-100,4,1,0,75,0,0
45008,-100,4,1,0,90,0,0
50197,-100,4,1,0,70,0,0
52954,-133.333333333333,4,1,0,10,0,0
53441,-125,4,1,0,10,0,0
53603,-117.647058823529,4,1,0,10,0,0
53765,-111.111111111111,4,1,0,10,0,0
53927,-105.263157894737,4,1,0,70,0,0
54089,-100,4,1,0,70,0,0
55387,-100,4,1,0,90,0,1
60576,-100,4,1,0,80,0,0
65765,-100,4,1,0,90,0,1
70954,-100,4,1,0,70,0,1
72251,-100,4,1,0,60,0,0
73549,-100,4,1,0,50,0,0
77441,-100,4,1,0,60,0,0
87819,-105.263157894737,4,1,0,40,0,0
87981,-111.111111111111,4,1,0,30,0,0
88143,-117.647058823529,4,1,0,20,0,0
88306,-125,4,1,0,10,0,0
88468,-133.333333333333,4,1,0,5,0,0
88630,-123.456790123457,4,1,0,20,0,0
88792,-111.482720178372,4,1,0,40,0,0
88954,-104.166666666667,4,1,0,60,0,0
89116,-100,4,1,0,70,0,0
109873,-100,4,1,0,30,0,0
119927,-200,4,1,0,30,0,0
120251,-200,4,1,0,45,0,0
125441,-200,4,1,0,30,0,0
129333,-100,4,1,0,55,0,0
130630,-100,4,1,0,100,0,1
150089,-100,4,1,0,100,0,0
151387,-100,4,1,0,100,0,1
169549,-100,4,1,0,90,0,0
170846,-100,4,1,0,80,0,0
171819,-111.111111111111,4,1,0,80,0,0
171981,-125,4,1,0,75,0,0
172143,-142.857142857143,4,1,0,70,0,0
172306,-166.666666666667,4,1,0,65,0,0
172468,-200,4,1,0,60,0,0
172792,-200,4,1,0,50,0,0
182522,-133.333333333333,4,1,0,50,0,0
213333,81.0810810810811,4,1,0,50,1,0
213657,324.324324324324,4,1,0,75,1,0
216251,-90.9090909090909,4,1,0,75,0,0
218846,-83.3333333333333,4,1,0,75,0,0
221440,-76.9230769230769,4,1,0,75,0,0
224035,-66.6666666666667,4,1,0,75,0,0
231170,-69.4444444444444,4,1,0,75,0,0
231251,-71.9424460431655,4,1,0,75,0,0
231332,-75.187969924812,4,1,0,75,0,0
231413,-78.125,4,1,0,75,0,0
231494,-81.9672131147541,4,1,0,75,0,0
231575,-85.4700854700855,4,1,0,75,0,0
231656,-90.0900900900901,4,1,0,75,0,0
231738,-94.3396226415094,4,1,0,75,0,0
231819,-100,4,1,0,75,0,0
234738,-80,4,1,0,90,0,1
234819,-100,4,1,0,75,0,0
235386,-80,4,1,0,90,0,1
235467,-100,4,1,0,75,0,0
236035,-80,4,1,0,90,0,1
236116,-100,4,1,0,75,0,0
236684,-80,4,1,0,90,0,1
236765,-100,4,1,0,75,0,0
237332,-80,4,1,0,90,0,1
237413,-100,4,1,0,75,0,0
237981,-80,4,1,0,90,0,1
238062,-100,4,1,0,75,0,0
238629,-80,4,1,0,90,0,1
238711,-100,4,1,0,75,0,0
239278,-80,4,1,0,90,0,1
239359,-100,4,1,0,75,0,0
239927,-80,4,1,0,90,0,1
240008,-100,4,1,0,75,0,0
240575,-80,4,1,0,90,0,1
240656,-100,4,1,0,75,0,0
241224,-80,4,1,0,90,0,1
241305,-100,4,1,0,75,0,0
241873,-80,4,1,0,90,0,1
241954,-100,4,1,0,75,0,0
242521,-80,4,1,0,90,0,1
242602,-100,4,1,0,75,0,0
243170,-80,4,1,0,90,0,1
243251,-100,4,1,0,75,0,0
245278,-100,4,1,0,75,0,1
255170,-200,4,1,0,50,0,0
274629,-166.666666666667,4,1,0,60,0,0
274792,-153.846153846154,4,1,0,65,0,0
274954,-142.857142857143,4,1,0,70,0,0
275116,-133.333333333333,4,1,0,75,0,0
275278,-125,4,1,0,80,0,0
275927,-100,4,1,0,90,0,1
305765,-66.6666666666667,4,1,0,90,0,1
305927,-100,4,1,0,90,0,1
306089,-66.6666666666667,4,1,0,90,0,1
306251,-100,4,1,0,90,0,1
306413,-66.6666666666667,4,1,0,90,0,1
306575,-100,4,1,0,90,0,1
316143,-98.0392156862745,4,1,0,90,0,1
316305,-96.1538461538461,4,1,0,90,0,1
316467,-94.3396226415094,4,1,0,90,0,1
316629,-92.5925925925926,4,1,0,90,0,1
316792,-90.9090909090909,4,1,0,90,0,1
316954,-89.2857142857143,4,1,0,90,0,1
317116,-87.719298245614,4,1,0,90,0,1
317278,-86.2068965517241,4,1,0,90,0,1
317440,-84.7457627118644,4,1,0,90,0,1
317602,-83.3333333333333,4,1,0,90,0,1
317765,-81.9672131147541,4,1,0,90,0,1
317927,-80.6451612903226,4,1,0,90,0,1
318089,-79.3650793650794,4,1,0,90,0,1
318251,-78.125,4,1,0,90,0,1
318413,-76.9230769230769,4,1,0,90,0,1
318575,-75.7575757575758,4,1,0,90,0,1
318738,-74.6268656716418,4,1,0,90,0,1
320035,-50,4,1,0,90,0,1
320197,81.0810810810811,4,1,0,90,1,1
320278,-100,4,1,0,90,0,0

[HitObjects]
320,192,267,5,8,0:0:0:0:
320,192,586,1,8,0:0:0:0:
192,192,905,1,0,0:0:0:0:
320,192,1224,1,8,0:0:0:0:
192,192,1543,1,0,0:0:0:0:
320,192,2209,1,8,0:0:0:0:
192,192,2940,1,0,0:0:0:0:
192,192,3282,1,0,0:0:0:0:
320,192,3597,1,8,0:0:0:0:
192,192,3869,1,0,0:0:0:0:
192,192,4148,1,0,0:0:0:0:
320,192,4427,1,8,0:0:0:0:
192,192,4760,1,0,0:0:0:0:
192,192,5457,1,0,0:0:0:0:
320,192,5757,1,8,0:0:0:0:
192,192,6007,1,0,0:0:0:0:
320,192,6257,1,8,0:0:0:0:
192,192,6529,1,0,0:0:0:0:
192,192,6829,1,0,0:0:0:0:
320,192,7162,1,8,0:0:0:0:
192,192,7514,1,0,0:0:0:0:
192,192,7889,1,0,0:0:0:0:
320,192,8241,1,8,0:0:0:0:
192,192,8574,1,0,0:0:0:0:
320,192,8889,1,8,0:0:0:0:
192,192,9189,1,0,0:0:0:0:
192,192,9489,1,0,0:0:0:0:
320,192,9789,1,8,0:0:0:0:
320,192,10089,1,8,0:0:0:0:
320,192,10689,1,8,0:0:0:0:
192,192,11004,1,0,0:0:0:0:
320,192,11320,1,8,0:0:0:0:
192,192,11636,1,0,0:0:0:0:
192,192,11952,1,0,0:0:0:0:
320,192,12304,1,8,0:0:0:0:
192,192,13010,1,0,0:0:0:0:
320,192,13363,1,8,0:0:0:0:
192,192,13678,1,0,0:0:0:0:
320,192,13950,1,8,0:0:0:0:
192,192,14200,1,0,0:0:0:0:
192,192,14440,1,0,0:0:0:0:
320,192,14712,1,8,0:0:0:0:
192,192,14985,1,0,0:0:0:0:
320,192,15270,1,12,0:0:0:0:
192,192,15570,1,0,0:0:0:0:
192,192,15870,1,0,0:0:0:0:
320,192,16177,1,8,0:0:0:0:
192,192,16485,1,0,0:0:0:0:
320,192,16800,1,8,0:0:0:0:
192,192,17116,1,0,0:0:0:0:
320,192,17449,1,8,0:0:0:0:
320,192,17782,1,12,0:0:0:0:
320,192,18134,1,8,0:0:0:0:
192,192,18487,1,0,0:0:0:0:
192,192,18862,1,0,0:0:0:0:
320,192,19237,1,8,0:0:0:0:
192,192,19637,1,0,0:0:0:0:
320,192,20037,1,8,0:0:0:0:
320,192,20465,1,12,0:0:0:0:
320,192,24252,1,8,0:0:0:0:
320,192,24414,1,8,0:0:0:0:
192,192,24576,1,0,0:0:0:0:
320,192,24738,1,8,0:0:0:0:
192,192,24900,1,0,0:0:0:0:
320,192,25062,1,8,0:0:0:0:
192,192,25224,1,0,0:0:0:0:
192,192,25387,1,0,0:0:0:0:
320,192,25549,1,8,0:0:0:0:
320,192,25711,1,8,0:0:0:0:
192,192,25873,1,0,0:0:0:0:
320,192,26035,1,8,0:0:0:0:
192,192,26197,1,0,0:0:0:0:
320,192,26359,1,8,0:0:0:0:
192,192,26521,1,0,0:0:0:0:
192,192,26684,1,0,0:0:0:0:
192,192,26765,1,0,0:0:0:0:
320,192,26846,1,8,0:0:0:0:
320,192,27008,1,8,0:0:0:0:
192,192,27170,1,0,0:0:0:0:
320,192,27332,1,8,0:0:0:0:
192,192,27494,1,0,0:0:0:0:
320,192,27656,1,8,0:0:0:0:
192,192,27818,1,0,0:0:0:0:
192,192,27981,1,0,0:0:0:0:
320,192,28143,1,8,0:0:0:0:
320,192,28305,1,8,0:0:0:0:
192,192,28467,1,0,0:0:0:0:
320,192,28629,1,8,0:0:0:0:
192,192,28791,1,0,0:0:0:0:
320,192,28953,1,8,0:0:0:0:
192,192,29115,1,0,0:0:0:0:
320,192,29278,1,8,0:0:0:0:
192,192,29441,1,0,0:0:0:0:
192,192,29603,1,0,0:0:0:0:
320,192,29765,1,8,0:0:0:0:
192,192,29927,1,0,0:0:0:0:
192,192,30089,1,0,0:0:0:0:
320,192,30251,1,8,0:0:0:0:
192,192,30414,1,0,0:0:0:0:
320,192,30576,1,8,0:0:0:0:
192,192,30738,1,0,0:0:0:0:
192,192,30900,1,0,0:0:0:0:
320,192,31062,1,8,0:0:0:0:
192,192,31224,1,0,0:0:0:0:
192,192,31386,1,0,0:0:0:0:
320,192,31548,1,8,0:0:0:0:
192,192,31711,1,0,0:0:0:0:
320,192,31873,1,8,0:0:0:0:
192,192,32035,1,0,0:0:0:0:
320,192,32197,1,8,0:0:0:0:
320,192,32360,1,8,0:0:0:0:
192,192,32522,1,0,0:0:0:0:
192,192,32684,1,0,0:0:0:0:
320,192,32846,1,8,0:0:0:0:
192,192,33008,1,0,0:0:0:0:
192,192,33170,1,0,0:0:0:0:
192,192,33251,1,0,0:0:0:0:
192,192,33333,1,0,0:0:0:0:
192,192,33495,1,0,0:0:0:0:
192,192,33657,1,0,0:0:0:0:
320,192,33819,1,8,0:0:0:0:
320,192,33900,1,8,0:0:0:0:
192,192,33981,1,0,0:0:0:0:
192,192,34062,1,0,0:0:0:0:
192,192,34143,5,0,0:0:0:0:
320,192,34224,1,8,0:0:0:0:
192,192,34306,1,0,0:0:0:0:
192,192,34387,1,0,0:0:0:0:
320,192,34468,1,8,0:0:0:0:
320,192,34549,1,8,0:0:0:0:
192,192,34630,1,0,0:0:0:0:
192,192,34792,1,0,0:0:0:0:
320,192,34954,1,8,0:0:0:0:
192,192,35116,1,0,0:0:0:0:
192,192,35197,1,0,0:0:0:0:
192,192,35279,1,0,0:0:0:0:
192,192,35441,1,0,0:0:0:0:
320,192,35603,1,8,0:0:0:0:
192,192,35765,1,0,0:0:0:0:
192,192,35927,1,0,0:0:0:0:
192,192,36089,1,0,0:0:0:0:
320,192,36251,1,8,0:0:0:0:
192,192,36414,1,0,0:0:0:0:
192,192,36495,1,0,0:0:0:0:
192,192,36576,1,0,0:0:0:0:
192,192,36738,1,0,0:0:0:0:
320,192,36900,1,8,0:0:0:0:
192,192,36981,1,0,0:0:0:0:
192,192,37062,1,0,0:0:0:0:
192,192,37143,1,0,0:0:0:0:
192,192,37224,1,0,0:0:0:0:
192,192,37387,1,0,0:0:0:0:
320,192,37549,1,8,0:0:0:0:
320,192,37711,1,8,0:0:0:0:
192,192,37873,1,0,0:0:0:0:
192,192,37954,1,0,0:0:0:0:
320,192,38035,1,8,0:0:0:0:
320,192,38116,1,8,0:0:0:0:
192,192,38197,1,0,0:0:0:0:
320,192,38360,1,8,0:0:0:0:
192,192,38522,1,0,0:0:0:0:
192,192,38684,1,0,0:0:0:0:
320,192,38846,1,8,0:0:0:0:
320,192,39008,1,8,0:0:0:0:
192,192,39170,1,0,0:0:0:0:
192,192,39251,1,0,0:0:0:0:
320,192,39333,1,8,0:0:0:0:
320,192,39414,1,8,0:0:0:0:
192,192,39495,1,0,0:0:0:0:
320,192,39657,1,8,0:0:0:0:
192,192,39819,1,0,0:0:0:0:
320,192,39981,1,8,0:0:0:0:
320,192,40143,1,8,0:0:0:0:
192,192,40306,1,0,0:0:0:0:
192,192,40468,1,0,0:0:0:0:
320,192,40549,1,8,0:0:0:0:
320,192,40630,1,8,0:0:0:0:
192,192,40711,1,0,0:0:0:0:
320,192,40792,1,8,0:0:0:0:
192,192,40954,1,0,0:0:0:0:
192,192,41116,1,0,0:0:0:0:
320,192,41278,1,8,0:0:0:0:
320,192,41440,1,8,0:0:0:0:
192,192,41603,1,0,0:0:0:0:
192,192,41765,1,0,0:0:0:0:
320,192,41846,1,8,0:0:0:0:
320,192,41927,1,8,0:0:0:0:
192,192,42008,1,0,0:0:0:0:
320,192,42089,1,8,0:0:0:0:
320,192,42251,1,8,0:0:0:0:
192,192,42414,1,0,0:0:0:0:
320,192,42576,1,8,0:0:0:0:
192,192,42738,1,0,0:0:0:0:
320,192,42900,1,8,0:0:0:0:
192,192,43062,1,0,0:0:0:0:
192,192,43143,1,0,0:0:0:0:
320,192,43224,1,8,0:0:0:0:
320,192,43306,1,8,0:0:0:0:
192,192,43387,1,0,0:0:0:0:
320,192,43549,1,8,0:0:0:0:
192,192,43711,1,0,0:0:0:0:
320,192,43873,1,8,0:0:0:0:
192,192,44035,1,0,0:0:0:0:
320,192,44197,1,8,0:0:0:0:
192,192,44359,1,0,0:0:0:0:
192,192,44440,1,0,0:0:0:0:
320,192,44521,1,8,0:0:0:0:
320,192,44603,1,8,0:0:0:0:
192,192,44684,1,0,0:0:0:0:
320,192,44765,1,8,0:0:0:0:
320,192,44846,1,8,0:0:0:0:
192,192,44927,1,0,0:0:0:0:
320,192,45008,1,8,0:0:0:0:
192,192,45170,1,0,0:0:0:0:
320,192,45333,1,8,0:0:0:0:
192,192,45495,1,0,0:0:0:0:
192,192,45576,1,0,0:0:0:0:
192,192,45657,1,0,0:0:0:0:
320,192,45819,1,8,0:0:0:0:
192,192,45981,1,0,0:0:0:0:
192,192,46143,1,0,0:0:0:0:
320,192,46306,1,8,0:0:0:0:
192,192,46468,1,0,0:0:0:0:
192,192,46630,1,0,0:0:0:0:
320,192,46792,1,8,0:0:0:0:
192,192,46954,1,0,0:0:0:0:
320,192,47116,1,8,0:0:0:0:
320,192,47197,1,8,0:0:0:0:
192,192,47279,1,0,0:0:0:0:
192,192,47441,1,0,0:0:0:0:
192,192,47603,1,0,0:0:0:0:
320,192,47765,1,8,0:0:0:0:
192,192,47927,1,0,0:0:0:0:
192,192,48008,1,0,0:0:0:0:
320,192,48089,1,8,0:0:0:0:
192,192,48251,1,0,0:0:0:0:
192,192,48332,1,0,0:0:0:0:
320,192,48413,1,8,0:0:0:0:
320,192,48495,1,8,0:0:0:0:
192,192,48576,1,0,0:0:0:0:
192,192,48657,1,0,0:0:0:0:
320,192,48738,1,8,0:0:0:0:
192,192,48900,1,0,0:0:0:0:
320,192,49062,1,8,0:0:0:0:
192,192,49224,1,0,0:0:0:0:
192,192,49306,1,0,0:0:0:0:
320,192,49387,1,8,0:0:0:0:
192,192,49549,1,0,0:0:0:0:
192,192,49630,1,0,0:0:0:0:
320,192,49711,1,8,0:0:0:0:
320,192,49793,1,8,0:0:0:0:
192,192,49874,1,0,0:0:0:0:
192,192,49955,1,0,0:0:0:0:
320,192,50036,1,8,0:0:0:0:
192,192,50197,1,4,0:0:0:0:
320,192,50279,1,8,0:0:0:0:
320,192,50360,1,8,0:0:0:0:
320,192,50441,1,8,0:0:0:0:
192,192,50522,1,0,0:0:0:0:
192,192,50603,1,0,0:0:0:0:
320,192,50684,1,8,0:0:0:0:
320,192,50765,1,8,0:0:0:0:
192,192,50846,1,0,0:0:0:0:
192,192,50927,1,0,0:0:0:0:
192,192,51008,1,0,0:0:0:0:
192,192,51089,1,0,0:0:0:0:
320,192,51170,1,8,0:0:0:0:
192,192,51251,1,0,0:0:0:0:
320,192,51333,1,8,0:0:0:0:
320,192,51414,1,8,0:0:0:0:
192,192,51495,1,0,0:0:0:0:
192,192,51576,1,0,0:0:0:0:
192,192,51657,1,0,0:0:0:0:
192,192,51738,1,0,0:0:0:0:
320,192,51819,1,8,0:0:0:0:
320,192,51900,1,8,0:0:0:0:
320,192,51981,1,8,0:0:0:0:
320,192,52062,1,8,0:0:0:0:
192,192,52143,1,0,0:0:0:0:
192,192,52224,1,0,0:0:0:0:
320,192,52306,1,8,0:0:0:0:
192,192,52387,1,0,0:0:0:0:
320,192,52468,1,8,0:0:0:0:
192,192,52549,1,0,0:0:0:0:
320,192,52630,1,8,0:0:0:0:
192,192,52711,1,0,0:0:0:0:
192,192,52792,1,0,0:0:0:0:
320,192,52954,1,8,0:0:0:0:
320,192,53116,1,8,0:0:0:0:
192,192,53279,1,0,0:0:0:0:
192,192,53441,1,0,0:0:0:0:
320,192,53603,1,8,0:0:0:0:
192,192,53765,1,0,0:0:0:0:
192,192,53927,1,0,0:0:0:0:
192,192,54089,1,0,0:0:0:0:
320,192,54251,1,8,0:0:0:0:
192,192,54414,1,0,0:0:0:0:
320,192,54576,1,8,0:0:0:0:
192,192,54738,1,0,0:0:0:0:
320,192,54819,1,8,0:0:0:0:
192,192,54900,1,0,0:0:0:0:
320,192,54981,1,8,0:0:0:0:
192,192,55062,1,0,0:0:0:0:
320,192,55143,1,8,0:0:0:0:
192,192,55224,1,0,0:0:0:0:
320,192,55305,1,8,0:0:0:0:
192,192,55387,1,4,0:0:0:0:
192,192,55549,1,0,0:0:0:0:
320,192,55711,1,8,0:0:0:0:
192,192,55873,1,0,0:0:0:0:
192,192,55954,1,0,0:0:0:0:
192,192,56035,1,0,0:0:0:0:
192,192,56197,1,0,0:0:0:0:
320,192,56360,1,8,0:0:0:0:
320,192,56522,1,8,0:0:0:0:
192,192,56603,1,0,0:0:0:0:
192,192,56684,1,0,0:0:0:0:
192,192,56846,1,0,0:0:0:0:
320,192,57008,1,8,0:0:0:0:
320,192,57170,1,8,0:0:0:0:
320,192,57251,1,8,0:0:0:0:
192,192,57333,1,0,0:0:0:0:
192,192,57414,1,0,0:0:0:0:
192,192,57495,1,0,0:0:0:0:
192,192,57576,1,0,0:0:0:0:
320,192,57657,1,8,0:0:0:0:
320,192,57738,1,8,0:0:0:0:
192,192,57819,1,0,0:0:0:0:
192,192,57900,1,0,0:0:0:0:
320,192,57981,1,8,0:0:0:0:
192,192,58143,1,0,0:0:0:0:
192,192,58306,1,0,0:0:0:0:
320,192,58468,1,8,0:0:0:0:
192,192,58549,1,0,0:0:0:0:
320,192,58630,1,8,0:0:0:0:
192,192,58792,1,0,0:0:0:0:
192,192,58954,1,0,0:0:0:0:
320,192,59116,1,8,0:0:0:0:
320,192,59197,1,8,0:0:0:0:
192,192,59279,1,0,0:0:0:0:
320,192,59441,1,8,0:0:0:0:
192,192,59603,1,0,0:0:0:0:
192,192,59684,1,0,0:0:0:0:
192,192,59765,1,0,0:0:0:0:
192,192,59846,1,0,0:0:0:0:
320,192,59927,1,8,0:0:0:0:
192,192,60008,1,0,0:0:0:0:
192,192,60089,1,0,0:0:0:0:
320,192,60251,1,8,0:0:0:0:
192,192,60333,1,0,0:0:0:0:
192,192,60414,1,0,0:0:0:0:
192,192,60576,1,0,0:0:0:0:
320,192,60738,1,8,0:0:0:0:
320,192,60900,1,8,0:0:0:0:
192,192,61062,1,0,0:0:0:0:
192,192,61224,1,0,0:0:0:0:
192,192,61306,1,0,0:0:0:0:
320,192,61387,1,8,0:0:0:0:
320,192,61468,1,8,0:0:0:0:
192,192,61549,1,0,0:0:0:0:
192,192,61630,1,0,0:0:0:0:
320,192,61711,1,8,0:0:0:0:
192,192,61873,1,0,0:0:0:0:
320,192,62035,1,8,0:0:0:0:
320,192,62197,1,8,0:0:0:0:
192,192,62360,1,0,0:0:0:0:
192,192,62441,1,0,0:0:0:0:
192,192,62522,1,0,0:0:0:0:
320,192,62603,1,8,0:0:0:0:
320,192,62684,1,8,0:0:0:0:
192,192,62765,1,0,0:0:0:0:
320,192,62846,1,8,0:0:0:0:
192,192,62927,1,0,0:0:0:0:
192,192,63008,1,0,0:0:0:0:
320,192,63170,1,8,0:0:0:0:
320,192,63333,1,8,0:0:0:0:
192,192,63495,1,0,0:0:0:0:
320,192,63657,1,8,0:0:0:0:
192,192,63819,1,0,0:0:0:0:
192,192,63900,1,0,0:0:0:0:
320,192,63981,1,8,0:0:0:0:
192,192,64143,1,0,0:0:0:0:
320,192,64224,1,8,0:0:0:0:
192,192,64306,1,0,0:0:0:0:
320,192,64468,1,12,0:0:0:0:
192,192,64630,1,0,0:0:0:0:
320,192,64792,1,12,0:0:0:0:
192,192,64954,1,0,0:0:0:0:
320,192,65116,1,12,0:0:0:0:
192,192,65278,1,0,0:0:0:0:
192,192,65441,1,0,0:0:0:0:
192,192,65603,1,0,0:0:0:0:
192,192,65765,1,4,0:0:0:0:
192,192,65927,1,0,0:0:0:0:
320,192,66089,1,8,0:0:0:0:
192,192,66251,1,0,0:0:0:0:
320,192,66333,1,8,0:0:0:0:
320,192,66414,1,8,0:0:0:0:
192,192,66576,1,0,0:0:0:0:
320,192,66738,1,8,0:0:0:0:
192,192,66900,1,0,0:0:0:0:
192,192,66981,1,0,0:0:0:0:
320,192,67062,1,8,0:0:0:0:
320,192,67224,1,8,0:0:0:0:
192,192,67387,1,0,0:0:0:0:
192,192,67468,1,0,0:0:0:0:
192,192,67549,1,0,0:0:0:0:
192,192,67630,1,0,0:0:0:0:
320,192,67711,1,8,0:0:0:0:
320,192,67792,1,8,0:0:0:0:
192,192,67873,1,0,0:0:0:0:
192,192,67954,1,0,0:0:0:0:
320,192,68035,1,8,0:0:0:0:
320,192,68116,1,8,0:0:0:0:
320,192,68197,1,8,0:0:0:0:
320,192,68279,1,8,0:0:0:0:
192,192,68360,1,0,0:0:0:0:
192,192,68522,1,0,0:0:0:0:
192,192,68603,1,0,0:0:0:0:
320,192,68684,1,8,0:0:0:0:
192,192,68846,1,0,0:0:0:0:
320,192,68927,1,8,0:0:0:0:
192,192,69008,1,0,0:0:0:0:
192,192,69170,1,0,0:0:0:0:
320,192,69333,1,8,0:0:0:0:
320,192,69414,1,8,0:0:0:0:
320,192,69495,1,8,0:0:0:0:
320,192,69576,1,8,0:0:0:0:
192,192,69657,1,0,0:0:0:0:
192,192,69738,1,0,0:0:0:0:
320,192,69819,1,8,0:0:0:0:
192,192,69981,1,0,0:0:0:0:
320,192,70143,1,8,0:0:0:0:
192,192,70306,1,0,0:0:0:0:
320,192,70387,1,8,0:0:0:0:
320,192,70468,1,8,0:0:0:0:
320,192,70549,1,8,0:0:0:0:
192,192,70630,1,0,0:0:0:0:
320,192,70711,1,8,0:0:0:0:
192,192,70792,1,0,0:0:0:0:
320,192,70873,1,8,0:0:0:0:
192,192,70954,1,0,0:0:0:0:
320,192,71116,1,8,0:0:0:0:
320,192,71279,1,8,0:0:0:0:
192,192,71441,1,0,0:0:0:0:
192,192,71603,1,0,0:0:0:0:
192,192,71684,1,0,0:0:0:0:
320,192,71765,1,8,0:0:0:0:
192,192,71927,1,0,0:0:0:0:
320,192,72089,1,8,0:0:0:0:
192,192,72251,1,0,0:0:0:0:
320,192,72413,1,8,0:0:0:0:
320,192,72576,1,8,0:0:0:0:
192,192,72738,1,0,0:0:0:0:
192,192,72900,1,0,0:0:0:0:
192,192,72981,1,0,0:0:0:0:
320,192,73062,1,8,0:0:0:0:
192,192,73224,1,0,0:0:0:0:
320,192,73386,1,8,0:0:0:0:
192,192,73549,1,0,0:0:0:0:
320,192,73711,1,8,0:0:0:0:
320,192,73874,1,8,0:0:0:0:
192,192,74036,1,0,0:0:0:0:
192,192,74198,1,0,0:0:0:0:
320,192,74360,1,8,0:0:0:0:
192,192,74522,1,0,0:0:0:0:
320,192,74684,1,8,0:0:0:0:
320,192,74846,1,8,0:0:0:0:
192,192,75008,1,0,0:0:0:0:
320,192,75170,1,8,0:0:0:0:
192,192,75332,1,0,0:0:0:0:
320,192,75495,1,8,0:0:0:0:
192,192,75657,1,0,0:0:0:0:
320,192,75819,1,8,0:0:0:0:
192,192,75981,1,0,0:0:0:0:
192,192,76143,1,0,0:0:0:0:
320,192,76306,1,8,0:0:0:0:
320,192,76468,1,8,0:0:0:0:
192,192,76630,1,0,0:0:0:0:
320,192,76711,1,8,0:0:0:0:
320,192,76792,1,8,0:0:0:0:
320,192,76954,1,8,0:0:0:0:
320,192,77116,1,8,0:0:0:0:
320,192,77197,1,8,0:0:0:0:
320,192,77279,1,8,0:0:0:0:
256,192,77441,12,0,78170,0:0:0:0:
192,192,78251,5,0,0:0:0:0:
320,192,78414,1,8,0:0:0:0:
192,192,78576,1,0,0:0:0:0:
192,192,78738,1,4,0:0:0:0:
320,192,79062,1,8,0:0:0:0:
192,192,79224,1,0,0:0:0:0:
192,192,79387,1,0,0:0:0:0:
192,192,79549,1,0,0:0:0:0:
320,192,79711,1,8,0:0:0:0:
192,192,79873,1,0,0:0:0:0:
192,192,80035,1,0,0:0:0:0:
320,192,80360,1,8,0:0:0:0:
192,192,80522,1,0,0:0:0:0:
192,192,80684,1,0,0:0:0:0:
320,192,81008,1,8,0:0:0:0:
192,192,81170,1,0,0:0:0:0:
192,192,81333,1,0,0:0:0:0:
320,192,81657,1,8,0:0:0:0:
192,192,81819,1,0,0:0:0:0:
192,192,81981,1,0,0:0:0:0:
192,192,82143,1,0,0:0:0:0:
320,192,82306,1,8,0:0:0:0:
192,192,82630,1,0,0:0:0:0:
192,192,82792,1,0,0:0:0:0:
320,192,82954,1,8,0:0:0:0:
192,192,83279,1,0,0:0:0:0:
192,192,83441,1,0,0:0:0:0:
320,192,83603,1,8,0:0:0:0:
192,192,83765,1,0,0:0:0:0:
192,192,83927,1,4,0:0:0:0:
320,192,84251,1,8,0:0:0:0:
192,192,84414,1,0,0:0:0:0:
192,192,84738,1,0,0:0:0:0:
320,192,84900,1,8,0:0:0:0:
192,192,85224,1,0,0:0:0:0:
192,192,85387,1,0,0:0:0:0:
320,192,85549,1,8,0:0:0:0:
192,192,85711,1,0,0:0:0:0:
192,192,86035,1,0,0:0:0:0:
320,192,86197,1,8,0:0:0:0:
192,192,86522,1,0,0:0:0:0:
320,192,86684,1,8,0:0:0:0:
320,192,86846,1,8,0:0:0:0:
192,192,87008,1,0,0:0:0:0:
320,192,87170,1,8,0:0:0:0:
320,192,87333,1,8,0:0:0:0:
192,192,87495,1,0,0:0:0:0:
320,192,87657,1,8,0:0:0:0:
192,192,87819,1,0,0:0:0:0:
320,192,87981,1,8,0:0:0:0:
192,192,88143,1,0,0:0:0:0:
320,192,88306,1,8,0:0:0:0:
192,192,88468,1,0,0:0:0:0:
192,192,88630,1,0,0:0:0:0:
320,192,88792,1,8,0:0:0:0:
320,192,88954,1,8,0:0:0:0:
192,192,89116,1,0,0:0:0:0:
192,192,89279,1,0,0:0:0:0:
320,192,89441,1,8,0:0:0:0:
192,192,89522,1,0,0:0:0:0:
192,192,89603,1,0,0:0:0:0:
320,192,89765,1,8,0:0:0:0:
192,192,89927,1,0,0:0:0:0:
192,192,90089,1,0,0:0:0:0:
320,192,90251,1,8,0:0:0:0:
192,192,90333,1,0,0:0:0:0:
192,192,90414,1,0,0:0:0:0:
192,192,90495,1,0,0:0:0:0:
192,192,90576,1,0,0:0:0:0:
192,192,90657,1,0,0:0:0:0:
320,192,90738,1,8,0:0:0:0:
192,192,90900,1,0,0:0:0:0:
320,192,91062,1,8,0:0:0:0:
192,192,91224,1,0,0:0:0:0:
192,192,91306,1,0,0:0:0:0:
320,192,91387,1,8,0:0:0:0:
320,192,91549,1,8,0:0:0:0:
320,192,91630,1,8,0:0:0:0:
320,192,91711,1,8,0:0:0:0:
320,192,91792,1,8,0:0:0:0:
320,192,91873,1,8,0:0:0:0:
192,192,92035,1,0,0:0:0:0:
192,192,92197,1,0,0:0:0:0:
320,192,92360,1,8,0:0:0:0:
192,192,92522,1,0,0:0:0:0:
192,192,92603,1,0,0:0:0:0:
192,192,92684,1,0,0:0:0:0:
192,192,92846,1,0,0:0:0:0:
320,192,93008,1,8,0:0:0:0:
192,192,93089,1,0,0:0:0:0:
320,192,93170,1,8,0:0:0:0:
320,192,93251,1,8,0:0:0:0:
320,192,93333,1,8,0:0:0:0:
320,192,93414,1,8,0:0:0:0:
320,192,93495,1,8,0:0:0:0:
192,192,93576,1,0,0:0:0:0:
320,192,93657,1,8,0:0:0:0:
320,192,93738,1,8,0:0:0:0:
192,192,93819,1,0,0:0:0:0:
192,192,93900,1,0,0:0:0:0:
320,192,93981,1,8,0:0:0:0:
192,192,94062,1,0,0:0:0:0:
192,192,94143,1,0,0:0:0:0:
320,192,94306,1,12,0:0:0:0:
192,192,94468,1,0,0:0:0:0:
320,192,94630,1,8,0:0:0:0:
320,192,94711,1,8,0:0:0:0:
320,192,94792,1,8,0:0:0:0:
320,192,94873,1,8,0:0:0:0:
192,192,94954,1,0,0:0:0:0:
192,192,95116,1,0,0:0:0:0:
192,192,95279,1,0,0:0:0:0:
192,192,95360,1,0,0:0:0:0:
192,192,95441,1,0,0:0:0:0:
192,192,95522,1,0,0:0:0:0:
320,192,95603,1,8,0:0:0:0:
320,192,95684,1,8,0:0:0:0:
320,192,95765,1,8,0:0:0:0:
320,192,95846,1,8,0:0:0:0:
320,192,95927,1,8,0:0:0:0:
320,192,96008,1,8,0:0:0:0:
192,192,96089,1,0,0:0:0:0:
192,192,96170,1,0,0:0:0:0:
320,192,96251,1,8,0:0:0:0:
192,192,96333,1,0,0:0:0:0:
192,192,96414,1,0,0:0:0:0:
192,192,96495,1,0,0:0:0:0:
320,192,96576,1,8,0:0:0:0:
192,192,96657,1,0,0:0:0:0:
320,192,96738,1,8,0:0:0:0:
320,192,96819,1,8,0:0:0:0:
320,192,96900,1,8,0:0:0:0:
320,192,96981,1,8,0:0:0:0:
320,192,97062,1,8,0:0:0:0:
320,192,97143,1,8,0:0:0:0:
192,192,97224,1,0,0:0:0:0:
192,192,97549,1,0,0:0:0:0:
192,192,97711,1,0,0:0:0:0:
320,192,97873,1,8,0:0:0:0:
192,192,98035,1,0,0:0:0:0:
192,192,98197,1,0,0:0:0:0:
192,192,98360,1,0,0:0:0:0:
320,192,98522,1,8,0:0:0:0:
192,192,98684,1,0,0:0:0:0:
320,192,98846,1,8,0:0:0:0:
320,192,99008,1,8,0:0:0:0:
192,192,99170,1,0,0:0:0:0:
320,192,99333,1,8,0:0:0:0:
320,192,99495,1,12,0:0:0:0:
192,192,99576,1,0,0:0:0:0:
192,192,99657,1,0,0:0:0:0:
192,192,99738,1,0,0:0:0:0:
192,192,99819,1,0,0:0:0:0:
192,192,99900,1,0,0:0:0:0:
192,192,99981,1,0,0:0:0:0:
320,192,100062,1,8,0:0:0:0:
320,192,100143,1,8,0:0:0:0:
192,192,100251,1,0,0:0:0:0:
192,192,100360,1,0,0:0:0:0:
320,192,100468,1,8,0:0:0:0:
192,192,100576,1,0,0:0:0:0:
192,192,100684,1,0,0:0:0:0:
320,192,100792,1,8,0:0:0:0:
192,192,100846,1,0,0:0:0:0:
320,192,100900,1,8,0:0:0:0:
192,192,100954,1,0,0:0:0:0:
320,192,101008,1,8,0:0:0:0:
192,192,101062,1,0,0:0:0:0:
320,192,101116,1,8,0:0:0:0:
192,192,101224,1,0,0:0:0:0:
192,192,101333,1,0,0:0:0:0:
320,192,101441,1,8,0:0:0:0:
192,192,101495,1,0,0:0:0:0:
320,192,101549,1,8,0:0:0:0:
192,192,101603,1,0,0:0:0:0:
320,192,101657,1,8,0:0:0:0:
192,192,101711,1,0,0:0:0:0:
320,192,101765,1,8,0:0:0:0:
192,192,101873,1,0,0:0:0:0:
192,192,101981,1,0,0:0:0:0:
320,192,102089,1,8,0:0:0:0:
192,192,102251,1,0,0:0:0:0:
320,192,102414,1,8,0:0:0:0:
192,192,102576,1,0,0:0:0:0:
192,192,102738,1,0,0:0:0:0:
192,192,102819,1,0,0:0:0:0:
192,192,102900,1,0,0:0:0:0:
192,192,103062,1,0,0:0:0:0:
320,192,103224,1,8,0:0:0:0:
320,192,103387,1,8,0:0:0:0:
192,192,103549,1,0,0:0:0:0:
192,192,103630,1,0,0:0:0:0:
192,192,103711,1,0,0:0:0:0:
320,192,103873,1,8,0:0:0:0:
192,192,104035,1,0,0:0:0:0:
192,192,104116,1,0,0:0:0:0:
192,192,104197,1,0,0:0:0:0:
192,192,104279,1,0,0:0:0:0:
320,192,104360,1,8,0:0:0:0:
192,192,104441,1,0,0:0:0:0:
192,192,104522,1,0,0:0:0:0:
192,192,104603,1,0,0:0:0:0:
320,192,104684,1,8,0:0:0:0:
192,192,104765,1,0,0:0:0:0:
192,192,104846,1,0,0:0:0:0:
192,192,105008,1,0,0:0:0:0:
192,192,105170,1,0,0:0:0:0:
192,192,105251,1,0,0:0:0:0:
320,192,105333,1,8,0:0:0:0:
320,192,105414,1,8,0:0:0:0:
192,192,105495,1,0,0:0:0:0:
192,192,105576,1,0,0:0:0:0:
320,192,105657,1,8,0:0:0:0:
192,192,105738,1,0,0:0:0:0:
320,192,105819,1,8,0:0:0:0:
320,192,105900,1,8,0:0:0:0:
320,192,105981,1,8,0:0:0:0:
320,192,106062,1,8,0:0:0:0:
320,192,106143,1,8,0:0:0:0:
192,192,106306,1,0,0:0:0:0:
320,192,106468,1,8,0:0:0:0:
320,192,106549,1,8,0:0:0:0:
320,192,106630,1,8,0:0:0:0:
320,192,106711,1,8,0:0:0:0:
320,192,106792,1,8,0:0:0:0:
192,192,106954,1,0,0:0:0:0:
320,192,107035,1,8,0:0:0:0:
320,192,107116,1,8,0:0:0:0:
192,192,107279,1,0,0:0:0:0:
320,192,107441,1,8,0:0:0:0:
320,192,107603,1,8,0:0:0:0:
192,192,107765,1,0,0:0:0:0:
320,192,107927,1,8,0:0:0:0:
320,192,108251,1,8,0:0:0:0:
320,192,108414,1,8,0:0:0:0:
192,192,108576,1,0,0:0:0:0:
320,192,108738,1,8,0:0:0:0:
320,192,108900,1,8,0:0:0:0:
320,192,109062,1,0,0:0:0:0:
320,192,109224,1,8,0:0:0:0:
320,192,109387,1,0,0:0:0:0:
320,192,109549,1,8,0:0:0:0:
320,192,109711,1,0,0:0:0:0:
192,192,109873,1,4,0:0:0:0:
192,192,112143,1,0,0:0:0:0:
320,192,112306,1,8,0:0:0:0:
320,192,112468,1,8,0:0:0:0:
192,192,112954,1,0,0:0:0:0:
320,192,113441,1,8,0:0:0:0:
192,192,113765,1,0,0:0:0:0:
320,192,114251,1,8,0:0:0:0:
320,192,114738,1,8,0:0:0:0:
192,192,115062,1,0,0:0:0:0:
320,192,116035,1,8,0:0:0:0:
320,192,116197,1,8,0:0:0:0:
192,192,116360,1,0,0:0:0:0:
320,192,119927,1,8,0:0:0:0:
192,192,120251,1,0,0:0:0:0:
192,192,120576,1,0,0:0:0:0:
320,192,120900,1,8,0:0:0:0:
192,192,121224,1,0,0:0:0:0:
320,192,121387,1,8,0:0:0:0:
192,192,121549,1,0,0:0:0:0:
192,192,121873,1,0,0:0:0:0:
320,192,122197,1,8,0:0:0:0:
320,192,122360,1,8,0:0:0:0:
192,192,122522,1,0,0:0:0:0:
192,192,122846,1,0,0:0:0:0:
320,192,123008,1,8,0:0:0:0:
320,192,123170,1,8,0:0:0:0:
192,192,123333,1,0,0:0:0:0:
320,192,123495,1,8,0:0:0:0:
192,192,123819,1,0,0:0:0:0:
320,192,123981,1,8,0:0:0:0:
192,192,124143,1,0,0:0:0:0:
320,192,124305,1,8,0:0:0:0:
320,192,124467,1,8,0:0:0:0:
192,192,124630,1,0,0:0:0:0:
320,192,124792,1,8,0:0:0:0:
192,192,124954,1,0,0:0:0:0:
320,192,125116,1,8,0:0:0:0:
320,192,125279,1,8,0:0:0:0:
320,192,125441,1,12,0:0:0:0:
320,192,125603,1,8,0:0:0:0:
320,192,125765,1,8,0:0:0:0:
192,192,125927,1,0,0:0:0:0:
192,192,126089,1,0,0:0:0:0:
320,192,126251,1,8,0:0:0:0:
192,192,126414,1,0,0:0:0:0:
320,192,126576,1,8,0:0:0:0:
320,192,126738,1,8,0:0:0:0:
320,192,126900,1,8,0:0:0:0:
320,192,127062,1,8,0:0:0:0:
192,192,127224,1,0,0:0:0:0:
192,192,127386,1,0,0:0:0:0:
320,192,127548,1,8,0:0:0:0:
192,192,127711,1,0,0:0:0:0:
320,192,127873,1,8,0:0:0:0:
192,192,129333,1,0,0:0:0:0:
192,192,129495,1,0,0:0:0:0:
192,192,129657,1,0,0:0:0:0:
320,192,129819,1,12,0:0:0:0:
192,192,129981,1,4,0:0:0:0:
320,192,130143,1,12,0:0:0:0:
192,192,130306,1,4,0:0:0:0:
192,192,130468,1,4,0:0:0:0:
320,192,130630,1,12,0:0:0:0:
192,192,130792,1,0,0:0:0:0:
192,192,130873,1,0,0:0:0:0:
192,192,130954,1,0,0:0:0:0:
192,192,131116,1,0,0:0:0:0:
320,192,131279,1,8,0:0:0:0:
192,192,131360,1,0,0:0:0:0:
192,192,131441,1,0,0:0:0:0:
192,192,131603,1,0,0:0:0:0:
192,192,131765,1,0,0:0:0:0:
192,192,131846,1,0,0:0:0:0:
320,192,131927,1,8,0:0:0:0:
192,192,132008,1,0,0:0:0:0:
192,192,132089,1,0,0:0:0:0:
192,192,132170,1,0,0:0:0:0:
192,192,132251,1,0,0:0:0:0:
192,192,132333,1,0,0:0:0:0:
192,192,132414,1,0,0:0:0:0:
192,192,132495,1,0,0:0:0:0:
320,192,132576,1,8,0:0:0:0:
320,192,132657,1,8,0:0:0:0:
320,192,132738,1,8,0:0:0:0:
320,192,132819,1,8,0:0:0:0:
192,192,132900,1,0,0:0:0:0:
192,192,132981,1,0,0:0:0:0:
320,192,133062,1,8,0:0:0:0:
192,192,133224,1,0,0:0:0:0:
192,192,133306,1,0,0:0:0:0:
320,192,133387,1,8,0:0:0:0:
320,192,133468,1,8,0:0:0:0:
320,192,133549,1,8,0:0:0:0:
320,192,133630,1,8,0:0:0:0:
320,192,133711,1,8,0:0:0:0:
320,192,133873,1,8,0:0:0:0:
192,192,134035,1,0,0:0:0:0:
192,192,134116,1,0,0:0:0:0:
320,192,134197,1,8,0:0:0:0:
192,192,134360,1,0,0:0:0:0:
320,192,134522,1,8,0:0:0:0:
320,192,134603,1,8,0:0:0:0:
192,192,134684,1,0,0:0:0:0:
192,192,134846,1,0,0:0:0:0:
320,192,135008,1,8,0:0:0:0:
192,192,135089,1,0,0:0:0:0:
192,192,135170,1,0,0:0:0:0:
192,192,135333,1,0,0:0:0:0:
192,192,135414,1,0,0:0:0:0:
320,192,135495,1,8,0:0:0:0:
192,192,135576,1,0,0:0:0:0:
320,192,135657,1,8,0:0:0:0:
192,192,135738,1,0,0:0:0:0:
192,192,135819,1,0,0:0:0:0:
192,192,135981,1,0,0:0:0:0:
192,192,136062,1,0,0:0:0:0:
192,192,136143,1,0,0:0:0:0:
320,192,136306,1,8,0:0:0:0:
192,192,136387,1,0,0:0:0:0:
192,192,136468,1,0,0:0:0:0:
320,192,136630,1,8,0:0:0:0:
192,192,136711,1,0,0:0:0:0:
192,192,136792,1,0,0:0:0:0:
192,192,136873,1,0,0:0:0:0:
320,192,136954,1,8,0:0:0:0:
192,192,137116,1,0,0:0:0:0:
192,192,137278,1,0,0:0:0:0:
192,192,137359,1,0,0:0:0:0:
192,192,137440,1,0,0:0:0:0:
320,192,137603,1,8,0:0:0:0:
192,192,137684,1,0,0:0:0:0:
192,192,137765,1,0,0:0:0:0:
320,192,137927,1,8,0:0:0:0:
192,192,138008,1,0,0:0:0:0:
192,192,138089,1,0,0:0:0:0:
192,192,138170,1,0,0:0:0:0:
320,192,138251,1,8,0:0:0:0:
192,192,138414,1,0,0:0:0:0:
320,192,138495,1,8,0:0:0:0:
320,192,138576,1,8,0:0:0:0:
320,192,138738,1,8,0:0:0:0:
320,192,138900,1,8,0:0:0:0:
192,192,138981,1,0,0:0:0:0:
192,192,139062,1,0,0:0:0:0:
320,192,139224,1,8,0:0:0:0:
320,192,139306,1,8,0:0:0:0:
192,192,139387,1,0,0:0:0:0:
192,192,139468,1,0,0:0:0:0:
320,192,139549,1,8,0:0:0:0:
320,192,139711,1,12,0:0:0:0:
192,192,139873,1,0,0:0:0:0:
320,192,140035,1,12,0:0:0:0:
192,192,140197,1,0,0:0:0:0:
320,192,140360,1,12,0:0:0:0:
192,192,140522,1,0,0:0:0:0:
320,192,140684,1,12,0:0:0:0:
320,192,140846,1,8,0:0:0:0:
320,192,141008,1,12,0:0:0:0:
192,192,141170,1,0,0:0:0:0:
192,192,141251,1,0,0:0:0:0:
192,192,141333,1,0,0:0:0:0:
320,192,141495,1,8,0:0:0:0:
320,192,141657,1,8,0:0:0:0:
192,192,141738,1,0,0:0:0:0:
192,192,141819,1,0,0:0:0:0:
192,192,141981,1,0,0:0:0:0:
192,192,142143,1,0,0:0:0:0:
192,192,142224,1,0,0:0:0:0:
320,192,142306,1,8,0:0:0:0:
320,192,142387,1,8,0:0:0:0:
320,192,142468,1,8,0:0:0:0:
192,192,142549,1,0,0:0:0:0:
320,192,142630,1,8,0:0:0:0:
192,192,142792,1,0,0:0:0:0:
320,192,142954,1,8,0:0:0:0:
320,192,143035,1,8,0:0:0:0:
320,192,143116,1,8,0:0:0:0:
192,192,143197,1,0,0:0:0:0:
320,192,143279,1,8,0:0:0:0:
192,192,143360,1,0,0:0:0:0:
192,192,143441,1,0,0:0:0:0:
320,192,143522,1,8,0:0:0:0:
192,192,143603,1,0,0:0:0:0:
192,192,143684,1,0,0:0:0:0:
192,192,143765,1,0,0:0:0:0:
320,192,143927,1,8,0:0:0:0:
192,192,144089,1,0,0:0:0:0:
320,192,144251,1,8,0:0:0:0:
192,192,144333,1,0,0:0:0:0:
192,192,144414,1,0,0:0:0:0:
320,192,144576,1,8,0:0:0:0:
192,192,144738,1,0,0:0:0:0:
192,192,144819,1,0,0:0:0:0:
320,192,144900,1,8,0:0:0:0:
192,192,145062,1,0,0:0:0:0:
320,192,145143,1,8,0:0:0:0:
320,192,145224,1,8,0:0:0:0:
192,192,145306,1,0,0:0:0:0:
192,192,145387,1,0,0:0:0:0:
192,192,145468,1,0,0:0:0:0:
320,192,145549,1,8,0:0:0:0:
320,192,145630,1,8,0:0:0:0:
320,192,145711,1,8,0:0:0:0:
192,192,145792,1,0,0:0:0:0:
320,192,145873,1,8,0:0:0:0:
192,192,145954,1,0,0:0:0:0:
320,192,146035,1,8,0:0:0:0:
320,192,146116,1,8,0:0:0:0:
320,192,146197,1,8,0:0:0:0:
192,192,146360,1,0,0:0:0:0:
192,192,146522,1,0,0:0:0:0:
320,192,146684,1,8,0:0:0:0:
192,192,146846,1,0,0:0:0:0:
192,192,146927,1,0,0:0:0:0:
320,192,147008,1,8,0:0:0:0:
192,192,147170,1,0,0:0:0:0:
192,192,147251,1,0,0:0:0:0:
320,192,147332,1,8,0:0:0:0:
192,192,147495,1,0,0:0:0:0:
320,192,147657,1,8,0:0:0:0:
320,192,147819,1,8,0:0:0:0:
192,192,147981,1,0,0:0:0:0:
192,192,148143,1,0,0:0:0:0:
192,192,148224,1,0,0:0:0:0:
320,192,148305,1,8,0:0:0:0:
192,192,148467,1,0,0:0:0:0:
192,192,148548,1,0,0:0:0:0:
320,192,148629,1,8,0:0:0:0:
192,192,148792,1,0,0:0:0:0:
192,192,148954,1,0,0:0:0:0:
192,192,149116,1,0,0:0:0:0:
320,192,149279,1,8,0:0:0:0:
320,192,149360,1,8,0:0:0:0:
192,192,149441,1,0,0:0:0:0:
320,192,149603,1,8,0:0:0:0:
192,192,149684,1,0,0:0:0:0:
192,192,149765,1,0,0:0:0:0:
192,192,149927,1,0,0:0:0:0:
320,192,150089,1,8,0:0:0:0:
320,192,150251,1,8,0:0:0:0:
320,192,150333,1,8,0:0:0:0:
320,192,150414,1,8,0:0:0:0:
320,192,150576,1,8,0:0:0:0:
192,192,150738,1,0,0:0:0:0:
192,192,150900,1,0,0:0:0:0:
256,192,151062,12,0,151306,0:0:0:0:
192,192,151387,5,4,0:0:0:0:
192,192,151549,1,0,0:0:0:0:
320,192,151711,1,8,0:0:0:0:
192,192,151873,1,0,0:0:0:0:
192,192,151954,1,0,0:0:0:0:
192,192,152035,1,0,0:0:0:0:
192,192,152197,1,0,0:0:0:0:
320,192,152360,1,8,0:0:0:0:
192,192,152441,1,0,0:0:0:0:
192,192,152522,1,0,0:0:0:0:
192,192,152603,1,0,0:0:0:0:
320,192,152684,1,8,0:0:0:0:
320,192,152765,1,8,0:0:0:0:
320,192,152846,1,8,0:0:0:0:
320,192,152927,1,8,0:0:0:0:
320,192,153008,1,8,0:0:0:0:
320,192,153089,1,8,0:0:0:0:
320,192,153170,1,8,0:0:0:0:
320,192,153251,1,8,0:0:0:0:
192,192,153333,1,0,0:0:0:0:
192,192,153414,1,0,0:0:0:0:
192,192,153495,1,0,0:0:0:0:
192,192,153576,1,0,0:0:0:0:
320,192,153657,1,8,0:0:0:0:
320,192,153738,1,8,0:0:0:0:
192,192,153819,1,0,0:0:0:0:
192,192,153981,1,0,0:0:0:0:
192,192,154062,1,0,0:0:0:0:
192,192,154143,1,0,0:0:0:0:
192,192,154224,1,0,0:0:0:0:
320,192,154306,1,8,0:0:0:0:
192,192,154387,1,0,0:0:0:0:
192,192,154468,1,0,0:0:0:0:
192,192,154549,1,0,0:0:0:0:
192,192,154630,1,0,0:0:0:0:
192,192,154792,1,0,0:0:0:0:
320,192,154954,1,8,0:0:0:0:
192,192,155035,1,0,0:0:0:0:
192,192,155116,1,0,0:0:0:0:
192,192,155197,1,0,0:0:0:0:
320,192,155279,1,8,0:0:0:0:
320,192,155360,1,8,0:0:0:0:
320,192,155441,1,8,0:0:0:0:
192,192,155522,1,0,0:0:0:0:
320,192,155603,1,8,0:0:0:0:
320,192,155684,1,8,0:0:0:0:
192,192,155765,1,0,0:0:0:0:
192,192,155846,1,0,0:0:0:0:
320,192,155927,1,8,0:0:0:0:
320,192,156008,1,8,0:0:0:0:
320,192,156089,1,8,0:0:0:0:
320,192,156170,1,8,0:0:0:0:
192,192,156251,1,0,0:0:0:0:
320,192,156333,1,8,0:0:0:0:
320,192,156414,1,8,0:0:0:0:
320,192,156495,1,8,0:0:0:0:
192,192,156576,1,4,0:0:0:0:
192,192,156738,1,0,0:0:0:0:
320,192,156819,1,8,0:0:0:0:
192,192,156900,1,0,0:0:0:0:
320,192,157062,1,8,0:0:0:0:
192,192,157224,1,0,0:0:0:0:
320,192,157387,1,8,0:0:0:0:
192,192,157549,1,0,0:0:0:0:
192,192,157711,1,0,0:0:0:0:
192,192,157792,1,0,0:0:0:0:
320,192,157873,1,12,0:0:0:0:
192,192,158035,1,0,0:0:0:0:
320,192,158116,1,8,0:0:0:0:
192,192,158197,1,0,0:0:0:0:
320,192,158360,1,8,0:0:0:0:
192,192,158522,1,0,0:0:0:0:
320,192,158684,1,8,0:0:0:0:
192,192,158846,1,0,0:0:0:0:
320,192,159008,1,8,0:0:0:0:
320,192,159089,1,8,0:0:0:0:
192,192,159170,1,0,0:0:0:0:
320,192,159333,1,8,0:0:0:0:
192,192,159495,1,0,0:0:0:0:
320,192,159576,1,8,0:0:0:0:
192,192,159657,1,0,0:0:0:0:
192,192,159819,1,0,0:0:0:0:
320,192,159981,1,8,0:0:0:0:
192,192,160143,1,0,0:0:0:0:
192,192,160306,1,0,0:0:0:0:
320,192,160468,1,12,0:0:0:0:
192,192,160630,1,0,0:0:0:0:
320,192,160792,1,12,0:0:0:0:
192,192,160954,1,0,0:0:0:0:
320,192,161116,1,12,0:0:0:0:
192,192,161279,1,0,0:0:0:0:
320,192,161441,1,12,0:0:0:0:
320,192,161603,1,12,0:0:0:0:
320,192,161765,1,12,0:0:0:0:
192,192,161927,1,0,0:0:0:0:
192,192,162089,1,0,0:0:0:0:
192,192,162251,1,0,0:0:0:0:
320,192,162414,1,8,0:0:0:0:
192,192,162495,1,0,0:0:0:0:
192,192,162576,1,0,0:0:0:0:
192,192,162738,1,0,0:0:0:0:
320,192,162900,1,8,0:0:0:0:
320,192,163062,1,8,0:0:0:0:
320,192,163143,1,8,0:0:0:0:
320,192,163224,1,8,0:0:0:0:
320,192,163306,1,8,0:0:0:0:
320,192,163387,1,8,0:0:0:0:
192,192,163549,1,0,0:0:0:0:
320,192,163711,1,8,0:0:0:0:
320,192,163792,1,8,0:0:0:0:
192,192,163873,1,0,0:0:0:0:
320,192,164035,1,8,0:0:0:0:
192,192,164116,1,0,0:0:0:0:
192,192,164197,1,0,0:0:0:0:
320,192,164360,1,8,0:0:0:0:
320,192,164441,1,8,0:0:0:0:
320,192,164522,1,8,0:0:0:0:
320,192,164603,1,8,0:0:0:0:
320,192,164684,1,8,0:0:0:0:
192,192,164846,1,0,0:0:0:0:
320,192,165008,1,8,0:0:0:0:
192,192,165170,1,0,0:0:0:0:
192,192,165251,1,0,0:0:0:0:
320,192,165333,1,8,0:0:0:0:
192,192,165495,1,0,0:0:0:0:
320,192,165657,1,8,0:0:0:0:
192,192,165738,1,0,0:0:0:0:
192,192,165819,1,0,0:0:0:0:
320,192,165981,1,8,0:0:0:0:
192,192,166143,1,0,0:0:0:0:
192,192,166224,1,0,0:0:0:0:
320,192,166306,1,8,0:0:0:0:
192,192,166468,1,0,0:0:0:0:
192,192,166549,1,0,0:0:0:0:
320,192,166630,1,8,0:0:0:0:
192,192,166711,1,0,0:0:0:0:
320,192,166792,1,8,0:0:0:0:
320,192,166873,1,8,0:0:0:0:
320,192,166954,1,8,0:0:0:0:
192,192,167116,1,0,0:0:0:0:
320,192,167197,1,8,0:0:0:0:
192,192,167279,1,0,0:0:0:0:
320,192,167441,1,8,0:0:0:0:
192,192,167603,1,0,0:0:0:0:
320,192,167765,1,8,0:0:0:0:
192,192,167927,1,0,0:0:0:0:
320,192,168008,1,8,0:0:0:0:
192,192,168089,1,0,0:0:0:0:
320,192,168251,1,8,0:0:0:0:
192,192,168414,1,0,0:0:0:0:
320,192,168495,1,8,0:0:0:0:
320,192,168576,1,8,0:0:0:0:
192,192,168657,1,0,0:0:0:0:
320,192,168819,1,8,0:0:0:0:
192,192,168900,1,0,0:0:0:0:
320,192,169062,1,8,0:0:0:0:
192,192,169224,1,0,0:0:0:0:
192,192,169387,1,0,0:0:0:0:
320,192,169468,1,8,0:0:0:0:
320,192,169549,1,8,0:0:0:0:
192,192,169711,1,0,0:0:0:0:
320,192,169873,1,8,0:0:0:0:
320,192,170035,1,8,0:0:0:0:
320,192,170116,1,8,0:0:0:0:
192,192,170197,1,0,0:0:0:0:
320,192,170360,1,8,0:0:0:0:
320,192,170522,1,8,0:0:0:0:
320,192,170603,1,8,0:0:0:0:
320,192,170684,1,8,0:0:0:0:
192,192,170846,1,0,0:0:0:0:
320,192,171008,1,8,0:0:0:0:
192,192,171170,1,0,0:0:0:0:
320,192,171332,1,8,0:0:0:0:
192,192,171495,1,0,0:0:0:0:
320,192,171657,1,8,0:0:0:0:
192,192,171819,1,0,0:0:0:0:
320,192,171981,1,8,0:0:0:0:
320,192,172143,1,12,0:0:0:0:
320,192,172306,1,8,0:0:0:0:
192,192,172468,1,0,0:0:0:0:
192,192,172792,1,0,0:0:0:0:
192,192,173116,1,0,0:0:0:0:
192,192,173441,1,0,0:0:0:0:
192,192,173765,1,0,0:0:0:0:
192,192,174089,1,0,0:0:0:0:
192,192,174413,1,0,0:0:0:0:
320,192,174576,1,8,0:0:0:0:
192,192,174738,1,0,0:0:0:0:
320,192,174900,1,8,0:0:0:0:
192,192,175062,1,0,0:0:0:0:
320,192,175224,1,8,0:0:0:0:
192,192,175386,1,0,0:0:0:0:
320,192,175549,1,8,0:0:0:0:
192,192,175710,1,0,0:0:0:0:
320,192,175873,1,8,0:0:0:0:
192,192,176035,1,0,0:0:0:0:
320,192,176197,1,8,0:0:0:0:
192,192,176359,1,0,0:0:0:0:
320,192,176522,1,8,0:0:0:0:
192,192,176683,1,0,0:0:0:0:
320,192,176846,1,8,0:0:0:0:
192,192,177007,1,0,0:0:0:0:
192,192,177170,1,0,0:0:0:0:
192,192,177251,1,0,0:0:0:0:
192,192,177332,1,0,0:0:0:0:
320,192,177495,1,8,0:0:0:0:
192,192,177657,1,0,0:0:0:0:
192,192,177981,1,0,0:0:0:0:
192,192,178305,1,0,0:0:0:0:
192,192,178630,1,0,0:0:0:0:
192,192,178954,1,0,0:0:0:0:
192,192,179278,1,0,0:0:0:0:
192,192,179602,1,0,0:0:0:0:
192,192,179927,1,0,0:0:0:0:
192,192,180251,1,0,0:0:0:0:
192,192,180575,1,0,0:0:0:0:
192,192,180899,1,0,0:0:0:0:
192,192,181224,1,0,0:0:0:0:
192,192,181548,1,0,0:0:0:0:
192,192,181872,1,0,0:0:0:0:
192,192,182196,1,0,0:0:0:0:
320,192,182360,1,8,0:0:0:0:
320,192,182441,1,8,0:0:0:0:
192,192,182522,1,0,0:0:0:0:
320,192,182603,1,8,0:0:0:0:
320,192,182684,1,8,0:0:0:0:
320,192,182765,1,8,0:0:0:0:
192,192,182846,1,0,0:0:0:0:
320,192,182927,1,8,0:0:0:0:
320,192,183008,1,8,0:0:0:0:
320,192,183089,1,8,0:0:0:0:
192,192,183170,1,0,0:0:0:0:
320,192,183251,1,8,0:0:0:0:
320,192,183332,1,8,0:0:0:0:
320,192,183413,1,8,0:0:0:0:
192,192,183495,1,0,0:0:0:0:
320,192,183576,1,8,0:0:0:0:
320,192,183657,1,8,0:0:0:0:
320,192,183738,1,8,0:0:0:0:
192,192,183819,1,0,0:0:0:0:
320,192,183900,1,8,0:0:0:0:
320,192,183981,1,8,0:0:0:0:
320,192,184062,1,8,0:0:0:0:
192,192,184143,1,0,0:0:0:0:
320,192,184224,1,8,0:0:0:0:
320,192,184305,1,8,0:0:0:0:
320,192,184386,1,8,0:0:0:0:
192,192,184467,1,0,0:0:0:0:
320,192,184548,1,8,0:0:0:0:
320,192,184629,1,8,0:0:0:0:
320,192,184710,1,8,0:0:0:0:
192,192,184792,1,0,0:0:0:0:
320,192,184873,1,8,0:0:0:0:
320,192,184954,1,8,0:0:0:0:
320,192,185035,1,8,0:0:0:0:
192,192,185116,1,0,0:0:0:0:
320,192,185197,1,8,0:0:0:0:
320,192,185278,1,8,0:0:0:0:
320,192,185359,1,8,0:0:0:0:
192,192,185440,1,0,0:0:0:0:
320,192,185521,1,8,0:0:0:0:
320,192,185602,1,8,0:0:0:0:
320,192,185683,1,8,0:0:0:0:
192,192,185764,1,0,0:0:0:0:
320,192,185845,1,8,0:0:0:0:
320,192,185926,1,8,0:0:0:0:
320,192,186007,1,8,0:0:0:0:
192,192,186089,1,0,0:0:0:0:
320,192,186170,1,8,0:0:0:0:
320,192,186251,1,8,0:0:0:0:
320,192,186332,1,8,0:0:0:0:
192,192,186414,1,0,0:0:0:0:
192,192,186495,1,0,0:0:0:0:
320,192,186576,1,8,0:0:0:0:
320,192,186657,1,8,0:0:0:0:
192,192,186738,1,0,0:0:0:0:
192,192,186819,1,0,0:0:0:0:
320,192,186900,1,8,0:0:0:0:
320,192,186981,1,8,0:0:0:0:
192,192,187062,1,0,0:0:0:0:
192,192,187143,1,0,0:0:0:0:
320,192,187224,1,8,0:0:0:0:
320,192,187305,1,8,0:0:0:0:
192,192,187387,1,0,0:0:0:0:
320,192,187468,1,8,0:0:0:0:
192,192,187549,1,0,0:0:0:0:
192,192,187630,1,0,0:0:0:0:
192,192,187711,1,0,0:0:0:0:
320,192,187792,1,8,0:0:0:0:
320,192,187873,1,8,0:0:0:0:
320,192,187954,1,8,0:0:0:0:
192,192,188035,1,0,0:0:0:0:
320,192,188116,1,8,0:0:0:0:
320,192,188197,1,8,0:0:0:0:
320,192,188278,1,8,0:0:0:0:
192,192,188359,1,0,0:0:0:0:
320,192,188440,1,8,0:0:0:0:
320,192,188521,1,8,0:0:0:0:
320,192,188602,1,8,0:0:0:0:
192,192,188684,1,0,0:0:0:0:
320,192,188765,1,8,0:0:0:0:
320,192,188846,1,8,0:0:0:0:
320,192,188927,1,8,0:0:0:0:
192,192,189008,1,0,0:0:0:0:
320,192,189089,1,8,0:0:0:0:
320,192,189170,1,8,0:0:0:0:
320,192,189251,1,8,0:0:0:0:
192,192,189332,1,0,0:0:0:0:
320,192,189413,1,8,0:0:0:0:
320,192,189494,1,8,0:0:0:0:
320,192,189575,1,8,0:0:0:0:
192,192,189656,1,0,0:0:0:0:
320,192,189737,1,8,0:0:0:0:
320,192,189818,1,8,0:0:0:0:
320,192,189899,1,8,0:0:0:0:
192,192,189981,1,0,0:0:0:0:
320,192,190062,1,8,0:0:0:0:
320,192,190143,1,8,0:0:0:0:
320,192,190224,1,8,0:0:0:0:
192,192,190305,1,0,0:0:0:0:
320,192,190386,1,8,0:0:0:0:
320,192,190467,1,8,0:0:0:0:
320,192,190548,1,8,0:0:0:0:
192,192,190629,1,0,0:0:0:0:
320,192,190710,1,8,0:0:0:0:
320,192,190791,1,8,0:0:0:0:
320,192,190872,1,8,0:0:0:0:
192,192,190953,1,0,0:0:0:0:
320,192,191034,1,8,0:0:0:0:
320,192,191115,1,8,0:0:0:0:
320,192,191196,1,8,0:0:0:0:
192,192,191278,1,0,0:0:0:0:
320,192,191359,1,8,0:0:0:0:
320,192,191440,1,8,0:0:0:0:
320,192,191521,1,8,0:0:0:0:
192,192,191603,1,0,0:0:0:0:
320,192,191684,1,8,0:0:0:0:
320,192,191765,1,8,0:0:0:0:
320,192,191846,1,8,0:0:0:0:
192,192,191927,1,0,0:0:0:0:
320,192,192008,1,8,0:0:0:0:
320,192,192089,1,8,0:0:0:0:
320,192,192170,1,8,0:0:0:0:
192,192,192252,1,0,0:0:0:0:
320,192,192333,1,8,0:0:0:0:
320,192,192414,1,8,0:0:0:0:
320,192,192495,1,8,0:0:0:0:
192,192,192576,1,0,0:0:0:0:
320,192,192738,1,8,0:0:0:0:
192,192,192900,1,0,0:0:0:0:
192,192,193062,1,0,0:0:0:0:
192,192,193224,1,4,0:0:0:0:
320,192,193387,1,8,0:0:0:0:
192,192,193549,1,0,0:0:0:0:
192,192,193711,1,0,0:0:0:0:
320,192,193873,1,12,0:0:0:0:
192,192,194035,1,0,0:0:0:0:
192,192,194197,1,0,0:0:0:0:
192,192,194360,1,0,0:0:0:0:
320,192,194522,1,12,0:0:0:0:
192,192,194684,1,0,0:0:0:0:
192,192,194846,1,0,0:0:0:0:
192,192,195008,1,0,0:0:0:0:
320,192,195170,1,12,0:0:0:0:
192,192,195333,1,0,0:0:0:0:
192,192,195495,1,0,0:0:0:0:
192,192,195657,1,0,0:0:0:0:
320,192,195819,1,12,0:0:0:0:
192,192,195900,1,0,0:0:0:0:
192,192,195981,1,0,0:0:0:0:
192,192,196143,1,0,0:0:0:0:
192,192,196306,1,0,0:0:0:0:
320,192,196468,1,12,0:0:0:0:
192,192,196630,1,0,0:0:0:0:
192,192,196792,1,0,0:0:0:0:
192,192,196955,1,0,0:0:0:0:
320,192,197116,1,12,0:0:0:0:
192,192,197197,1,0,0:0:0:0:
192,192,197278,1,0,0:0:0:0:
192,192,197440,1,0,0:0:0:0:
320,192,197603,1,12,0:0:0:0:
192,192,197765,1,0,0:0:0:0:
192,192,197927,1,0,0:0:0:0:
320,192,198008,1,12,0:0:0:0:
192,192,198089,1,0,0:0:0:0:
192,192,198251,1,0,0:0:0:0:
320,192,198414,1,12,0:0:0:0:
192,192,198738,1,0,0:0:0:0:
320,192,199062,1,12,0:0:0:0:
192,192,199387,1,0,0:0:0:0:
320,192,199711,1,12,0:0:0:0:
192,192,200035,1,0,0:0:0:0:
320,192,200359,1,12,0:0:0:0:
192,192,200684,1,0,0:0:0:0:
320,192,201008,1,12,0:0:0:0:
192,192,201333,1,0,0:0:0:0:
320,192,201657,1,12,0:0:0:0:
192,192,201981,1,0,0:0:0:0:
320,192,202143,1,12,0:0:0:0:
192,192,202306,1,0,0:0:0:0:
320,192,202630,1,12,0:0:0:0:
320,192,202954,1,12,0:0:0:0:
320,192,203116,1,12,0:0:0:0:
192,192,203279,1,0,0:0:0:0:
320,192,203603,1,8,0:0:0:0:
192,192,203927,1,0,0:0:0:0:
320,192,204251,1,8,0:0:0:0:
192,192,204576,1,0,0:0:0:0:
320,192,204900,1,8,0:0:0:0:
192,192,205224,1,0,0:0:0:0:
320,192,205548,1,8,0:0:0:0:
192,192,205873,1,0,0:0:0:0:
320,192,206197,1,8,0:0:0:0:
192,192,206522,1,0,0:0:0:0:
320,192,206846,1,8,0:0:0:0:
192,192,207171,1,0,0:0:0:0:
320,192,207495,1,8,0:0:0:0:
192,192,207819,1,0,0:0:0:0:
320,192,207981,1,8,0:0:0:0:
192,192,208306,1,0,0:0:0:0:
320,192,208792,1,8,0:0:0:0:
192,192,209116,1,0,0:0:0:0:
320,192,209440,1,8,0:0:0:0:
192,192,209765,1,0,0:0:0:0:
320,192,210089,1,8,0:0:0:0:
192,192,210414,1,0,0:0:0:0:
320,192,210738,1,8,0:0:0:0:
320,192,211063,1,8,0:0:0:0:
192,192,211387,1,0,0:0:0:0:
320,192,211711,1,8,0:0:0:0:
320,192,212035,1,8,0:0:0:0:
192,192,212360,1,0,0:0:0:0:
192,192,213333,1,4,0:0:0:0:
192,192,213657,1,0,0:0:0:0:
192,192,213738,1,0,0:0:0:0:
192,192,213819,1,0,0:0:0:0:
192,192,213900,1,0,0:0:0:0:
320,192,213981,1,8,0:0:0:0:
320,192,214062,1,8,0:0:0:0:
192,192,214143,1,0,0:0:0:0:
192,192,214224,1,0,0:0:0:0:
320,192,214305,1,8,0:0:0:0:
192,192,214386,1,0,0:0:0:0:
192,192,214467,1,0,0:0:0:0:
192,192,214548,1,0,0:0:0:0:
320,192,214629,1,8,0:0:0:0:
192,192,214711,1,0,0:0:0:0:
320,192,214792,1,8,0:0:0:0:
192,192,214873,1,0,0:0:0:0:
192,192,214954,1,0,0:0:0:0:
320,192,215035,1,8,0:0:0:0:
320,192,215116,1,8,0:0:0:0:
192,192,215197,1,0,0:0:0:0:
192,192,215278,1,0,0:0:0:0:
192,192,215359,1,0,0:0:0:0:
320,192,215440,1,8,0:0:0:0:
192,192,215521,1,0,0:0:0:0:
320,192,215602,1,8,0:0:0:0:
192,192,215684,1,0,0:0:0:0:
192,192,215765,1,0,0:0:0:0:
192,192,215846,1,0,0:0:0:0:
320,192,215927,1,8,0:0:0:0:
320,192,216008,1,8,0:0:0:0:
192,192,216089,1,0,0:0:0:0:
320,192,216170,1,8,0:0:0:0:
192,192,216251,1,0,0:0:0:0:
320,192,216332,1,8,0:0:0:0:
192,192,216413,1,0,0:0:0:0:
192,192,216494,1,0,0:0:0:0:
320,192,216575,1,8,0:0:0:0:
320,192,216657,1,8,0:0:0:0:
192,192,216738,1,0,0:0:0:0:
320,192,216819,1,8,0:0:0:0:
192,192,216900,1,0,0:0:0:0:
192,192,216981,1,0,0:0:0:0:
192,192,217062,1,0,0:0:0:0:
320,192,217143,1,8,0:0:0:0:
320,192,217224,1,8,0:0:0:0:
192,192,217305,1,0,0:0:0:0:
320,192,217386,1,8,0:0:0:0:
320,192,217467,1,8,0:0:0:0:
192,192,217548,1,0,0:0:0:0:
192,192,217629,1,0,0:0:0:0:
192,192,217711,1,0,0:0:0:0:
320,192,217792,1,8,0:0:0:0:
320,192,217873,1,8,0:0:0:0:
320,192,217954,1,8,0:0:0:0:
192,192,218035,1,0,0:0:0:0:
320,192,218116,1,8,0:0:0:0:
192,192,218197,1,0,0:0:0:0:
192,192,218278,1,0,0:0:0:0:
320,192,218359,1,8,0:0:0:0:
320,192,218440,1,8,0:0:0:0:
192,192,218521,1,0,0:0:0:0:
192,192,218602,1,0,0:0:0:0:
320,192,218684,1,8,0:0:0:0:
192,192,218765,1,0,0:0:0:0:
320,192,218846,1,8,0:0:0:0:
320,192,218927,1,8,0:0:0:0:
320,192,219008,1,8,0:0:0:0:
320,192,219089,1,8,0:0:0:0:
192,192,219170,1,0,0:0:0:0:
192,192,219251,1,0,0:0:0:0:
320,192,219332,1,8,0:0:0:0:
192,192,219413,1,0,0:0:0:0:
320,192,219494,1,8,0:0:0:0:
320,192,219575,1,8,0:0:0:0:
192,192,219657,1,0,0:0:0:0:
192,192,219738,1,0,0:0:0:0:
320,192,219819,1,8,0:0:0:0:
320,192,219900,1,8,0:0:0:0:
320,192,219981,1,8,0:0:0:0:
192,192,220062,1,0,0:0:0:0:
192,192,220143,1,0,0:0:0:0:
192,192,220224,1,0,0:0:0:0:
320,192,220305,1,8,0:0:0:0:
192,192,220386,1,0,0:0:0:0:
192,192,220467,1,0,0:0:0:0:
320,192,220548,1,8,0:0:0:0:
320,192,220629,1,8,0:0:0:0:
192,192,220711,1,0,0:0:0:0:
320,192,220792,1,8,0:0:0:0:
192,192,220873,1,0,0:0:0:0:
192,192,220954,1,0,0:0:0:0:
192,192,221035,1,0,0:0:0:0:
320,192,221116,1,8,0:0:0:0:
192,192,221197,1,0,0:0:0:0:
320,192,221278,1,8,0:0:0:0:
192,192,221359,1,0,0:0:0:0:
320,192,221440,1,8,0:0:0:0:
320,192,221521,1,8,0:0:0:0:
192,192,221602,1,0,0:0:0:0:
192,192,221684,1,0,0:0:0:0:
192,192,221765,1,0,0:0:0:0:
192,192,221846,1,0,0:0:0:0:
320,192,221927,1,8,0:0:0:0:
192,192,222008,1,0,0:0:0:0:
320,192,222089,1,8,0:0:0:0:
192,192,222170,1,0,0:0:0:0:
192,192,222251,1,0,0:0:0:0:
192,192,222332,1,0,0:0:0:0:
320,192,222413,1,8,0:0:0:0:
192,192,222494,1,0,0:0:0:0:
320,192,222575,1,8,0:0:0:0:
320,192,222657,1,8,0:0:0:0:
192,192,222738,1,0,0:0:0:0:
192,192,222819,1,0,0:0:0:0:
320,192,222900,1,8,0:0:0:0:
320,192,222981,1,8,0:0:0:0:
192,192,223062,1,0,0:0:0:0:
320,192,223143,1,8,0:0:0:0:
320,192,223224,1,8,0:0:0:0:
320,192,223305,1,8,0:0:0:0:
192,192,223386,1,0,0:0:0:0:
192,192,223467,1,0,0:0:0:0:
192,192,223548,1,0,0:0:0:0:
192,192,223629,1,0,0:0:0:0:
192,192,223711,1,0,0:0:0:0:
192,192,223792,1,0,0:0:0:0:
192,192,223873,1,0,0:0:0:0:
192,192,223954,1,0,0:0:0:0:
192,192,224035,1,0,0:0:0:0:
320,192,224116,1,8,0:0:0:0:
192,192,224197,1,0,0:0:0:0:
320,192,224278,1,8,0:0:0:0:
192,192,224359,1,0,0:0:0:0:
320,192,224440,1,8,0:0:0:0:
192,192,224521,1,0,0:0:0:0:
320,192,224602,1,8,0:0:0:0:
192,192,224683,1,0,0:0:0:0:
320,192,224765,1,8,0:0:0:0:
320,192,224846,1,8,0:0:0:0:
192,192,224927,1,0,0:0:0:0:
192,192,225008,1,0,0:0:0:0:
320,192,225089,1,8,0:0:0:0:
192,192,225170,1,0,0:0:0:0:
192,192,225251,1,0,0:0:0:0:
320,192,225332,1,8,0:0:0:0:
192,192,225413,1,0,0:0:0:0:
320,192,225494,1,8,0:0:0:0:
192,192,225575,1,0,0:0:0:0:
320,192,225657,1,8,0:0:0:0:
192,192,225738,1,0,0:0:0:0:
320,192,225819,1,8,0:0:0:0:
192,192,225900,1,0,0:0:0:0:
192,192,225981,1,0,0:0:0:0:
320,192,226062,1,8,0:0:0:0:
192,192,226143,1,0,0:0:0:0:
320,192,226224,1,8,0:0:0:0:
192,192,226305,1,0,0:0:0:0:
192,192,226386,1,0,0:0:0:0:
320,192,226467,1,8,0:0:0:0:
320,192,226548,1,8,0:0:0:0:
192,192,226629,1,0,0:0:0:0:
320,192,226711,1,8,0:0:0:0:
192,192,226792,1,0,0:0:0:0:
320,192,226873,1,8,0:0:0:0:
192,192,226954,1,0,0:0:0:0:
320,192,227035,1,8,0:0:0:0:
192,192,227116,1,0,0:0:0:0:
320,192,227197,1,8,0:0:0:0:
320,192,227278,1,8,0:0:0:0:
192,192,227359,1,0,0:0:0:0:
320,192,227440,1,8,0:0:0:0:
192,192,227521,1,0,0:0:0:0:
320,192,227602,1,8,0:0:0:0:
192,192,227683,1,0,0:0:0:0:
320,192,227765,1,8,0:0:0:0:
192,192,227846,1,0,0:0:0:0:
192,192,227927,1,0,0:0:0:0:
320,192,228008,1,8,0:0:0:0:
192,192,228089,1,0,0:0:0:0:
320,192,228170,1,8,0:0:0:0:
192,192,228251,1,0,0:0:0:0:
320,192,228332,1,8,0:0:0:0:
192,192,228413,1,0,0:0:0:0:
192,192,228494,1,0,0:0:0:0:
320,192,228575,1,8,0:0:0:0:
192,192,228656,1,0,0:0:0:0:
320,192,228738,1,8,0:0:0:0:
192,192,228819,1,0,0:0:0:0:
192,192,228900,1,0,0:0:0:0:
320,192,228981,1,8,0:0:0:0:
192,192,229062,1,0,0:0:0:0:
320,192,229143,1,8,0:0:0:0:
192,192,229224,1,0,0:0:0:0:
320,192,229305,1,8,0:0:0:0:
192,192,229386,1,0,0:0:0:0:
320,192,229467,1,8,0:0:0:0:
192,192,229548,1,0,0:0:0:0:
320,192,229629,1,8,0:0:0:0:
192,192,229710,1,0,0:0:0:0:
320,192,229792,1,8,0:0:0:0:
320,192,229873,1,8,0:0:0:0:
192,192,229954,1,0,0:0:0:0:
320,192,230035,1,8,0:0:0:0:
192,192,230116,1,0,0:0:0:0:
320,192,230197,1,8,0:0:0:0:
320,192,230278,1,8,0:0:0:0:
192,192,230359,1,0,0:0:0:0:
320,192,230440,1,8,0:0:0:0:
192,192,230521,1,0,0:0:0:0:
320,192,230602,1,8,0:0:0:0:
192,192,230683,1,0,0:0:0:0:
320,192,230765,1,8,0:0:0:0:
192,192,230846,1,0,0:0:0:0:
320,192,230927,1,8,0:0:0:0:
320,192,231008,1,8,0:0:0:0:
192,192,231089,1,0,0:0:0:0:
320,192,231170,1,8,0:0:0:0:
192,192,231251,1,0,0:0:0:0:
320,192,231332,1,8,0:0:0:0:
192,192,231413,1,0,0:0:0:0:
320,192,231494,1,8,0:0:0:0:
192,192,231575,1,0,0:0:0:0:
192,192,231656,1,0,0:0:0:0:
320,192,231738,1,8,0:0:0:0:
192,192,231819,1,0,0:0:0:0:
320,192,231981,1,8,0:0:0:0:
192,192,232143,1,0,0:0:0:0:
320,192,232467,1,12,0:0:0:0:
192,192,232629,1,0,0:0:0:0:
320,192,232792,1,12,0:0:0:0:
320,192,232954,1,12,0:0:0:0:
192,192,233116,1,4,0:0:0:0:
192,192,233440,1,4,0:0:0:0:
320,192,233765,1,12,0:0:0:0:
192,192,233927,1,0,0:0:0:0:
320,192,234089,1,12,0:0:0:0:
320,192,234251,1,12,0:0:0:0:
192,192,234413,1,0,0:0:0:0:
320,192,234738,1,12,0:0:0:0:
192,192,235062,1,0,0:0:0:0:
192,192,235224,1,0,0:0:0:0:
320,192,235386,1,12,0:0:0:0:
192,192,235711,1,0,0:0:0:0:
320,192,236035,1,12,0:0:0:0:
192,192,236359,1,0,0:0:0:0:
192,192,236521,1,0,0:0:0:0:
320,192,236684,1,12,0:0:0:0:
192,192,236846,1,0,0:0:0:0:
192,192,237008,1,0,0:0:0:0:
320,192,237332,1,12,0:0:0:0:
192,192,237575,1,0,0:0:0:0:
192,192,237656,1,0,0:0:0:0:
320,192,237981,1,12,0:0:0:0:
192,192,238305,1,0,0:0:0:0:
192,192,238548,1,0,0:0:0:0:
320,192,238629,1,12,0:0:0:0:
192,192,238954,1,0,0:0:0:0:
320,192,239116,1,8,0:0:0:0:
320,192,239278,1,12,0:0:0:0:
320,192,239440,1,8,0:0:0:0:
192,192,239602,1,0,0:0:0:0:
320,192,239927,1,12,0:0:0:0:
192,192,240251,1,0,0:0:0:0:
320,192,240413,1,8,0:0:0:0:
320,192,240575,1,12,0:0:0:0:
192,192,240738,1,0,0:0:0:0:
192,192,240900,1,0,0:0:0:0:
320,192,241224,1,12,0:0:0:0:
320,192,241548,1,8,0:0:0:0:
192,192,241711,1,0,0:0:0:0:
320,192,241873,1,12,0:0:0:0:
192,192,242035,1,0,0:0:0:0:
192,192,242197,1,0,0:0:0:0:
320,192,242521,1,12,0:0:0:0:
192,192,242765,1,0,0:0:0:0:
192,192,242846,1,0,0:0:0:0:
320,192,243170,1,12,0:0:0:0:
192,192,243332,1,0,0:0:0:0:
192,192,243494,1,4,0:0:0:0:
192,192,243819,1,4,0:0:0:0:
192,192,243981,1,4,0:0:0:0:
320,192,244143,1,8,0:0:0:0:
192,192,244305,1,4,0:0:0:0:
192,192,244629,1,4,0:0:0:0:
192,192,245278,1,0,0:0:0:0:
320,192,245440,1,12,0:0:0:0:
192,192,245927,1,0,0:0:0:0:
320,192,246089,1,12,0:0:0:0:
192,192,246413,1,0,0:0:0:0:
320,192,246738,1,12,0:0:0:0:
320,192,246900,1,8,0:0:0:0:
192,192,247062,1,0,0:0:0:0:
192,192,247224,1,0,0:0:0:0:
192,192,247386,1,4,0:0:0:0:
320,192,247711,1,8,0:0:0:0:
192,192,247873,1,0,0:0:0:0:
192,192,247954,1,0,0:0:0:0:
320,192,248035,1,12,0:0:0:0:
320,192,248359,1,8,0:0:0:0:
192,192,248521,1,0,0:0:0:0:
192,192,248684,1,4,0:0:0:0:
192,192,249008,1,0,0:0:0:0:
192,192,249170,1,0,0:0:0:0:
320,192,249332,1,8,0:0:0:0:
192,192,249494,1,0,0:0:0:0:
192,192,249819,1,0,0:0:0:0:
192,192,249981,1,4,0:0:0:0:
320,192,250305,1,8,0:0:0:0:
192,192,250629,1,0,0:0:0:0:
192,192,250792,1,0,0:0:0:0:
320,192,250954,1,8,0:0:0:0:
192,192,251116,1,0,0:0:0:0:
192,192,251278,1,4,0:0:0:0:
192,192,251602,1,0,0:0:0:0:
320,192,251927,1,12,0:0:0:0:
192,192,252089,1,0,0:0:0:0:
192,192,252413,1,0,0:0:0:0:
320,192,252575,1,12,0:0:0:0:
192,192,252738,1,0,0:0:0:0:
320,192,252900,1,8,0:0:0:0:
320,192,253062,1,8,0:0:0:0:
320,192,253224,1,12,0:0:0:0:
192,192,253386,1,0,0:0:0:0:
320,192,253548,1,8,0:0:0:0:
320,192,253711,1,8,0:0:0:0:
192,192,253873,1,4,0:0:0:0:
192,192,254197,1,4,0:0:0:0:
320,192,254521,1,12,0:0:0:0:
192,192,254684,1,4,0:0:0:0:
320,192,254846,1,12,0:0:0:0:
320,192,255008,1,12,0:0:0:0:
192,192,255170,1,0,0:0:0:0:
192,192,255494,1,0,0:0:0:0:
320,192,255819,1,8,0:0:0:0:
192,192,255981,1,0,0:0:0:0:
192,192,256954,1,0,0:0:0:0:
320,192,257116,1,8,0:0:0:0:
192,192,257602,1,0,0:0:0:0:
192,192,257765,1,0,0:0:0:0:
192,192,258089,1,0,0:0:0:0:
320,192,258413,1,8,0:0:0:0:
192,192,258575,1,0,0:0:0:0:
192,192,259548,1,0,0:0:0:0:
320,192,259711,1,8,0:0:0:0:
192,192,259873,1,0,0:0:0:0:
192,192,260197,1,0,0:0:0:0:
192,192,260359,1,0,0:0:0:0:
320,192,261008,1,8,0:0:0:0:
320,192,261656,1,8,0:0:0:0:
320,192,262305,1,8,0:0:0:0:
192,192,262629,1,0,0:0:0:0:
192,192,262954,1,0,0:0:0:0:
320,192,263927,1,8,0:0:0:0:
192,192,264251,1,0,0:0:0:0:
320,192,264900,1,8,0:0:0:0:
192,192,265548,1,0,0:0:0:0:
320,192,267819,1,8,0:0:0:0:
192,192,268143,1,0,0:0:0:0:
320,192,268305,1,8,0:0:0:0:
192,192,268467,1,0,0:0:0:0:
192,192,270413,1,0,0:0:0:0:
320,192,270738,1,8,0:0:0:0:
320,192,271386,1,8,0:0:0:0:
320,192,272035,1,8,0:0:0:0:
192,192,272684,1,0,0:0:0:0:
192,192,273008,1,0,0:0:0:0:
192,192,273332,1,0,0:0:0:0:
320,192,273413,1,8,0:0:0:0:
320,192,273494,1,8,0:0:0:0:
320,192,273575,1,8,0:0:0:0:
192,192,273656,1,0,0:0:0:0:
320,192,273737,1,8,0:0:0:0:
320,192,273818,1,8,0:0:0:0:
320,192,273899,1,8,0:0:0:0:
192,192,273981,1,0,0:0:0:0:
192,192,274062,1,0,0:0:0:0:
320,192,274143,1,8,0:0:0:0:
320,192,274224,1,8,0:0:0:0:
192,192,274305,1,0,0:0:0:0:
320,192,274386,1,8,0:0:0:0:
192,192,274467,1,0,0:0:0:0:
192,192,274548,1,0,0:0:0:0:
320,192,274629,1,8,0:0:0:0:
320,192,274792,1,8,0:0:0:0:
320,192,274954,1,8,0:0:0:0:
320,192,275116,1,8,0:0:0:0:
192,192,275278,1,0,0:0:0:0:
192,192,275602,1,0,0:0:0:0:
192,192,275927,1,0,0:0:0:0:
192,192,276089,1,0,0:0:0:0:
192,192,276170,1,0,0:0:0:0:
320,192,276251,1,8,0:0:0:0:
192,192,276413,1,0,0:0:0:0:
192,192,276494,1,0,0:0:0:0:
320,192,276575,1,8,0:0:0:0:
192,192,276656,1,0,0:0:0:0:
320,192,276738,1,8,0:0:0:0:
320,192,276819,1,8,0:0:0:0:
192,192,276900,1,0,0:0:0:0:
320,192,277062,1,8,0:0:0:0:
192,192,277224,1,0,0:0:0:0:
320,192,277386,1,8,0:0:0:0:
320,192,277467,1,8,0:0:0:0:
320,192,277548,1,8,0:0:0:0:
192,192,277711,1,0,0:0:0:0:
192,192,277792,1,0,0:0:0:0:
320,192,277873,1,8,0:0:0:0:
320,192,277954,1,8,0:0:0:0:
320,192,278035,1,8,0:0:0:0:
192,192,278116,1,0,0:0:0:0:
320,192,278197,1,8,0:0:0:0:
192,192,278359,1,0,0:0:0:0:
192,192,278521,1,0,0:0:0:0:
320,192,278684,1,8,0:0:0:0:
320,192,278765,1,8,0:0:0:0:
192,192,278846,1,0,0:0:0:0:
192,192,279008,1,0,0:0:0:0:
320,192,279089,1,8,0:0:0:0:
192,192,279170,1,0,0:0:0:0:
320,192,279251,1,8,0:0:0:0:
320,192,279332,1,8,0:0:0:0:
320,192,279413,1,8,0:0:0:0:
192,192,279494,1,0,0:0:0:0:
192,192,279656,1,0,0:0:0:0:
320,192,279819,1,8,0:0:0:0:
192,192,279981,1,0,0:0:0:0:
192,192,280062,1,0,0:0:0:0:
320,192,280143,1,8,0:0:0:0:
320,192,280305,1,8,0:0:0:0:
192,192,280467,1,0,0:0:0:0:
320,192,280548,1,8,0:0:0:0:
320,192,280629,1,8,0:0:0:0:
192,192,280711,1,0,0:0:0:0:
320,192,280792,1,8,0:0:0:0:
192,192,280954,1,0,0:0:0:0:
320,192,281035,1,8,0:0:0:0:
192,192,281116,1,0,0:0:0:0:
192,192,281278,1,0,0:0:0:0:
320,192,281440,1,8,0:0:0:0:
320,192,281521,1,8,0:0:0:0:
192,192,281602,1,0,0:0:0:0:
320,192,281684,1,8,0:0:0:0:
192,192,281765,1,0,0:0:0:0:
320,192,281927,1,8,0:0:0:0:
320,192,282089,1,8,0:0:0:0:
320,192,282251,1,8,0:0:0:0:
320,192,282332,1,8,0:0:0:0:
192,192,282413,1,0,0:0:0:0:
320,192,282494,1,8,0:0:0:0:
192,192,282575,1,0,0:0:0:0:
320,192,282738,1,8,0:0:0:0:
320,192,282819,1,8,0:0:0:0:
192,192,282900,1,0,0:0:0:0:
192,192,283062,1,0,0:0:0:0:
320,192,283143,1,8,0:0:0:0:
320,192,283224,1,8,0:0:0:0:
320,192,283305,1,8,0:0:0:0:
320,192,283386,1,8,0:0:0:0:
192,192,283548,1,0,0:0:0:0:
192,192,283711,1,0,0:0:0:0:
192,192,283792,1,0,0:0:0:0:
192,192,283873,1,0,0:0:0:0:
320,192,284035,1,8,0:0:0:0:
320,192,284197,1,8,0:0:0:0:
192,192,284359,1,0,0:0:0:0:
192,192,284440,1,0,0:0:0:0:
320,192,284521,1,8,0:0:0:0:
192,192,284684,1,0,0:0:0:0:
320,192,284846,1,8,0:0:0:0:
320,192,285008,1,12,0:0:0:0:
192,192,285170,1,0,0:0:0:0:
320,192,285332,1,12,0:0:0:0:
192,192,285494,1,0,0:0:0:0:
320,192,285656,1,12,0:0:0:0:
192,192,285818,1,0,0:0:0:0:
192,192,285981,1,4,0:0:0:0:
192,192,286143,1,4,0:0:0:0:
192,192,286305,1,4,0:0:0:0:
320,192,286386,1,8,0:0:0:0:
320,192,286467,1,8,0:0:0:0:
192,192,286629,1,0,0:0:0:0:
192,192,286711,1,0,0:0:0:0:
320,192,286792,1,8,0:0:0:0:
320,192,286954,1,8,0:0:0:0:
192,192,287035,1,0,0:0:0:0:
192,192,287116,1,0,0:0:0:0:
192,192,287197,1,0,0:0:0:0:
320,192,287278,1,8,0:0:0:0:
320,192,287359,1,8,0:0:0:0:
192,192,287440,1,0,0:0:0:0:
192,192,287521,1,0,0:0:0:0:
320,192,287602,1,8,0:0:0:0:
320,192,287684,1,8,0:0:0:0:
320,192,287765,1,8,0:0:0:0:
320,192,287846,1,8,0:0:0:0:
320,192,287927,1,8,0:0:0:0:
320,192,288008,1,8,0:0:0:0:
192,192,288089,1,0,0:0:0:0:
192,192,288170,1,0,0:0:0:0:
320,192,288251,1,8,0:0:0:0:
192,192,288332,1,0,0:0:0:0:
192,192,288413,1,0,0:0:0:0:
192,192,288494,1,0,0:0:0:0:
320,192,288575,1,8,0:0:0:0:
192,192,288656,1,0,0:0:0:0:
192,192,288738,1,0,0:0:0:0:
320,192,288900,1,8,0:0:0:0:
320,192,288981,1,8,0:0:0:0:
320,192,289062,1,8,0:0:0:0:
192,192,289143,1,0,0:0:0:0:
320,192,289224,1,8,0:0:0:0:
192,192,289278,1,0,0:0:0:0:
320,192,289332,1,8,0:0:0:0:
192,192,289386,1,0,0:0:0:0:
320,192,289440,1,8,0:0:0:0:
192,192,289494,1,0,0:0:0:0:
320,192,289548,1,8,0:0:0:0:
320,192,289629,1,8,0:0:0:0:
320,192,289711,1,8,0:0:0:0:
320,192,289765,1,8,0:0:0:0:
320,192,289819,1,8,0:0:0:0:
192,192,289873,1,0,0:0:0:0:
320,192,290035,1,8,0:0:0:0:
192,192,290197,1,0,0:0:0:0:
192,192,290278,1,0,0:0:0:0:
192,192,290359,1,0,0:0:0:0:
320,192,290521,1,8,0:0:0:0:
192,192,290602,1,0,0:0:0:0:
192,192,290684,1,0,0:0:0:0:
192,192,290846,1,0,0:0:0:0:
192,192,290927,1,0,0:0:0:0:
192,192,291008,1,0,0:0:0:0:
192,192,291089,1,0,0:0:0:0:
320,192,291170,1,8,0:0:0:0:
192,192,291251,1,0,0:0:0:0:
320,192,291332,1,8,0:0:0:0:
192,192,291413,1,0,0:0:0:0:
320,192,291494,1,8,0:0:0:0:
320,192,291656,1,8,0:0:0:0:
320,192,291738,1,8,0:0:0:0:
320,192,291819,1,8,0:0:0:0:
192,192,291981,1,0,0:0:0:0:
192,192,292143,1,0,0:0:0:0:
192,192,292224,1,0,0:0:0:0:
320,192,292305,1,8,0:0:0:0:
192,192,292467,1,0,0:0:0:0:
192,192,292548,1,0,0:0:0:0:
320,192,292629,1,8,0:0:0:0:
192,192,292792,1,0,0:0:0:0:
320,192,292873,1,8,0:0:0:0:
320,192,292954,1,8,0:0:0:0:
320,192,293116,1,8,0:0:0:0:
192,192,293197,1,0,0:0:0:0:
320,192,293278,1,8,0:0:0:0:
192,192,293440,1,0,0:0:0:0:
320,192,293602,1,8,0:0:0:0:
192,192,293765,1,0,0:0:0:0:
192,192,293847,1,0,0:0:0:0:
320,192,293928,1,8,0:0:0:0:
192,192,294089,1,0,0:0:0:0:
192,192,294251,1,0,0:0:0:0:
320,192,294413,1,8,0:0:0:0:
192,192,294575,1,0,0:0:0:0:
192,192,294656,1,0,0:0:0:0:
192,192,294738,1,0,0:0:0:0:
192,192,294900,1,0,0:0:0:0:
320,192,295062,1,8,0:0:0:0:
320,192,295143,1,8,0:0:0:0:
320,192,295224,1,8,0:0:0:0:
320,192,295386,1,8,0:0:0:0:
320,192,295548,1,8,0:0:0:0:
320,192,295629,1,8,0:0:0:0:
320,192,295711,1,8,0:0:0:0:
320,192,295873,1,8,0:0:0:0:
192,192,296035,1,0,0:0:0:0:
192,192,296197,1,0,0:0:0:0:
320,192,296359,1,8,0:0:0:0:
192,192,296521,1,0,0:0:0:0:
192,192,296684,1,4,0:0:0:0:
192,192,296846,1,0,0:0:0:0:
320,192,296927,1,8,0:0:0:0:
320,192,297008,1,8,0:0:0:0:
192,192,297089,1,0,0:0:0:0:
192,192,297170,1,0,0:0:0:0:
320,192,297251,1,8,0:0:0:0:
192,192,297332,1,0,0:0:0:0:
192,192,297494,1,0,0:0:0:0:
320,192,297656,1,8,0:0:0:0:
320,192,297738,1,8,0:0:0:0:
192,192,297819,1,0,0:0:0:0:
192,192,297900,1,0,0:0:0:0:
192,192,297981,1,0,0:0:0:0:
320,192,298062,1,8,0:0:0:0:
320,192,298143,1,8,0:0:0:0:
320,192,298224,1,8,0:0:0:0:
320,192,298305,1,8,0:0:0:0:
192,192,298386,1,0,0:0:0:0:
192,192,298467,1,0,0:0:0:0:
192,192,298548,1,0,0:0:0:0:
320,192,298629,1,8,0:0:0:0:
320,192,298711,1,8,0:0:0:0:
192,192,298792,1,0,0:0:0:0:
192,192,298873,1,0,0:0:0:0:
320,192,298954,1,8,0:0:0:0:
192,192,299035,1,0,0:0:0:0:
192,192,299116,1,0,0:0:0:0:
192,192,299197,1,0,0:0:0:0:
320,192,299278,1,8,0:0:0:0:
192,192,299440,1,0,0:0:0:0:
192,192,299602,1,0,0:0:0:0:
192,192,299684,1,0,0:0:0:0:
192,192,299765,1,0,0:0:0:0:
192,192,299819,1,0,0:0:0:0:
192,192,299873,1,0,0:0:0:0:
192,192,299927,1,0,0:0:0:0:
192,192,300089,1,0,0:0:0:0:
320,192,300251,1,8,0:0:0:0:
192,192,300413,1,0,0:0:0:0:
320,192,300575,1,8,0:0:0:0:
192,192,300656,1,0,0:0:0:0:
192,192,300738,1,0,0:0:0:0:
192,192,300900,1,0,0:0:0:0:
192,192,301062,1,0,0:0:0:0:
192,192,301143,1,0,0:0:0:0:
320,192,301224,1,8,0:0:0:0:
192,192,301305,1,0,0:0:0:0:
192,192,301386,1,0,0:0:0:0:
320,192,301548,1,8,0:0:0:0:
192,192,301629,1,0,0:0:0:0:
192,192,301711,1,0,0:0:0:0:
192,192,301873,1,0,0:0:0:0:
320,192,302035,1,8,0:0:0:0:
320,192,302197,1,8,0:0:0:0:
320,192,302359,1,8,0:0:0:0:
192,192,302521,1,0,0:0:0:0:
320,192,302602,1,8,0:0:0:0:
192,192,302684,1,0,0:0:0:0:
192,192,302846,1,0,0:0:0:0:
320,192,303008,1,8,0:0:0:0:
192,192,303170,1,0,0:0:0:0:
320,192,303332,1,8,0:0:0:0:
320,192,303494,1,8,0:0:0:0:
192,192,303575,1,0,0:0:0:0:
320,192,303656,1,8,0:0:0:0:
192,192,303818,1,0,0:0:0:0:
320,192,303899,1,8,0:0:0:0:
192,192,303981,1,0,0:0:0:0:
192,192,304062,1,0,0:0:0:0:
320,192,304143,1,8,0:0:0:0:
320,192,304305,1,8,0:0:0:0:
192,192,304467,1,0,0:0:0:0:
192,192,304629,1,0,0:0:0:0:
192,192,304711,1,0,0:0:0:0:
192,192,304792,1,0,0:0:0:0:
320,192,304954,1,8,0:0:0:0:
320,192,305116,1,8,0:0:0:0:
192,192,305197,1,0,0:0:0:0:
320,192,305278,1,8,0:0:0:0:
192,192,305440,1,0,0:0:0:0:
320,192,305602,1,8,0:0:0:0:
320,192,305765,1,12,0:0:0:0:
192,192,305927,1,0,0:0:0:0:
320,192,306089,1,12,0:0:0:0:
192,192,306251,1,0,0:0:0:0:
320,192,306413,1,12,0:0:0:0:
192,192,306575,1,0,0:0:0:0:
192,192,306738,1,0,0:0:0:0:
192,192,306900,1,0,0:0:0:0:
192,192,307062,1,0,0:0:0:0:
192,192,307224,1,0,0:0:0:0:
192,192,307305,1,0,0:0:0:0:
320,192,307386,1,8,0:0:0:0:
192,192,307467,1,0,0:0:0:0:
192,192,307548,1,0,0:0:0:0:
192,192,307629,1,0,0:0:0:0:
320,192,307711,1,8,0:0:0:0:
320,192,307792,1,8,0:0:0:0:
192,192,307873,1,0,0:0:0:0:
320,192,307954,1,8,0:0:0:0:
192,192,308035,1,0,0:0:0:0:
320,192,308116,1,8,0:0:0:0:
320,192,308197,1,8,0:0:0:0:
320,192,308278,1,8,0:0:0:0:
192,192,308359,1,0,0:0:0:0:
320,192,308440,1,8,0:0:0:0:
320,192,308521,1,8,0:0:0:0:
320,192,308602,1,8,0:0:0:0:
320,192,308684,1,8,0:0:0:0:
320,192,308765,1,8,0:0:0:0:
320,192,308846,1,8,0:0:0:0:
320,192,308927,1,8,0:0:0:0:
192,192,309008,1,0,0:0:0:0:
192,192,309089,1,0,0:0:0:0:
320,192,309170,1,8,0:0:0:0:
320,192,309251,1,8,0:0:0:0:
192,192,309332,1,0,0:0:0:0:
320,192,309413,1,8,0:0:0:0:
320,192,309494,1,8,0:0:0:0:
320,192,309575,1,8,0:0:0:0:
192,192,309656,1,0,0:0:0:0:
192,192,309738,1,0,0:0:0:0:
192,192,309819,1,0,0:0:0:0:
192,192,309900,1,0,0:0:0:0:
320,192,309981,1,8,0:0:0:0:
192,192,310062,1,0,0:0:0:0:
192,192,310143,1,0,0:0:0:0:
192,192,310224,1,0,0:0:0:0:
320,192,310305,1,8,0:0:0:0:
320,192,310386,1,8,0:0:0:0:
192,192,310467,1,0,0:0:0:0:
192,192,310548,1,0,0:0:0:0:
320,192,310629,1,8,0:0:0:0:
320,192,310711,1,8,0:0:0:0:
320,192,310792,1,8,0:0:0:0:
320,192,310873,1,8,0:0:0:0:
192,192,310954,1,0,0:0:0:0:
320,192,311035,1,8,0:0:0:0:
320,192,311116,1,8,0:0:0:0:
320,192,311197,1,8,0:0:0:0:
192,192,311278,1,0,0:0:0:0:
320,192,311359,1,8,0:0:0:0:
192,192,311440,1,0,0:0:0:0:
320,192,311521,1,8,0:0:0:0:
192,192,311602,1,0,0:0:0:0:
192,192,311684,1,0,0:0:0:0:
192,192,311765,1,0,0:0:0:0:
192,192,311846,1,0,0:0:0:0:
320,192,311927,1,8,0:0:0:0:
320,192,312008,1,8,0:0:0:0:
192,192,312089,1,0,0:0:0:0:
192,192,312170,1,0,0:0:0:0:
192,192,312251,1,0,0:0:0:0:
320,192,312332,1,8,0:0:0:0:
192,192,312413,1,0,0:0:0:0:
320,192,312494,1,8,0:0:0:0:
192,192,312575,1,0,0:0:0:0:
192,192,312656,1,0,0:0:0:0:
320,192,312738,1,8,0:0:0:0:
320,192,312819,1,8,0:0:0:0:
192,192,312900,1,0,0:0:0:0:
192,192,312981,1,0,0:0:0:0:
320,192,313062,1,8,0:0:0:0:
192,192,313143,1,0,0:0:0:0:
192,192,313224,1,0,0:0:0:0:
192,192,313305,1,0,0:0:0:0:
320,192,313386,1,8,0:0:0:0:
320,192,313467,1,8,0:0:0:0:
192,192,313548,1,0,0:0:0:0:
320,192,313629,1,8,0:0:0:0:
192,192,313711,1,0,0:0:0:0:
320,192,313792,1,8,0:0:0:0:
192,192,313873,1,0,0:0:0:0:
192,192,313954,1,0,0:0:0:0:
320,192,314035,1,8,0:0:0:0:
320,192,314116,1,8,0:0:0:0:
192,192,314197,1,0,0:0:0:0:
192,192,314278,1,0,0:0:0:0:
320,192,314359,1,8,0:0:0:0:
192,192,314440,1,0,0:0:0:0:
192,192,314521,1,0,0:0:0:0:
192,192,314602,1,0,0:0:0:0:
320,192,314684,1,8,0:0:0:0:
320,192,314765,1,8,0:0:0:0:
192,192,314846,1,0,0:0:0:0:
320,192,314927,1,8,0:0:0:0:
320,192,315008,1,8,0:0:0:0:
192,192,315089,1,0,0:0:0:0:
192,192,315170,1,0,0:0:0:0:
320,192,315251,1,8,0:0:0:0:
320,192,315332,1,8,0:0:0:0:
320,192,315413,1,8,0:0:0:0:
192,192,315494,1,0,0:0:0:0:
320,192,315575,1,8,0:0:0:0:
320,192,315656,1,8,0:0:0:0:
192,192,315738,1,0,0:0:0:0:
192,192,315819,1,0,0:0:0:0:
320,192,315900,1,8,0:0:0:0:
192,192,315981,1,0,0:0:0:0:
320,192,316062,1,8,0:0:0:0:
192,192,316143,1,4,0:0:0:0:
192,192,316305,1,0,0:0:0:0:
320,192,316467,1,12,0:0:0:0:
192,192,316629,1,0,0:0:0:0:
320,192,316791,1,12,0:0:0:0:
192,192,316954,1,0,0:0:0:0:
320,192,317116,1,12,0:0:0:0:
192,192,317278,1,0,0:0:0:0:
320,192,317440,1,12,0:0:0:0:
192,192,317602,1,0,0:0:0:0:
320,192,317764,1,12,0:0:0:0:
192,192,317927,1,0,0:0:0:0:
320,192,318089,1,12,0:0:0:0:
192,192,318251,1,0,0:0:0:0:
320,192,318413,1,12,0:0:0:0:
192,192,318575,1,0,0:0:0:0:
320,192,318737,1,12,0:0:0:0:
320,192,318900,1,8,0:0:0:0:
320,192,318981,1,8,0:0:0:0:
320,192,319062,1,8,0:0:0:0:
192,192,319224,1,0,0:0:0:0:
192,192,319386,1,0,0:0:0:0:
192,192,319548,1,0,0:0:0:0:
192,192,319711,1,0,0:0:0:0:
192,192,319873,1,0,0:0:0:0:
320,192,320035,1,12,0:0:0:0:
320,192,320197,1,12,0:0:0:0:
