osu file format v14

[General]
AudioFilename: johnny castaway.mp3
AudioLeadIn: 0
PreviewTime: -1
Countdown: 0
SampleSet: None
StackLeniency: 0.6
Mode: 1
LetterboxInBreaks: 0
WidescreenStoryboard: 1

[Editor]
Bookmarks: 5224,24172,55995,75884,99752,115663,131575,147486,163398,179310,185276,211794,227706,246601
DistanceSpacing: 0.5
BeatDivisor: 4
GridSize: 32
TimelineZoom: 1

[Metadata]
Title:Johnny Castaway
TitleUnicode:Johnny Castaway
Artist:Dunderpatrullen
ArtistUnicode:Dunderpatrullen
Creator:Fraolinch
Version:Muzukashii
Source:
Tags:
BeatmapID:650073
BeatmapSetID:288224

[Difficulty]
HPDrainRate:5
CircleSize:5
OverallDifficulty:5
ApproachRate:5
SliderMultiplier:1.4
SliderTickRate:1

[Events]
//Background and Video events
0,0,"dunder.jpg",0,0
//Break Periods
2,78073,82309
//Storyboard Layer 0 (Background)
//Storyboard Layer 1 (Fail)
//Storyboard Layer 2 (Pass)
//Storyboard Layer 3 (Foreground)
//Storyboard Sound Samples

[TimingPoints]
5224.99287251732,394.736842105263,3,1,0,10,1,0
24172,331.491712707182,3,1,0,45,1,0
55000,-111.111111111111,3,1,0,45,0,0
55497,-125,3,1,0,35,0,0
55829,-133.333333333333,3,1,0,20,0,0
56989,-133.333333333333,3,1,0,35,0,0
57321,-133.333333333333,3,1,0,20,0,0
58978,-133.333333333333,3,1,0,35,0,0
59310,-125,3,1,0,20,0,0
59641,-111.111111111111,3,1,0,20,0,0
59807,-105.263157894737,3,1,0,45,0,0
59973,-100,3,1,0,45,0,0
75387,-125,3,1,0,45,0,0
75718,-166.666666666667,3,1,0,45,0,0
75884,-200,3,1,0,8,0,0
76381,-200,3,1,0,5,0,0
97763,-200,3,1,0,60,0,0
99752,-100,3,1,0,60,0,0
147486,-100,3,1,0,60,0,1
179310,-100,3,1,0,40,0,0
183288,-100,3,1,0,60,0,0
185276,331.491712707182,3,1,0,60,1,0
210469,331.491712707182,4,1,0,60,1,0
211795,331.491712707182,3,1,0,60,1,0
235662,-100,3,1,0,60,0,1
246601,337.078651685393,3,1,0,30,1,0
248623,350.877192982456,3,1,0,30,1,0
252833,359.281437125748,3,1,0,30,1,0
253910,372.670807453416,3,1,0,30,1,0
255028,379.746835443038,3,1,0,30,1,0
256167,387.096774193548,3,1,0,30,1,0
257328,397.350993377483,3,1,0,30,1,0
259712,413.793103448276,3,1,0,30,1,0
260953,428.571428571429,3,1,0,30,1,0
261381,434.782608695652,3,1,0,30,1,0
261815,500,3,1,0,30,1,0
262315,480,3,1,0,30,1,0
263275,545.454545454546,3,1,0,30,1,0
263820,705.882352941176,3,1,0,30,1,0
264525,923.076923076923,3,1,0,30,1,0
264986,1000,3,1,0,30,1,0
265486,1500,3,1,0,30,1,0
266611,750,3,1,0,30,1,0

[HitObjects]
320,192,5224,5,8,0:0:0:0:
320,192,5619,1,8,0:0:0:0:
320,192,5817,1,8,0:0:0:0:
192,192,6014,1,0,0:0:0:0:
192,192,6409,1,0,0:0:0:0:
320,192,7001,1,8,0:0:0:0:
192,192,7593,1,0,0:0:0:0:
192,192,8382,1,0,0:0:0:0:
320,192,8777,1,8,0:0:0:0:
320,192,9961,1,8,0:0:0:0:
320,192,10356,1,8,0:0:0:0:
320,192,10553,1,8,0:0:0:0:
192,192,10751,1,0,0:0:0:0:
192,192,11146,1,0,0:0:0:0:
320,192,11738,1,8,0:0:0:0:
192,192,12330,1,0,0:0:0:0:
320,192,14698,1,8,0:0:0:0:
320,192,15093,1,8,0:0:0:0:
320,192,15290,1,8,0:0:0:0:
192,192,15488,1,0,0:0:0:0:
192,192,15882,1,0,0:0:0:0:
320,192,16474,1,8,0:0:0:0:
320,192,17067,1,8,0:0:0:0:
192,192,17659,1,0,0:0:0:0:
192,192,18251,1,0,0:0:0:0:
192,192,19435,1,0,0:0:0:0:
192,192,19830,1,0,0:0:0:0:
320,192,20027,1,8,0:0:0:0:
192,192,20619,1,0,0:0:0:0:
192,192,21014,1,0,0:0:0:0:
320,192,21409,1,8,0:0:0:0:
192,192,21803,1,0,0:0:0:0:
256,192,22988,12,0,24073,0:0:0:0:
192,192,24172,5,0,0:0:0:0:
320,192,24669,1,8,0:0:0:0:
192,192,25000,1,0,0:0:0:0:
192,192,25166,1,0,0:0:0:0:
320,192,25663,1,8,0:0:0:0:
192,192,26160,1,0,0:0:0:0:
192,192,26823,1,0,0:0:0:0:
320,192,27155,1,8,0:0:0:0:
192,192,28149,1,0,0:0:0:0:
192,192,28647,1,0,0:0:0:0:
192,192,28978,1,0,0:0:0:0:
320,192,29144,1,8,0:0:0:0:
192,192,29641,1,0,0:0:0:0:
192,192,30138,1,0,0:0:0:0:
320,192,31133,1,8,0:0:0:0:
192,192,31630,1,0,0:0:0:0:
192,192,31962,1,0,0:0:0:0:
192,192,32127,1,0,0:0:0:0:
192,192,32956,1,0,0:0:0:0:
320,192,33122,1,8,0:0:0:0:
192,192,33619,1,0,0:0:0:0:
192,192,34116,1,0,0:0:0:0:
192,192,34779,1,0,0:0:0:0:
320,192,35111,1,8,0:0:0:0:
192,192,35939,1,0,0:0:0:0:
192,192,36105,1,0,0:0:0:0:
192,192,36602,1,0,0:0:0:0:
320,192,37100,1,8,0:0:0:0:
192,192,37597,1,0,0:0:0:0:
192,192,38094,1,0,0:0:0:0:
320,192,39089,1,12,0:0:0:0:
192,192,39586,1,0,0:0:0:0:
192,192,39917,1,0,0:0:0:0:
320,192,40083,1,8,0:0:0:0:
320,192,40415,1,8,0:0:0:0:
320,192,40580,1,8,0:0:0:0:
192,192,40746,1,0,0:0:0:0:
192,192,41078,1,0,0:0:0:0:
320,192,41575,1,8,0:0:0:0:
192,192,42072,1,0,0:0:0:0:
192,192,42735,1,0,0:0:0:0:
320,192,43067,1,8,0:0:0:0:
320,192,43232,1,8,0:0:0:0:
192,192,43398,1,0,0:0:0:0:
192,192,43730,1,0,0:0:0:0:
320,192,44061,1,8,0:0:0:0:
320,192,44392,1,8,0:0:0:0:
192,192,44558,1,0,0:0:0:0:
192,192,44724,1,0,0:0:0:0:
192,192,45055,1,0,0:0:0:0:
320,192,45553,1,8,0:0:0:0:
192,192,46050,1,0,0:0:0:0:
320,192,47044,1,8,0:0:0:0:
192,192,47542,1,0,0:0:0:0:
192,192,47873,1,0,0:0:0:0:
320,192,48039,1,8,0:0:0:0:
320,192,48370,1,8,0:0:0:0:
192,192,48536,1,0,0:0:0:0:
192,192,48702,1,0,0:0:0:0:
192,192,49033,1,0,0:0:0:0:
320,192,49531,1,8,0:0:0:0:
320,192,50028,1,8,0:0:0:0:
192,192,50525,1,0,0:0:0:0:
320,192,51022,1,8,0:0:0:0:
192,192,52017,1,0,0:0:0:0:
192,192,52348,1,0,0:0:0:0:
320,192,52514,1,8,0:0:0:0:
192,192,53011,1,0,0:0:0:0:
192,192,53343,1,0,0:0:0:0:
320,192,53674,1,8,0:0:0:0:
192,192,54006,1,0,0:0:0:0:
320,192,55000,1,8,0:0:0:0:
192,192,55497,1,0,0:0:0:0:
192,192,55829,1,0,0:0:0:0:
192,192,55995,1,0,0:0:0:0:
192,192,56160,1,0,0:0:0:0:
192,192,56492,1,0,0:0:0:0:
192,192,56823,1,0,0:0:0:0:
320,192,56989,1,12,0:0:0:0:
320,192,57321,1,8,0:0:0:0:
320,192,57652,1,8,0:0:0:0:
192,192,57984,1,0,0:0:0:0:
192,192,58149,1,0,0:0:0:0:
192,192,58481,1,0,0:0:0:0:
192,192,58812,1,0,0:0:0:0:
320,192,58978,1,12,0:0:0:0:
320,192,59310,1,8,0:0:0:0:
320,192,59641,1,8,0:0:0:0:
192,192,59807,1,4,0:0:0:0:
192,192,59973,1,0,0:0:0:0:
192,192,60470,1,0,0:0:0:0:
320,192,60636,1,8,0:0:0:0:
320,192,60801,1,8,0:0:0:0:
192,192,60967,1,0,0:0:0:0:
320,192,61299,1,8,0:0:0:0:
192,192,61464,1,0,0:0:0:0:
192,192,61962,1,0,0:0:0:0:
320,192,62293,1,8,0:0:0:0:
320,192,62459,1,8,0:0:0:0:
192,192,62625,1,0,0:0:0:0:
320,192,62956,1,12,0:0:0:0:
320,192,63619,1,8,0:0:0:0:
192,192,63785,1,0,0:0:0:0:
192,192,63951,1,0,0:0:0:0:
320,192,64282,1,8,0:0:0:0:
192,192,64448,1,0,0:0:0:0:
320,192,64945,1,12,0:0:0:0:
320,192,65276,1,8,0:0:0:0:
192,192,65442,1,0,0:0:0:0:
192,192,65939,1,0,0:0:0:0:
320,192,66271,1,8,0:0:0:0:
320,192,66437,1,8,0:0:0:0:
320,192,66602,1,8,0:0:0:0:
320,192,66934,1,12,0:0:0:0:
192,192,67431,1,0,0:0:0:0:
192,192,67763,1,0,0:0:0:0:
192,192,67928,1,0,0:0:0:0:
320,192,68260,1,8,0:0:0:0:
320,192,68591,1,8,0:0:0:0:
192,192,68757,1,0,0:0:0:0:
320,192,68923,1,12,0:0:0:0:
320,192,69254,1,8,0:0:0:0:
192,192,69420,1,0,0:0:0:0:
192,192,69917,1,0,0:0:0:0:
320,192,70249,1,8,0:0:0:0:
320,192,70415,1,8,0:0:0:0:
192,192,70580,1,0,0:0:0:0:
320,192,70912,1,12,0:0:0:0:
320,192,71575,1,8,0:0:0:0:
192,192,71741,1,0,0:0:0:0:
192,192,71906,1,0,0:0:0:0:
192,192,72404,1,0,0:0:0:0:
192,192,72735,1,0,0:0:0:0:
320,192,72901,1,12,0:0:0:0:
192,192,73398,1,0,0:0:0:0:
192,192,73895,1,0,0:0:0:0:
320,192,74890,1,12,0:0:0:0:
192,192,75387,1,0,0:0:0:0:
192,192,75718,1,0,0:0:0:0:
192,192,75884,1,0,0:0:0:0:
320,192,76381,1,8,0:0:0:0:
320,192,76879,1,8,0:0:0:0:
320,192,77376,1,8,0:0:0:0:
320,192,77873,1,8,0:0:0:0:
320,192,83509,5,8,0:0:0:0:
320,192,83840,1,8,0:0:0:0:
320,192,84337,1,8,0:0:0:0:
320,192,84834,1,8,0:0:0:0:
320,192,85332,1,8,0:0:0:0:
320,192,85829,1,8,0:0:0:0:
320,192,86160,1,8,0:0:0:0:
320,192,86326,1,8,0:0:0:0:
320,192,86492,1,8,0:0:0:0:
320,192,86823,1,8,0:0:0:0:
320,192,87155,1,8,0:0:0:0:
320,192,87486,1,8,0:0:0:0:
320,192,87818,1,8,0:0:0:0:
320,192,88315,1,8,0:0:0:0:
320,192,88812,1,8,0:0:0:0:
320,192,89310,1,8,0:0:0:0:
320,192,89807,1,8,0:0:0:0:
320,192,91464,1,8,0:0:0:0:
320,192,91796,1,8,0:0:0:0:
320,192,92293,1,8,0:0:0:0:
320,192,92790,1,8,0:0:0:0:
320,192,93288,1,8,0:0:0:0:
320,192,93785,1,8,0:0:0:0:
320,192,94116,1,8,0:0:0:0:
320,192,94282,1,8,0:0:0:0:
320,192,94448,1,8,0:0:0:0:
320,192,94779,1,8,0:0:0:0:
320,192,95111,1,8,0:0:0:0:
320,192,95442,1,8,0:0:0:0:
320,192,95774,1,8,0:0:0:0:
320,192,96271,1,8,0:0:0:0:
320,192,96768,1,8,0:0:0:0:
320,192,97265,1,8,0:0:0:0:
320,192,97763,1,8,0:0:0:0:
320,192,98094,1,8,0:0:0:0:
320,192,98426,1,8,0:0:0:0:
256,192,98757,12,0,99752,0:0:0:0:
192,192,100083,5,0,0:0:0:0:
320,192,100249,1,8,0:0:0:0:
192,192,100580,1,0,0:0:0:0:
320,192,100746,1,8,0:0:0:0:
320,192,101078,1,8,0:0:0:0:
192,192,101243,1,0,0:0:0:0:
320,192,101409,1,8,0:0:0:0:
192,192,101741,1,0,0:0:0:0:
320,192,102072,1,8,0:0:0:0:
192,192,102569,1,0,0:0:0:0:
320,192,102735,1,8,0:0:0:0:
192,192,103067,1,0,0:0:0:0:
192,192,103398,1,0,0:0:0:0:
320,192,103564,1,8,0:0:0:0:
192,192,103730,1,0,0:0:0:0:
192,192,104227,1,0,0:0:0:0:
192,192,104558,1,0,0:0:0:0:
192,192,104724,1,0,0:0:0:0:
320,192,105055,1,8,0:0:0:0:
192,192,105221,1,0,0:0:0:0:
320,192,105387,1,8,0:0:0:0:
192,192,105718,1,0,0:0:0:0:
320,192,106050,1,8,0:0:0:0:
320,192,106216,1,8,0:0:0:0:
320,192,106299,1,8,0:0:0:0:
320,192,106381,1,8,0:0:0:0:
320,192,106713,1,8,0:0:0:0:
192,192,107044,1,0,0:0:0:0:
320,192,107376,1,8,0:0:0:0:
320,192,107459,1,8,0:0:0:0:
320,192,107542,1,8,0:0:0:0:
192,192,107707,1,0,0:0:0:0:
320,192,108039,1,8,0:0:0:0:
192,192,108205,1,0,0:0:0:0:
320,192,108702,1,8,0:0:0:0:
320,192,109033,1,8,0:0:0:0:
192,192,109199,1,0,0:0:0:0:
320,192,109365,1,8,0:0:0:0:
192,192,109696,1,0,0:0:0:0:
320,192,110028,1,8,0:0:0:0:
320,192,110194,1,8,0:0:0:0:
320,192,110359,1,8,0:0:0:0:
192,192,110691,1,0,0:0:0:0:
192,192,111022,1,0,0:0:0:0:
320,192,111354,1,8,0:0:0:0:
192,192,111520,1,0,0:0:0:0:
320,192,111685,1,8,0:0:0:0:
192,192,112017,1,0,0:0:0:0:
320,192,112183,1,8,0:0:0:0:
192,192,112514,1,0,0:0:0:0:
192,192,112597,1,0,0:0:0:0:
320,192,112680,1,8,0:0:0:0:
320,192,113011,1,8,0:0:0:0:
192,192,113177,1,0,0:0:0:0:
320,192,113509,1,8,0:0:0:0:
192,192,113674,1,0,0:0:0:0:
320,192,114006,1,8,0:0:0:0:
320,192,114171,1,8,0:0:0:0:
320,192,114254,1,8,0:0:0:0:
320,192,114337,1,8,0:0:0:0:
320,192,114669,1,8,0:0:0:0:
192,192,115000,1,0,0:0:0:0:
320,192,115332,1,8,0:0:0:0:
320,192,115415,1,8,0:0:0:0:
320,192,115497,1,8,0:0:0:0:
192,192,115663,1,0,0:0:0:0:
320,192,115995,1,8,0:0:0:0:
192,192,116160,1,0,0:0:0:0:
192,192,116492,1,0,0:0:0:0:
320,192,116658,1,8,0:0:0:0:
320,192,116989,1,8,0:0:0:0:
192,192,117155,1,0,0:0:0:0:
320,192,117321,1,8,0:0:0:0:
192,192,117652,1,0,0:0:0:0:
192,192,117818,1,0,0:0:0:0:
320,192,117901,1,8,0:0:0:0:
320,192,117984,1,8,0:0:0:0:
320,192,118315,1,8,0:0:0:0:
192,192,118647,1,0,0:0:0:0:
192,192,118978,1,0,0:0:0:0:
320,192,119144,1,8,0:0:0:0:
192,192,119310,1,0,0:0:0:0:
192,192,119475,1,0,0:0:0:0:
192,192,119641,1,8,0:0:0:0:
192,192,120138,1,0,0:0:0:0:
192,192,120470,1,0,0:0:0:0:
320,192,120636,1,8,0:0:0:0:
320,192,120967,1,8,0:0:0:0:
192,192,121133,1,0,0:0:0:0:
320,192,121299,1,8,0:0:0:0:
192,192,121630,1,0,0:0:0:0:
192,192,121796,1,0,0:0:0:0:
320,192,121962,1,8,0:0:0:0:
320,192,122127,1,8,0:0:0:0:
320,192,122210,1,8,0:0:0:0:
320,192,122293,1,8,0:0:0:0:
192,192,122625,1,0,0:0:0:0:
320,192,122956,1,8,0:0:0:0:
320,192,123288,1,8,0:0:0:0:
320,192,123453,1,8,0:0:0:0:
320,192,123536,1,8,0:0:0:0:
192,192,123619,1,0,0:0:0:0:
320,192,123951,1,8,0:0:0:0:
192,192,124116,1,0,0:0:0:0:
192,192,124448,1,0,0:0:0:0:
320,192,124613,1,8,0:0:0:0:
192,192,125111,1,0,0:0:0:0:
320,192,125276,1,8,0:0:0:0:
320,192,125442,1,8,0:0:0:0:
192,192,125608,1,0,0:0:0:0:
320,192,125939,1,8,0:0:0:0:
192,192,126437,1,0,0:0:0:0:
320,192,126602,1,8,0:0:0:0:
192,192,126934,1,0,0:0:0:0:
192,192,127265,1,0,0:0:0:0:
192,192,127431,1,0,0:0:0:0:
192,192,127514,1,0,0:0:0:0:
320,192,127597,1,8,0:0:0:0:
192,192,127928,1,0,0:0:0:0:
320,192,128094,1,8,0:0:0:0:
192,192,128426,1,0,0:0:0:0:
192,192,128509,1,0,0:0:0:0:
320,192,128591,1,8,0:0:0:0:
192,192,129089,1,0,0:0:0:0:
192,192,129254,1,0,0:0:0:0:
320,192,129420,1,8,0:0:0:0:
192,192,129586,1,0,0:0:0:0:
192,192,130249,1,0,0:0:0:0:
320,192,130580,1,8,0:0:0:0:
320,192,131575,1,8,0:0:0:0:
320,192,132072,1,8,0:0:0:0:
320,192,132569,1,8,0:0:0:0:
192,192,133067,1,0,0:0:0:0:
48,128,133564,2,0,L|496:128,1,420
192,192,135221,1,0,0:0:0:0:
192,192,135553,1,0,0:0:0:0:
320,192,136050,1,8,0:0:0:0:
320,192,136547,1,8,0:0:0:0:
192,192,137044,1,0,0:0:0:0:
48,128,137542,2,0,L|496:128,1,420
192,192,139199,1,0,0:0:0:0:
320,192,139531,1,8,0:0:0:0:
320,192,140028,1,8,0:0:0:0:
192,192,140525,1,0,0:0:0:0:
192,192,141022,1,0,0:0:0:0:
320,192,141520,1,8,0:0:0:0:
192,192,141851,1,0,0:0:0:0:
320,192,141934,1,8,0:0:0:0:
320,192,142017,1,8,0:0:0:0:
320,192,142183,1,8,0:0:0:0:
192,192,142514,1,0,0:0:0:0:
320,192,142846,1,8,0:0:0:0:
320,192,143177,1,8,0:0:0:0:
192,192,143509,1,0,0:0:0:0:
320,192,144006,1,8,0:0:0:0:
192,192,144503,1,0,0:0:0:0:
320,192,145000,1,8,0:0:0:0:
192,192,145497,1,4,0:0:0:0:
192,192,145995,1,0,0:0:0:0:
192,192,146326,1,0,0:0:0:0:
192,192,146492,1,0,0:0:0:0:
192,192,146658,1,0,0:0:0:0:
192,192,146823,1,0,0:0:0:0:
192,192,147155,1,0,0:0:0:0:
192,192,147321,1,0,0:0:0:0:
320,192,147486,1,12,0:0:0:0:
320,192,147818,1,8,0:0:0:0:
192,192,148149,1,0,0:0:0:0:
192,192,148315,1,0,0:0:0:0:
320,192,148481,1,8,0:0:0:0:
192,192,148812,1,0,0:0:0:0:
192,192,148978,1,0,0:0:0:0:
320,192,149144,1,8,0:0:0:0:
192,192,149475,1,0,0:0:0:0:
320,192,149807,1,8,0:0:0:0:
192,192,150304,1,0,0:0:0:0:
320,192,150470,1,8,0:0:0:0:
320,192,150801,1,8,0:0:0:0:
192,192,150967,1,0,0:0:0:0:
320,192,151133,1,8,0:0:0:0:
320,192,151299,1,8,0:0:0:0:
192,192,151464,1,0,0:0:0:0:
320,192,151796,1,8,0:0:0:0:
192,192,152293,1,0,0:0:0:0:
320,192,152459,1,8,0:0:0:0:
320,192,152625,1,8,0:0:0:0:
192,192,152790,1,0,0:0:0:0:
192,192,152956,1,0,0:0:0:0:
320,192,153122,1,8,0:0:0:0:
192,192,153453,1,0,0:0:0:0:
320,192,153785,1,8,0:0:0:0:
192,192,154282,1,0,0:0:0:0:
320,192,154448,1,8,0:0:0:0:
320,192,154779,1,8,0:0:0:0:
192,192,154945,1,0,0:0:0:0:
320,192,155111,1,8,0:0:0:0:
320,192,155194,1,8,0:0:0:0:
320,192,155276,1,8,0:0:0:0:
192,192,155442,1,0,0:0:0:0:
320,192,155774,1,8,0:0:0:0:
192,192,156271,1,0,0:0:0:0:
320,192,156437,1,8,0:0:0:0:
320,192,156768,1,8,0:0:0:0:
192,192,156934,1,0,0:0:0:0:
320,192,157100,1,8,0:0:0:0:
192,192,157431,1,0,0:0:0:0:
320,192,157763,1,8,0:0:0:0:
192,192,158260,1,0,0:0:0:0:
320,192,158426,1,8,0:0:0:0:
320,192,158757,1,8,0:0:0:0:
192,192,158923,1,0,0:0:0:0:
320,192,159089,1,8,0:0:0:0:
320,192,159254,1,8,0:0:0:0:
320,192,159420,1,12,0:0:0:0:
192,192,159752,1,0,0:0:0:0:
320,192,159917,1,12,0:0:0:0:
320,192,160249,1,12,0:0:0:0:
192,192,160415,1,0,0:0:0:0:
320,192,160746,1,8,0:0:0:0:
320,192,160912,1,8,0:0:0:0:
320,192,161078,1,8,0:0:0:0:
320,192,161243,1,8,0:0:0:0:
192,192,161409,1,0,0:0:0:0:
192,192,161575,1,0,0:0:0:0:
192,192,161906,1,0,0:0:0:0:
192,192,162238,1,0,0:0:0:0:
320,192,162404,1,8,0:0:0:0:
320,192,162569,1,8,0:0:0:0:
320,192,162735,1,8,0:0:0:0:
320,192,162901,1,8,0:0:0:0:
320,192,162984,1,8,0:0:0:0:
320,192,163067,1,8,0:0:0:0:
320,192,163232,1,8,0:0:0:0:
192,192,163398,1,4,0:0:0:0:
320,192,163730,1,8,0:0:0:0:
320,192,164061,1,8,0:0:0:0:
192,192,164227,1,0,0:0:0:0:
320,192,164392,1,8,0:0:0:0:
192,192,164724,1,0,0:0:0:0:
192,192,164890,1,0,0:0:0:0:
320,192,165056,1,8,0:0:0:0:
192,192,165387,1,0,0:0:0:0:
320,192,165718,1,8,0:0:0:0:
192,192,166216,1,0,0:0:0:0:
320,192,166382,1,8,0:0:0:0:
192,192,166713,1,0,0:0:0:0:
192,192,166879,1,0,0:0:0:0:
320,192,167045,1,8,0:0:0:0:
320,192,167210,1,8,0:0:0:0:
192,192,167376,1,0,0:0:0:0:
320,192,167707,1,8,0:0:0:0:
192,192,168205,1,0,0:0:0:0:
320,192,168370,1,8,0:0:0:0:
192,192,168702,1,0,0:0:0:0:
192,192,168868,1,0,0:0:0:0:
320,192,169033,1,8,0:0:0:0:
320,192,169199,1,8,0:0:0:0:
192,192,169365,1,0,0:0:0:0:
320,192,169696,1,8,0:0:0:0:
320,192,170028,1,8,0:0:0:0:
192,192,170194,1,0,0:0:0:0:
192,192,170359,1,0,0:0:0:0:
320,192,170691,1,8,0:0:0:0:
192,192,170857,1,0,0:0:0:0:
320,192,171022,1,8,0:0:0:0:
320,192,171188,1,8,0:0:0:0:
320,192,171271,1,8,0:0:0:0:
192,192,171354,1,0,0:0:0:0:
320,192,171685,1,8,0:0:0:0:
192,192,172183,1,0,0:0:0:0:
320,192,172349,1,8,0:0:0:0:
192,192,172680,1,0,0:0:0:0:
192,192,172846,1,0,0:0:0:0:
320,192,173012,1,8,0:0:0:0:
192,192,173177,1,0,0:0:0:0:
192,192,173343,1,0,0:0:0:0:
320,192,173674,1,8,0:0:0:0:
192,192,174171,1,0,0:0:0:0:
320,192,174337,1,8,0:0:0:0:
192,192,174669,1,0,0:0:0:0:
192,192,174834,1,0,0:0:0:0:
320,192,175000,1,8,0:0:0:0:
320,192,175166,1,8,0:0:0:0:
192,192,175249,1,0,0:0:0:0:
192,192,175332,1,0,0:0:0:0:
320,192,175663,1,8,0:0:0:0:
192,192,176160,1,0,0:0:0:0:
320,192,176326,1,8,0:0:0:0:
320,192,176658,1,8,0:0:0:0:
192,192,176823,1,0,0:0:0:0:
320,192,176989,1,8,0:0:0:0:
192,192,177321,1,4,0:0:0:0:
320,192,177652,1,8,0:0:0:0:
320,192,177984,1,8,0:0:0:0:
192,192,178149,1,0,0:0:0:0:
320,192,178315,1,12,0:0:0:0:
320,192,178647,1,8,0:0:0:0:
192,192,178812,1,0,0:0:0:0:
320,192,178978,1,8,0:0:0:0:
320,192,179061,1,8,0:0:0:0:
320,192,179144,1,8,0:0:0:0:
320,192,179227,1,8,0:0:0:0:
320,192,179310,1,8,0:0:0:0:
320,192,179807,1,8,0:0:0:0:
320,192,180304,1,8,0:0:0:0:
192,192,180801,1,0,0:0:0:0:
320,192,181299,1,8,0:0:0:0:
192,192,181630,1,0,0:0:0:0:
320,192,181713,1,8,0:0:0:0:
320,192,181796,1,8,0:0:0:0:
192,192,181962,1,0,0:0:0:0:
320,192,182293,1,8,0:0:0:0:
320,192,182625,1,8,0:0:0:0:
192,192,182956,1,0,0:0:0:0:
192,192,183288,1,4,0:0:0:0:
192,192,183785,1,4,0:0:0:0:
192,192,184282,1,0,0:0:0:0:
192,192,184779,1,4,0:0:0:0:
320,192,184944,1,8,0:0:0:0:
320,192,185110,1,8,0:0:0:0:
192,192,185276,1,4,0:0:0:0:
320,192,185607,1,8,0:0:0:0:
320,192,185938,1,8,0:0:0:0:
192,192,186104,1,0,0:0:0:0:
320,192,186270,1,8,0:0:0:0:
320,192,186601,1,8,0:0:0:0:
192,192,186767,1,0,0:0:0:0:
320,192,186933,1,8,0:0:0:0:
320,192,187099,1,8,0:0:0:0:
320,192,187182,1,8,0:0:0:0:
192,192,187264,1,4,0:0:0:0:
320,192,187596,1,8,0:0:0:0:
192,192,187762,1,0,0:0:0:0:
320,192,187927,1,8,0:0:0:0:
192,192,188093,1,0,0:0:0:0:
320,192,188259,1,12,0:0:0:0:
320,192,188590,1,8,0:0:0:0:
192,192,188756,1,0,0:0:0:0:
320,192,188922,1,8,0:0:0:0:
320,192,189088,1,8,0:0:0:0:
320,192,189171,1,8,0:0:0:0:
192,192,189253,1,0,0:0:0:0:
320,192,189585,1,8,0:0:0:0:
320,192,189751,1,8,0:0:0:0:
320,192,189916,1,8,0:0:0:0:
192,192,190248,1,0,0:0:0:0:
192,192,190579,1,0,0:0:0:0:
320,192,190911,1,8,0:0:0:0:
192,192,191077,1,0,0:0:0:0:
192,192,191159,1,0,0:0:0:0:
320,192,191242,1,8,0:0:0:0:
192,192,191574,1,0,0:0:0:0:
320,192,191740,1,8,0:0:0:0:
192,192,192071,1,0,0:0:0:0:
320,192,192237,1,8,0:0:0:0:
320,192,192568,1,8,0:0:0:0:
192,192,192734,1,0,0:0:0:0:
320,192,192900,1,8,0:0:0:0:
192,192,193231,1,0,0:0:0:0:
192,192,193397,1,0,0:0:0:0:
320,192,193563,1,8,0:0:0:0:
320,192,193729,1,8,0:0:0:0:
192,192,193894,1,0,0:0:0:0:
320,192,194226,1,8,0:0:0:0:
320,192,194474,1,8,0:0:0:0:
192,192,194557,1,0,0:0:0:0:
320,192,194889,1,8,0:0:0:0:
320,192,194972,1,8,0:0:0:0:
320,192,195055,1,8,0:0:0:0:
320,192,195137,1,8,0:0:0:0:
192,192,195220,1,0,0:0:0:0:
320,192,195552,1,8,0:0:0:0:
192,192,195717,1,0,0:0:0:0:
320,192,195883,1,8,0:0:0:0:
192,192,196049,1,0,0:0:0:0:
320,192,196215,1,8,0:0:0:0:
320,192,196546,1,8,0:0:0:0:
192,192,196712,1,0,0:0:0:0:
320,192,196878,1,8,0:0:0:0:
320,192,197043,1,8,0:0:0:0:
192,192,197209,1,0,0:0:0:0:
320,192,197541,1,8,0:0:0:0:
192,192,197706,1,0,0:0:0:0:
320,192,197872,1,8,0:0:0:0:
192,192,198204,1,0,0:0:0:0:
192,192,198535,1,0,0:0:0:0:
320,192,198701,1,8,0:0:0:0:
192,192,198867,1,0,0:0:0:0:
320,192,199198,1,8,0:0:0:0:
192,192,199530,1,0,0:0:0:0:
320,192,199695,1,8,0:0:0:0:
192,192,200027,1,0,0:0:0:0:
320,192,200193,1,8,0:0:0:0:
320,192,200524,1,8,0:0:0:0:
192,192,200690,1,0,0:0:0:0:
320,192,200856,1,8,0:0:0:0:
320,192,201021,1,8,0:0:0:0:
320,192,201104,1,8,0:0:0:0:
192,192,201187,1,0,0:0:0:0:
320,192,201519,1,8,0:0:0:0:
320,192,201684,1,12,0:0:0:0:
320,192,201850,1,12,0:0:0:0:
192,192,202016,1,0,0:0:0:0:
320,192,202182,1,8,0:0:0:0:
192,192,202513,1,0,0:0:0:0:
320,192,202845,1,8,0:0:0:0:
320,192,202927,1,8,0:0:0:0:
320,192,203010,1,8,0:0:0:0:
320,192,203093,1,8,0:0:0:0:
192,192,203176,1,0,0:0:0:0:
192,192,203673,1,0,0:0:0:0:
320,192,203839,1,8,0:0:0:0:
192,192,204005,1,0,0:0:0:0:
192,192,204171,1,0,0:0:0:0:
192,192,204668,1,0,0:0:0:0:
320,192,204834,1,8,0:0:0:0:
320,192,204999,1,8,0:0:0:0:
192,192,205165,1,0,0:0:0:0:
320,192,205828,1,8,0:0:0:0:
320,192,206160,1,8,0:0:0:0:
192,192,206491,1,0,0:0:0:0:
320,192,206822,1,8,0:0:0:0:
192,192,206988,1,0,0:0:0:0:
192,192,207071,1,0,0:0:0:0:
320,192,207154,1,8,0:0:0:0:
192,192,207485,1,0,0:0:0:0:
320,192,207651,1,8,0:0:0:0:
192,192,207983,1,0,0:0:0:0:
320,192,208149,1,8,0:0:0:0:
192,192,208480,1,0,0:0:0:0:
320,192,208646,1,8,0:0:0:0:
320,192,208811,1,8,0:0:0:0:
320,192,208977,1,8,0:0:0:0:
320,192,209143,1,12,0:0:0:0:
192,192,209364,1,0,0:0:0:0:
192,192,209585,1,0,0:0:0:0:
192,192,209806,1,0,0:0:0:0:
192,192,210248,1,0,0:0:0:0:
256,192,210469,12,8,211463,0:0:0:0:
192,192,211794,5,0,0:0:0:0:
320,192,212126,1,8,0:0:0:0:
192,192,212292,1,0,0:0:0:0:
320,192,212458,1,8,0:0:0:0:
192,192,212623,1,0,0:0:0:0:
192,192,212789,1,0,0:0:0:0:
320,192,213120,1,8,0:0:0:0:
192,192,213286,1,0,0:0:0:0:
320,192,213452,1,8,0:0:0:0:
320,192,213618,1,8,0:0:0:0:
192,192,213783,1,0,0:0:0:0:
320,192,214115,1,8,0:0:0:0:
320,192,214446,1,8,0:0:0:0:
192,192,214612,1,0,0:0:0:0:
320,192,214778,1,8,0:0:0:0:
192,192,215109,1,0,0:0:0:0:
320,192,215441,1,8,0:0:0:0:
320,192,215607,1,8,0:0:0:0:
320,192,215690,1,8,0:0:0:0:
192,192,215772,1,0,0:0:0:0:
320,192,216104,1,8,0:0:0:0:
192,192,216601,1,0,0:0:0:0:
320,192,216767,1,8,0:0:0:0:
320,192,217098,1,8,0:0:0:0:
192,192,217264,1,0,0:0:0:0:
320,192,217430,1,8,0:0:0:0:
192,192,217761,1,0,0:0:0:0:
192,192,217927,1,0,0:0:0:0:
320,192,218093,1,8,0:0:0:0:
320,192,218259,1,8,0:0:0:0:
192,192,218424,1,0,0:0:0:0:
320,192,218756,1,8,0:0:0:0:
192,192,219087,1,0,0:0:0:0:
320,192,219419,1,8,0:0:0:0:
320,192,219502,1,8,0:0:0:0:
320,192,219585,1,8,0:0:0:0:
320,192,219667,1,8,0:0:0:0:
192,192,219750,1,0,0:0:0:0:
320,192,220082,1,8,0:0:0:0:
192,192,220248,1,0,0:0:0:0:
192,192,220413,1,0,0:0:0:0:
192,192,220579,1,0,0:0:0:0:
320,192,220745,1,8,0:0:0:0:
192,192,221076,1,0,0:0:0:0:
192,192,221242,1,0,0:0:0:0:
320,192,221408,1,8,0:0:0:0:
192,192,221739,1,0,0:0:0:0:
320,192,222071,1,8,0:0:0:0:
192,192,222402,1,0,0:0:0:0:
320,192,222568,1,8,0:0:0:0:
320,192,222734,1,8,0:0:0:0:
320,192,223065,1,8,0:0:0:0:
320,192,223231,1,8,0:0:0:0:
192,192,223397,1,0,0:0:0:0:
320,192,223563,1,8,0:0:0:0:
192,192,223728,1,0,0:0:0:0:
320,192,224060,1,8,0:0:0:0:
320,192,224225,1,8,0:0:0:0:
320,192,224391,1,8,0:0:0:0:
192,192,224557,1,0,0:0:0:0:
320,192,224723,1,8,0:0:0:0:
320,192,225054,1,8,0:0:0:0:
192,192,225220,1,0,0:0:0:0:
320,192,225386,1,8,0:0:0:0:
320,192,225717,1,8,0:0:0:0:
192,192,225883,1,0,0:0:0:0:
192,192,226214,1,0,0:0:0:0:
192,192,226546,1,0,0:0:0:0:
192,192,226629,1,0,0:0:0:0:
192,192,226712,1,0,0:0:0:0:
192,192,226877,1,0,0:0:0:0:
320,192,227209,1,8,0:0:0:0:
320,192,227375,1,8,0:0:0:0:
320,192,227540,1,8,0:0:0:0:
192,192,227706,1,4,0:0:0:0:
320,192,228038,1,8,0:0:0:0:
192,192,228203,1,0,0:0:0:0:
192,192,228535,1,0,0:0:0:0:
320,192,228701,1,8,0:0:0:0:
192,192,229032,1,0,0:0:0:0:
320,192,229198,1,8,0:0:0:0:
320,192,229364,1,8,0:0:0:0:
192,192,229529,1,0,0:0:0:0:
320,192,229695,1,8,0:0:0:0:
320,192,230027,1,8,0:0:0:0:
192,192,230358,1,0,0:0:0:0:
320,192,230524,1,8,0:0:0:0:
320,192,230690,1,8,0:0:0:0:
192,192,231021,1,0,0:0:0:0:
320,192,231187,1,8,0:0:0:0:
192,192,231353,1,0,0:0:0:0:
320,192,231518,1,8,0:0:0:0:
192,192,231684,1,0,0:0:0:0:
320,192,232015,1,8,0:0:0:0:
320,192,232347,1,8,0:0:0:0:
192,192,232513,1,0,0:0:0:0:
320,192,232679,1,8,0:0:0:0:
192,192,233010,1,0,0:0:0:0:
192,192,233176,1,0,0:0:0:0:
320,192,233342,1,8,0:0:0:0:
320,192,233507,1,8,0:0:0:0:
192,192,233673,1,0,0:0:0:0:
320,192,234004,1,8,0:0:0:0:
320,192,234170,1,8,0:0:0:0:
320,192,234253,1,8,0:0:0:0:
320,192,234336,1,8,0:0:0:0:
192,192,234502,1,0,0:0:0:0:
320,192,234667,1,8,0:0:0:0:
192,192,234999,1,0,0:0:0:0:
320,192,235331,1,8,0:0:0:0:
320,192,235413,1,8,0:0:0:0:
320,192,235496,1,8,0:0:0:0:
320,192,235579,1,8,0:0:0:0:
192,192,235662,1,0,0:0:0:0:
320,192,235993,1,8,0:0:0:0:
192,192,236159,1,0,0:0:0:0:
320,192,236325,1,8,0:0:0:0:
320,192,236656,1,8,0:0:0:0:
320,192,236988,1,8,0:0:0:0:
192,192,237154,1,0,0:0:0:0:
320,192,237319,1,8,0:0:0:0:
192,192,237485,1,0,0:0:0:0:
192,192,237651,1,0,0:0:0:0:
320,192,237982,1,8,0:0:0:0:
192,192,238148,1,0,0:0:0:0:
320,192,238314,1,8,0:0:0:0:
192,192,238480,1,0,0:0:0:0:
192,192,238562,1,0,0:0:0:0:
320,192,238646,1,8,0:0:0:0:
320,192,238977,1,8,0:0:0:0:
192,192,239143,1,0,0:0:0:0:
320,192,239308,1,8,0:0:0:0:
320,192,239391,1,8,0:0:0:0:
320,192,239474,1,8,0:0:0:0:
320,192,239557,1,8,0:0:0:0:
192,192,239640,1,0,0:0:0:0:
320,192,239972,1,8,0:0:0:0:
192,192,240137,1,0,0:0:0:0:
320,192,240303,1,8,0:0:0:0:
192,192,240469,1,0,0:0:0:0:
192,192,240551,1,0,0:0:0:0:
320,192,240634,1,8,0:0:0:0:
320,192,240966,1,8,0:0:0:0:
192,192,241132,1,0,0:0:0:0:
320,192,241298,1,8,0:0:0:0:
192,192,241463,1,0,0:0:0:0:
192,192,241546,1,0,0:0:0:0:
320,192,241629,1,8,0:0:0:0:
192,192,241960,1,0,0:0:0:0:
320,192,242126,1,8,0:0:0:0:
320,192,242457,1,8,0:0:0:0:
192,192,242623,1,0,0:0:0:0:
320,192,242955,1,8,0:0:0:0:
192,192,243120,1,0,0:0:0:0:
192,192,243286,1,0,0:0:0:0:
192,192,243452,1,0,0:0:0:0:
320,192,243618,1,12,0:0:0:0:
192,192,243783,1,4,0:0:0:0:
192,192,243949,1,4,0:0:0:0:
320,192,244115,1,12,0:0:0:0:
192,192,244446,1,4,0:0:0:0:
320,192,244612,1,12,0:0:0:0:
320,192,246601,1,8,0:0:0:0:
320,192,247612,1,8,0:0:0:0:
320,192,247949,1,8,0:0:0:0:
320,192,248286,1,8,0:0:0:0:
320,192,248623,1,8,0:0:0:0:
320,192,250728,1,8,0:0:0:0:
320,192,251780,1,8,0:0:0:0:
320,192,252131,1,8,0:0:0:0:
320,192,252482,1,8,0:0:0:0:
320,192,252833,1,8,0:0:0:0:
320,192,253551,1,8,0:0:0:0:
320,192,253910,1,8,0:0:0:0:
320,192,254282,1,8,0:0:0:0:
320,192,254655,1,8,0:0:0:0:
320,192,255028,1,8,0:0:0:0:
320,192,255407,1,8,0:0:0:0:
320,192,255787,1,8,0:0:0:0:
320,192,255977,1,8,0:0:0:0:
320,192,256167,1,8,0:0:0:0:
320,192,256554,1,8,0:0:0:0:
320,192,256941,1,8,0:0:0:0:
320,192,257328,1,8,0:0:0:0:
320,192,258917,1,8,0:0:0:0:
320,192,259314,1,8,0:0:0:0:
320,192,259712,1,8,0:0:0:0:
320,192,260953,1,8,0:0:0:0:
320,192,261381,1,8,0:0:0:0:
320,192,261815,1,8,0:0:0:0:
320,192,262315,1,8,0:0:0:0:
320,192,263275,1,8,0:0:0:0:
320,192,263820,1,8,0:0:0:0:
320,192,264525,1,8,0:0:0:0:
320,192,264986,1,8,0:0:0:0:
320,192,265486,1,8,0:0:0:0:
192,192,266611,1,0,0:0:0:0:
192,192,266704,1,0,0:0:0:0:
320,192,266798,1,8,0:0:0:0:
