osu file format v5

[General]
AudioFilename: Dunderpatrullen (feat Wiklund) - Taekwondo Princess.mp3
AudioLeadIn: 0
PreviewTime: -1
Countdown: 1
SampleSet: Normal
StackLeniency: 0.7
Mode: 0
LetterboxInBreaks: 1
EditorBookmarks: 18285,42285,54285,66285,78284,79596,103785,127785,151785

[Metadata]
Title:Taekwondo Princess
Artist:Dunderpatrullen (feat Wiklund)
Creator:CheZDa
Version:Hard
Source:
Tags:

[Difficulty]
HPDrainRate:7
CircleSize:5
OverallDifficulty:7
SliderMultiplier:1.6
SliderTickRate:2

[Events]
//Background and Video events
0,0,"dunderpatrullen2.jpg"
//Break Periods
2,42859,53384
2,94234,102359
//Storyboard Layer 0 (Background)
//Storyboard Layer 1 (Failing)
//Storyboard Layer 2 (Passing)
//Storyboard Layer 3 (Foreground)
//Storyboard Sound Samples
//Background Colour Transformations
3,100,163,162,255

[TimingPoints]
276,375,4,1,0,65,1,0
18269,-100,4,1,0,65,0,0
54284,-100,4,2,0,89,0,0
66284,-100,4,1,0,67,0,1
78659,-100,4,2,0,92,0,0
103784,-100,4,1,0,67,0,0

[Colours]
Combo1 : 18,222,182
Combo2 : 255,45,107
Combo3 : 255,145,145
Combo4 : 196,106,234
Combo5 : 15,75,217

[HitObjects]
176,152,18088,1,4
112,88,18276,2,0,B|8:192|120:312,1,240
176,232,19026,1,0
320,40,19588,5,0
248,88,19776,1,0
320,128,19963,1,0
248,176,20151,1,0
320,216,20338,1,0
248,264,20526,2,0,B|144:264|240:344|120:336,1,160
320,336,21276,6,0,B|408:328|408:208,1,160
408,144,21838,1,0
232,160,22213,1,8
288,216,22401,1,8
344,272,22588,2,0,B|168:272,1,160
128,216,23151,1,8
72,160,23339,1,8
16,104,23526,2,0,B|80:0|152:128,1,160
256,256,24276,6,0,B|320:360|392:240,1,160
440,184,24838,1,0
440,88,25026,2,0,B|376:24|400:208|304:72,1,160
264,32,25588,1,0
224,104,25776,1,0
184,32,25963,1,0
144,104,26151,1,0
104,32,26338,1,0
48,104,26526,2,0,B|-24:184|56:248,2,160
104,176,27463,5,2
296,176,27838,1,2
432,176,28026,2,2,B|336:176,1,80,2|2
208,176,28588,1,0
208,80,28776,2,0,B|120:88|100:126|104:200,1,160
104,272,29338,1,0
208,272,29526,2,0,B|271:284|307:251|295:163,1,160
472,176,30276,1,0
256,192,30651,12,0,32338
120,192,32713,5,0
168,272,32901,1,0
216,192,33088,1,0
264,112,33276,1,0
256,192,33651,12,0,35338
392,192,35713,5,0
344,272,35901,1,0
296,192,36088,1,0
248,112,36275,1,0
88,112,36651,2,0,B|-8:144|16:304|88:248|88:248|160:208|56:152|0:232|64:352|152:336,1,480
256,336,37963,5,0
256,240,38151,1,0
256,144,38338,1,0
256,48,38526,2,0,B|376:48|344:160,1,160
256,144,39088,1,0
176,192,39276,1,0
256,240,39463,1,0
328,296,39651,1,0
256,339,39838,1,0
161,341,40026,6,0,B|41:349|68:223,1,160
64,152,40588,1,0
160,152,40776,2,2,B|246:152,1,80
421,153,41338,1,0
320,152,41526,2,2,B|224:152,1,80
240,344,42088,1,0
240,248,42276,2,0,B|240:80,1,160,0|4
424,80,54276,5,0
368,232,54651,1,2
304,280,54838,1,2
224,256,55026,1,2
64,288,55401,1,8
24,128,55776,1,0
168,56,56151,1,2
248,72,56338,1,2
280,144,56526,1,2
184,272,56901,5,8
320,360,57276,1,8
456,272,57651,1,2
488,200,57838,1,2
440,136,58026,1,2
296,200,58401,1,8
144,152,58776,1,0
56,288,59151,1,2
112,336,59338,1,2
192,320,59526,1,2
232,160,59901,5,8
344,48,60276,1,8
464,152,60651,1,2
480,232,60838,1,2
432,296,61026,1,2
272,320,61401,1,8
112,288,61776,1,0
32,144,62151,1,2
48,64,62338,1,2
128,48,62526,1,2
216,176,62901,5,8
320,296,63276,1,10
400,280,63463,1,2
456,224,63651,1,6
480,144,63838,1,2
448,72,64026,1,6
288,32,64401,1,0
168,136,64776,1,0
208,288,65151,1,6
144,328,65338,1,2
64,304,65526,1,2
24,232,65713,1,6
48,152,65901,1,2
120,112,66088,1,2
200,128,66276,5,4
272,192,66463,1,0
328,272,66651,2,2,B|360:328|416:344|440:272,1,120
480,168,67213,1,0
480,72,67401,2,0,B|384:72,1,80
304,72,67776,2,0,B|304:160,1,80
304,344,68338,2,0,B|112:344,1,160
144,152,69088,5,0
144,56,69276,2,0,B|144:240,1,160
144,312,69838,1,0
144,312,69932,1,0
144,312,70026,2,0,B|240:312,1,80
320,312,70401,2,0,B|320:208,1,80
224,232,70776,2,0,B|48:232,1,160
64,136,71338,6,2,B|160:136,1,80,2|0
232,104,71713,2,2,B|232:200,1,80,2|2
192,272,72088,2,2,B|312:272,1,80,2|0
304,184,72463,1,0
336,272,72651,2,0,B|448:272|440:152,1,160
352,144,73213,1,0
440,112,73401,2,0,B|440:16|336:16,2,160
352,144,74338,1,0
440,184,74526,2,0,B|440:360,1,160
248,344,75276,6,0,B|248:176,1,160
160,152,75838,1,0
248,120,76026,2,0,B|248:24|144:24,1,160
48,24,76588,1,0
128,72,76776,1,0
48,128,76963,1,0
128,184,77151,1,0
48,240,77338,1,0
128,288,77526,2,0,B|192:344|200:240|280:312,1,160
384,360,78088,5,4
488,304,78276,5,4
128,320,79588,5,0
200,256,79776,2,0,B|320:136|32:272|184:152|224:88,1,240
280,24,80526,1,2
320,112,80713,1,2
368,24,80901,1,2
408,112,81088,1,2
448,200,81276,2,0,B|488:304|448:328|400:264|400:264|400:336|336:280,1,240
280,296,82026,6,0,B|280:368|240:360|224:296|224:296|208:360|168:360|160:280,1,240
64,296,82776,1,0
64,104,83151,1,0
256,104,83526,5,2
352,104,83713,1,2
448,104,83901,2,2,B|448:208,1,80
488,272,84276,2,2,B|392:272,1,80
320,312,84651,2,2,B|320:200,1,80
400,176,85026,2,2,B|224:176,1,160
152,320,85776,6,0,B|152:64,1,240
232,80,86526,2,0,B|232:360,1,240
304,288,87276,1,0
232,248,87463,1,0
304,208,87651,1,0
232,168,87838,1,2
304,128,88026,1,2
232,88,88213,1,2
304,48,88401,2,0,B|424:32|408:136,1,160
408,208,88963,5,0
408,288,89151,2,0,B|336:376|272:280,1,160
224,224,89713,2,0,B|160:152|80:232,1,160
88,304,90276,2,0,B|264:304|264:304|304:304|312:232,1,240
307,182,91026,1,0
307,22,91401,1,4
440,112,91776,1,4
440,288,92151,2,0,B|360:360|360:192|216:312|216:312|160:352|0:336|48:216|184:192|184:192|288:160|424:224|352:88|352:88,1,800
416,288,103401,5,4
416,128,103776,6,0,B|424:32|344:32|360:160,1,160
360,208,104338,1,0
360,288,104526,2,0,B|360:384|288:384|295:259,1,160
224,256,105088,1,0
296,224,105276,1,0
224,184,105463,1,0
152,144,105651,1,0
224,104,105838,1,0
296,64,106026,2,0,B|408:64|384:168,1,160
384,312,106776,6,0,B|120:312,1,240,0|0
144,232,107526,1,0
144,152,107713,1,8
144,72,107900,1,8
224,72,108088,2,0,B|224:176,1,80
304,152,108463,1,8
304,72,108651,1,8
464,72,109026,6,0,B|464:256,1,160
304,232,109776,2,0,B|128:232|128:232|96:192|112:168,1,240
192,176,110526,2,0,B|368:176|368:176|400:160|384:104,1,240
352,48,111276,1,0
320,120,111463,1,0
280,48,111651,1,0
240,120,111838,1,0
200,48,112026,2,0,B|88:48|96:144,1,160
96,296,112776,6,2,B|192:296,1,80
336,296,113338,1,2
336,216,113526,2,2,B|176:216,1,120
96,216,114088,1,2
96,136,114276,6,0,B|96:40|216:48,1,160
232,120,114838,1,0
263,47,115026,2,0,B|371:40|360:144,1,160,0|0
360,296,115776,1,0
256,192,116151,12,0,117838
256,72,118213,5,0
256,152,118401,1,0
256,232,118588,1,0
256,312,118776,1,0
256,192,118963,12,0,120838
384,296,121213,5,0
312,256,121401,1,0
384,216,121588,1,0
312,176,121776,1,0
152,176,122151,2,0,B|72:136|120:-8|352:56|432:48|432:112,1,400
424,176,123276,1,0
496,216,123463,1,0
424,256,123651,1,0
496,296,123838,1,0
424,336,124026,2,0,B|304:376|264:280,1,160
288,144,124776,5,0
248,72,124963,1,0
208,144,125151,1,0
168,216,125338,1,0
128,144,125526,2,0,B|89:73|89:73|41:175,1,160
56,296,126276,5,2
136,296,126463,1,2
296,296,126838,1,0
376,296,127026,2,2,B|448:296|448:192,1,120
448,96,127588,5,4
368,96,127776,2,0,B|264:-8|144:104,1,240
72,96,128526,1,0
72,336,129088,5,0
112,264,129276,1,0
152,336,129463,1,0
192,264,129651,1,0
232,192,129838,1,0
272,120,130026,2,0,B|312:32|392:72|392:160,1,160
408,248,130776,6,0,B|416:360|312:344,1,160
240,344,131338,1,0
192,192,131713,1,8
272,192,131901,1,8
312,120,132088,2,0,B|136:120,1,160
192,56,132651,1,8
272,56,132839,1,8
352,56,133026,2,0,B|432:128|336:216,1,160
232,296,133776,6,0,B|176:392|104:296,1,160
56,240,134338,1,0
112,176,134526,2,0,B|176:112|152:296|248:160,1,160
280,112,135088,1,0
320,40,135276,1,0
360,112,135463,1,0
400,184,135651,1,0
440,256,135838,1,0
472,184,136026,2,0,B|544:104|464:40,2,160
440,256,136963,5,2
280,256,137338,1,2
192,256,137526,2,2,B|96:256,1,80,2|2
112,96,138088,1,0
192,96,138276,2,0,B|280:88|304:144|280:216,1,160
216,224,138838,1,0
288,256,139026,2,0,B|288:328|248:352|168:344,1,160
24,344,139776,1,0
256,192,140151,12,0,141838
256,248,142213,5,0
312,192,142401,1,0
256,136,142588,1,0
200,192,142776,1,0
256,192,143151,12,0,144838
256,136,145213,5,0
312,192,145401,1,0
256,248,145588,1,0
200,192,145775,1,0
40,192,146151,2,0,B|128:192|128:192|104:-16|336:-2|328:112|328:112|400:112,1,480
376,192,147463,5,0
296,192,147651,1,0
216,192,147838,1,0
136,192,148026,2,0,B|40:248|144:320,1,160
176,240,148588,1,0
216,312,148776,1,0
256,240,148963,1,0
296,168,149151,1,0
336,240,149338,1,0
376,312,149526,6,0,B|448:232|360:152,1,160
376,88,150088,1,0
296,88,150276,2,2,B|208:88,1,80
56,88,150838,1,0
136,88,151026,2,2,B|232:88,1,80
216,192,151588,1,0
144,232,151776,2,0,B|216:320|304:208,1,160,0|4
