osu file format v5

[General]
AudioFilename: Duke Nukem.mp3
AudioLeadIn: 0
PreviewTime: -1
Countdown: 3
SampleSet: Normal
StackLeniency: 0.7
Mode: 0
LetterboxInBreaks: 1

[Metadata]
Title:Duke Nukem Jam
Artist:
Creator:darkzero297
Version:Normal
Source:
Tags:

[Difficulty]
HPDrainRate:4
CircleSize:6
OverallDifficulty:6
SliderMultiplier:1.4
SliderTickRate:1

[Events]
//Background and Video events
1,0,"Duke Nukem.avi"
//Break Periods
2,39750,49930
2,95310,112052
2,185253,206665
//Storyboard Layer 0 (Background)
//Storyboard Layer 1 (Failing)
//Storyboard Layer 2 (Passing)
//Storyboard Layer 3 (Foreground)
//Storyboard Sound Samples
//Background Colour Transformations
3,100,163,162,255

[TimingPoints]
5900,222.634936118679,4,1,0,100,1
17264,249.016765153187,4,1,0,100,1
49947,306.191204057547,4,1,0,100,1

[HitObjects]
256,192,5955,1,0
256,192,6122,1,0
256,192,6456,1,0
256,192,7013,1,0
256,192,7180,1,0
256,192,7514,1,0
257,192,8794,2,2,B|412:192,1,140
427,196,9406,1,4
426,195,9796,2,2,B|229:89|81:200,1,350
256,192,11577,12,8,12133
256,192,12579,12,8,13135
192,224,14415,6,4,B|192:96,1,105
256,160,14972,1,4
320,128,15473,2,4,B|320:256,1,105
256,224,16029,1,4
256,224,17264,2,0,B|480:224|480:224|160:32|160:32|160:352,1,910
192,320,19318,1,0
240,288,19505,1,0
288,256,19878,1,0
352,256,20563,2,0,B|320:160|288:288|288:288|224:192|224:192|96:192,1,350
62,227,21559,2,0,B|246:227,1,175
206,192,22057,2,0,B|384:192,1,175
416,192,22555,1,0
417,134,22929,2,0,B|370:77|329:136|329:136|313:131,1,105
330,191,23489,1,0
265,192,24049,2,0,B|212:240|154:176|154:176|160:186,1,105
172,132,24547,1,0
117,130,25108,2,4,B|69:82|24:136,1,105,0|0
27,185,25606,1,0
27,240,26166,2,0,C|59:176|59:240|91:176|91:240|123:176|123:240|155:176|155:240,1,525
204,233,27598,6,2,C|493:20,1,350
485,25,28594,1,8
486,80,28781,1,8
486,191,29092,1,0
486,269,29839,1,0
486,269,30150,1,0
448,320,30897,1,0
384,352,31271,1,0
320,352,31955,2,0,C|256:320|320:288|256:256|320:224,1,280
354,245,32765,1,4
396,263,33325,1,4
396,263,33823,1,4
448,256,34197,2,0,C|320:32|64:192,1,560
64,224,35379,1,0
64,256,35753,1,0
64,288,36562,1,0
64,288,36874,1,0
64,352,37558,2,8,C|512:352,1,420
480,352,38492,2,0,C|480:288,1,35
480,317,38990,2,0,C|480:256,1,35
480,282,39488,2,2,C|480:224,1,35
128,192,51095,5,0
192,192,51477,1,0
256,192,51860,1,0
256,192,52090,2,4,B|96:96|192:32|352:32|416:96|448:256|384:352|288:384|128:288|96:320,1,700
128,320,54233,1,0
160,320,54386,1,0
192,320,54539,1,0
224,320,54692,1,0
256,320,54846,1,0
256,240,55152,1,0
255,154,55688,1,0
256,76,55917,2,8,B|334:76,3,70
320,64,57142,2,0,B|390:34|443:74|462:155|437:234|357:306|292:273|235:164|191:65|104:52|50:100|26:206|58:289|182:336|283:322|430:310|495:230|475:155|378:148|300:134|198:103|166:91|114:85|64:64,1,1120,0|0
64,64,59745,1,2
64,64,60127,1,2
64,64,60510,1,2
64,64,60816,1,2
96,256,62500,2,0,B|96:128|224:64,1,210
256,64,63113,1,0
256,64,63342,1,0
320,64,63649,2,0,B|416:96|459:245,1,210
416,352,65180,2,0,B|0:352,1,385
32,320,66175,1,0
32,320,66481,2,0,B|32:160|160:32|288:32,1,420
288,31,67552,1,0
288,31,67706,1,4
256,192,68471,1,0
256,192,68624,1,0
256,192,68777,1,0
256,192,69007,1,0
256,192,69313,1,0
256,192,69696,1,0
256,192,70079,2,8,B|236:263|352:192|256:96|160:192|256:288,1,210
256,192,71074,12,6,72758
256,192,73753,5,0
256,192,73906,1,0
256,192,74289,1,0
256,128,74825,1,0
320,128,74978,1,0
384,128,75360,1,0
384,160,76585,2,0,B|128:160,1,245
96,224,77657,2,0,B|352:224,1,245
256,192,79341,1,0
256,192,79494,1,0
256,192,79800,2,0,B|496:280|415:21|415:21|417:39,1,315
415,29,80642,1,0
415,29,80948,2,0,B|129:29,1,280
136,84,81714,1,0
178,116,82097,1,0
221,144,82403,2,0,B|221:236,2,70
173,189,83092,1,0
174,262,83474,1,0
174,338,83781,1,0
252,342,84087,1,0
329,339,84470,1,0
329,264,84852,1,0
256,192,85388,1,0
256,192,85541,1,0
256,192,85924,1,0
256,192,86230,1,0
256,192,86536,1,0
256,192,86919,1,0
256,192,87302,1,0
256,192,87838,1,0
256,192,87991,1,0
256,192,88373,1,0
256,192,88680,1,0
256,192,89062,1,0
256,192,89445,1,0
256,192,89751,1,0
256,192,90134,1,0
334,242,90746,1,0
308,92,90900,1,0
147,60,91282,1,0
178,250,91742,1,0
246,173,91895,1,0
109,159,92277,1,0
256,192,93502,12,0,94038
256,192,94574,12,0,95110
257,194,113252,5,0
256,192,113405,1,0
257,194,113787,2,0,B|413:245|266:294|266:294|195:321,1,245
199,320,114476,1,0
196,320,114782,2,0,B|196:41,1,245
196,61,115471,1,0
262,64,115854,1,0
325,96,116160,1,0
389,144,116543,1,0
440,200,116926,1,0
448,256,117309,1,0
448,256,117615,2,0,B|247:256,1,175
256,288,118304,2,0,B|448:288,1,175,0|0
449,289,119299,1,0
449,289,119452,1,0
449,289,119835,1,0
449,289,120141,1,0
449,289,120447,2,0,B|242:289,1,175
239,289,121136,1,0
238,230,121672,1,0
238,230,121825,1,0
238,230,122208,1,0
238,174,122590,1,0
238,174,122973,1,2
256,192,124581,12,8,127030
256,192,127260,12,2,129862
256,192,130092,12,14,135527
257,192,135910,6,0,B|185:152|294:72|404:180|325:300|164:348,1,385
173,344,136905,1,0
173,344,137134,1,0
173,344,137441,2,0,B|173:66,1,245
173,99,138359,1,0
217,66,138665,1,0
264,33,138972,2,0,B|471:33,1,175
439,33,139661,1,0
453,33,139814,2,0,B|452:360,1,315
450,349,140809,1,0
449,349,141115,1,0
449,290,141880,1,0
384,288,142034,1,0
384,224,142187,1,0
320,224,142340,1,0
320,160,142646,2,0,B|64:160,1,245
72,199,143564,1,0
72,199,143947,1,0
72,199,144253,1,0
72,199,144483,2,0,L|72:363|460:363,1,525
468,363,145861,1,0
468,363,146244,1,0
468,363,146856,2,0,L|467:22|215:22,1,560
252,21,148540,2,2,L|32:21|32:251,1,420
32,226,149688,1,0
32,226,150071,1,0
256,96,151449,5,4
256,96,151602,1,4
198,36,152444,1,0
198,36,152597,1,0
347,278,154205,1,8
347,278,154358,1,8
203,38,155276,1,0
203,38,155429,1,0
192,224,157037,1,0
192,224,157190,1,0
320,128,158109,1,0
320,128,158262,1,0
240,45,159869,1,0
240,45,160022,1,0
324,176,160941,1,0
324,176,161094,1,0
480,192,162625,2,0,B|544:448|0:416|32:64,1,735
32,64,165534,1,0
32,32,166605,2,0,B|64:96,1,70
149,153,167218,1,0
288,288,167754,2,0,B|480:352,1,175
160,136,170203,5,0
160,136,170356,5,0
160,136,170509,5,0
160,136,170739,5,0
204,105,171045,6,0,B|203:31|52:40,1,175
70,84,171811,6,0,L|101:264|101:264,1,175
124,290,172576,6,0,B|308:269|307:269,1,175
116,61,174030,2,0,L|378:62,1,245
360,64,174796,2,0,L|488:201,1,175
480,192,175561,2,0,L|346:357,1,210
348,356,176250,2,0,L|96:356,1,245
110,356,177169,1,0
110,356,177705,2,0,L|32:193|151:17|151:17|148:18,1,385
146,23,178853,1,0
146,23,179236,1,0
256,128,179618,5,2
320,224,180154,5,4
160,256,180690,5,8
160,128,181073,5,6
192,96,181609,5,12
327,299,182145,5,10
320,256,182451,5,14
320,256,182833,5,2
320,160,183140,5,4
320,160,183522,5,8
384,160,183829,5,6
288,96,184211,5,12
192,160,184518,5,10
256,192,184900,5,14
56,333,207865,6,0,L|257:225|257:225|257:226,1,210
289,212,208783,5,0
343,202,209013,2,0,B|152:100,1,210
109,81,210008,5,0
109,27,210238,6,0,B|338:26,1,210
321,83,211156,5,4
322,142,211539,1,4
321,142,211692,1,4
256,192,212917,12,14,214830
