osu file format v14

[General]
AudioFilename: Duffy - Mercy.mp3
AudioLeadIn: 0
PreviewTime: -1
Countdown: 1
SampleSet: None
StackLeniency: 0.7
Mode: 2
LetterboxInBreaks: 1
WidescreenStoryboard: 0

[Editor]
DistanceSpacing: 1
BeatDivisor: 2
GridSize: 8
TimelineZoom: 1

[Metadata]
Title:Mercy
TitleUnicode:Mercy
Artist:Duffy
ArtistUnicode:Duffy
Creator:-_-WwolowW-_-
Version:[Wooooooow!]
Source:
Tags:Mercy wow
BeatmapID:649739
BeatmapSetID:288065

[Difficulty]
HPDrainRate:5
CircleSize:4
OverallDifficulty:9.3
ApproachRate:9.3
SliderMultiplier:1.59999990463257
SliderTickRate:1

[Events]
//Background and Video events
0,0,"IMG_2248.JPG",0,0
//Break Periods
//Storyboard Layer 0 (Background)
//Storyboard Layer 1 (Fail)
//Storyboard Layer 2 (Pass)
//Storyboard Layer 3 (Foreground)
//Storyboard Sound Samples

[TimingPoints]
123.944392304632,230.769230769231,4,1,0,53,1,0
29893,-66.6666666666667,4,1,0,53,0,0
30700,-100,4,1,0,53,0,0
31446,-100,4,1,0,53,0,0

[Colours]
Combo1 : 255,255,0
Combo2 : 255,0,0
Combo3 : 255,0,128
Combo4 : 0,255,255

[HitObjects]
48,48,1047,5,0,0:0:0:0:
384,304,1277,6,0,L|120:96,1,319.999980926514
512,72,1970,2,0,L|392:184,1,159.999990463257
64,200,2431,6,0,L|224:200,2,159.999990463257
456,192,3123,1,0,0:0:0:0:
352,104,3354,6,0,L|16:104,1,319.999980926514
456,304,4047,1,0,0:0:0:0:
232,80,4277,2,0,L|56:80,1,159.999990463257
448,304,4739,5,0,0:0:0:0:
328,176,4970,6,0,L|488:64,1,159.999990463257
48,40,5431,6,0,L|216:176,1,159.999990463257
136,64,5893,2,0,P|136:224|-8:224,1,319.999980926514
512,104,6585,2,0,P|376:280|392:328,1,319.999980926514
256,192,7277,12,0,8200,0:0:0:0:
56,136,8431,5,0,0:0:0:0:
88,96,8547,1,0,0:0:0:0:
128,72,8662,1,0,0:0:0:0:
184,72,8777,1,0,0:0:0:0:
224,88,8893,1,0,0:0:0:0:
272,120,9008,1,0,0:0:0:0:
288,160,9123,1,0,0:0:0:0:
248,200,9239,1,0,0:0:0:0:
192,200,9354,1,0,0:0:0:0:
112,232,9470,1,0,0:0:0:0:
48,208,9585,1,0,0:0:0:0:
336,264,9700,6,0,L|272:320,1,79.9999952316285
40,120,9931,2,0,L|96:48,1,79.9999952316285
432,328,10277,1,0,0:0:0:0:
376,336,10393,1,0,0:0:0:0:
320,328,10508,1,0,0:0:0:0:
272,288,10623,1,0,0:0:0:0:
248,248,10739,1,0,0:0:0:0:
264,152,10970,1,0,0:0:0:0:
480,128,11085,6,0,L|432:208,1,79.9999952316285
224,72,11316,2,0,L|176:160,1,79.9999952316285
384,224,11547,2,0,L|464:224,1,79.9999952316285
136,272,11777,2,0,L|56:320,1,79.9999952316285
400,104,12008,6,0,L|408:184,1,79.9999952316285
200,176,12239,2,0,L|120:176,1,79.9999952316285
384,336,12470,2,0,L|384:248,1,79.9999952316285
144,328,12701,2,0,L|208:264,1,79.9999952316285
144,200,12932,6,0,L|216:144,1,79.9999952316285
432,200,13162,2,0,L|376:264,1,79.9999952316285
184,104,13393,2,0,L|256:40,1,79.9999952316285
368,336,13623,2,0,L|456:336,1,79.9999952316285
48,136,13970,5,0,0:0:0:0:
72,88,14085,1,0,0:0:0:0:
112,56,14200,2,0,P|136:56|200:72,1,79.9999952316285
160,56,14431,1,0,0:0:0:0:
208,80,14547,1,0,0:0:0:0:
240,160,14777,1,0,0:0:0:0:
248,208,14893,1,0,0:0:0:0:
176,208,15008,1,0,0:0:0:0:
128,232,15123,1,0,0:0:0:0:
40,200,15239,1,0,0:0:0:0:
8,224,15354,1,0,0:0:0:0:
400,128,15470,6,0,L|392:208,1,79.9999952316285
176,168,15700,2,0,L|96:152,1,79.9999952316285
392,272,15931,2,0,L|360:352,1,79.9999952316285
112,280,16162,2,0,L|152:360,1,79.9999952316285
464,64,16393,5,0,0:0:0:0:
392,48,16508,1,0,0:0:0:0:
320,64,16623,1,0,0:0:0:0:
264,112,16739,1,0,0:0:0:0:
240,176,16854,1,0,0:0:0:0:
232,248,16970,1,0,0:0:0:0:
288,296,17085,1,0,0:0:0:0:
352,320,17200,1,0,0:0:0:0:
480,320,17316,1,0,0:0:0:0:
296,360,17431,1,0,0:0:0:0:
240,336,17547,1,0,0:0:0:0:
448,376,17662,1,0,0:0:0:0:
352,184,17777,2,0,L|448:184,1,79.9999952316285
112,136,18008,2,0,L|80:40,1,79.9999952316285
320,144,18239,2,0,L|360:40,1,79.9999952316285
176,224,18470,2,0,L|56:224,1,79.9999952316285
416,272,18700,2,0,L|416:352,1,79.9999952316285
160,120,18931,6,0,L|112:32,1,79.9999952316285
384,112,19162,2,0,L|424:40,1,79.9999952316285
64,328,19393,5,0,0:0:0:0:
128,328,19508,1,0,0:0:0:0:
184,296,19623,1,0,0:0:0:0:
224,248,19739,1,0,0:0:0:0:
240,192,19854,1,0,0:0:0:0:
232,136,19970,1,0,0:0:0:0:
184,96,20085,1,0,0:0:0:0:
128,72,20200,1,0,0:0:0:0:
0,136,20316,1,0,0:0:0:0:
48,120,20431,1,0,0:0:0:0:
384,184,20547,1,0,0:0:0:0:
352,144,20662,1,0,0:0:0:0:
360,96,20777,6,0,L|456:96,1,79.9999952316285
168,144,21008,2,0,L|120:224,1,79.9999952316285
120,264,21239,5,0,0:0:0:0:
400,256,21354,1,0,0:0:0:0:
56,208,21470,2,0,L|88:120,1,79.9999952316285
416,128,21700,2,0,L|376:56,1,79.9999952316285
56,320,21931,1,0,0:0:0:0:
0,160,22047,6,0,L|88:160,1,79.9999952316285
280,160,22277,2,0,L|392:160,1,79.9999952316285
496,168,22508,1,0,0:0:0:0:
184,336,22739,6,0,P|184:256|112:224,1,159.999990463257
448,104,23200,2,0,P|368:88|384:16,1,159.999990463257
96,144,23662,2,0,P|168:112|136:48,1,159.999990463257
336,344,24123,6,0,P|312:280|424:264,1,159.999990463257
80,120,24585,2,0,P|192:88|184:32,1,159.999990463257
256,192,25047,5,0,0:0:0:0:
96,224,25277,1,0,0:0:0:0:
280,344,25508,1,0,0:0:0:0:
128,352,25739,1,0,0:0:0:0:
312,352,25970,1,0,0:0:0:0:
96,352,26200,1,0,0:0:0:0:
376,344,26431,1,0,0:0:0:0:
48,352,26662,1,0,0:0:0:0:
456,336,26893,2,0,B|448:240|408:128|304:144|216:320|200:312|96:264|64:192|80:80|176:32|296:24|440:48,1,799.999952316285
56,328,28277,2,0,L|248:328,2,159.999990463257
384,344,28970,6,0,L|448:248,1,79.9999952316285
160,104,29316,2,0,L|64:128,1,79.9999952316285
16,192,29662,5,0,0:0:0:0:
184,80,29893,2,0,B|352:176|464:264|608:312,1,479.999971389771
16,192,30585,5,0,0:0:0:0:
424,224,30816,2,0,L|424:312,1,79.9999952316285
184,208,31047,2,0,L|80:208,1,79.9999952316285
384,136,31278,2,0,L|408:40,1,79.9999952316285
208,120,31509,2,0,L|168:32,1,79.9999952316285
352,240,31739,5,0,0:0:0:0:
344,304,31854,1,0,0:0:0:0:
360,192,31970,6,0,L|432:136,1,79.9999952316285
152,272,32200,2,0,L|96:176,1,79.9999952316285
424,72,32431,2,0,L|400:160,1,79.9999952316285
160,72,32662,5,0,0:0:0:0:
344,72,32893,1,0,0:0:0:0:
120,144,33123,1,0,0:0:0:0:
64,224,33354,5,0,0:0:0:0:
288,320,33585,6,0,L|488:328,1,159.999990463257
48,184,34047,2,0,B|48:88|104:48|304:48,1,319.999980926514
48,296,34739,1,0,0:0:0:0:
448,320,34970,2,0,B|408:240|320:192|128:184,1,319.999980926514
448,120,35662,6,0,L|264:64,1,159.999990463257
96,80,36123,5,0,0:0:0:0:
440,264,36354,2,0,L|256:264,2,159.999990463257
56,152,37047,6,0,L|248:152,2,159.999990463257
496,352,37739,1,0,0:0:0:0:
136,296,37970,6,0,B|0:264|-80:208|-32:48|80:8|200:96,1,479.999971389771
