osu file format v14

[General]
AudioFilename: Niggerz Bop - DuckTales Theme Song (1).mp3
AudioLeadIn: 0
PreviewTime: -1
Countdown: 1
SampleSet: None
StackLeniency: 0.7
Mode: 0
LetterboxInBreaks: 1
WidescreenStoryboard: 1

[Editor]
DistanceSpacing: 1
BeatDivisor: 6
GridSize: 16
TimelineZoom: 1

[Metadata]
Title:Ducktales theme
TitleUnicode:Ducktales theme
Artist:Duck Tales
ArtistUnicode:Duck Tales
Creator:Grundle
Version:LOVESTRUCK DERPY PLAY TJHIS ONE
Source:
Tags:
BeatmapID:628771
BeatmapSetID:277491

[Difficulty]
HPDrainRate:5
CircleSize:4
OverallDifficulty:5
ApproachRate:10
SliderMultiplier:3
SliderTickRate:1

[Events]
//Background and Video events
//Break Periods
//Storyboard Layer 0 (Background)
//Storyboard Layer 1 (Fail)
//Storyboard Layer 2 (Pass)
//Storyboard Layer 3 (Foreground)
//Storyboard Sound Samples

[TimingPoints]
0,339.789330615019,4,1,0,100,1,0
5096,339.789330615019,4,1,0,100,1,0
10419,339.789330615019,4,1,0,100,1,0
11042,339.789330615019,4,1,0,100,1,0
16478,339.789330615019,4,1,0,100,1,0

[HitObjects]
432,240,3058,5,0,0:0:0:0:
352,128,3397,1,0,0:0:0:0:
256,64,3737,1,0,0:0:0:0:
144,48,4077,1,0,0:0:0:0:
48,16,4417,2,0,B|80:112|80:112|64:112|64:112|80:128|80:128|64:128|64:128|80:144|80:144|64:144|64:144|80:160|80:160|64:160|64:160|80:176|80:176|64:176|64:176|80:192|80:192|64:192|64:192|80:208|80:208|64:208|64:208|80:224|80:224|64:224|64:224|80:240|80:240|64:240|64:240|80:256|80:256|64:256|64:256|80:272|80:272|64:272|64:272|80:288|80:288|64:288|64:288|80:304|80:304|112:288|112:288|128:304|128:304|144:288|144:288|160:304|160:304|176:288|176:288|192:304|192:304|208:288|208:288|224:304|224:304|240:288|240:288|256:304|256:304|272:288|272:288|288:304|288:304|304:288|304:288|320:304|320:304|336:288|336:288|352:304|352:304|352:304|352:304|352:304|352:304|352:304|352:304|352:304|352:304|352:304|352:304|352:304|352:304|352:304|352:304|352:304|352:304,1,900,0|0,0:0|0:0,0:0:0:0:
416,256,5818,1,0,0:0:0:0:
448,176,6327,1,0,0:0:0:0:
400,48,7304,1,0,0:0:0:0:
288,32,7814,1,0,0:0:0:0:
240,128,8493,5,0,0:0:0:0:
144,240,8833,1,0,0:0:0:0:
144,48,9173,1,0,0:0:0:0:
288,288,9513,1,0,0:0:0:0:
384,256,9853,2,0,B|464:224|464:224|448:224|448:224|464:208|464:208|448:208|448:208|464:192|464:192|448:192|448:192|464:176|464:176|448:176|448:176|464:160|464:160|448:160|448:160|464:144|464:144|448:144|448:144|464:128|464:128|448:128|448:128|464:112|464:112|448:112|448:112|464:96|464:96|448:96|448:96|464:80|464:80|448:80|448:80|416:48|416:48|400:80|400:80|384:48|384:48|368:80|368:80|352:48|352:48|336:80|336:80|320:48|320:48|304:80|304:80|288:48|288:48|272:80|272:80|256:48|256:48|240:80|240:80|224:48|224:48|208:80|208:80|208:80|208:80|208:80|208:80|208:80,1,900
96,96,11211,5,0,0:0:0:0:
48,224,11721,1,0,0:0:0:0:
304,288,12655,5,0,0:0:0:0:
400,160,13165,1,0,0:0:0:0:
288,64,14100,5,0,0:0:0:0:
128,128,14269,1,0,0:0:0:0:
224,336,14609,1,0,0:0:0:0:
352,288,14949,1,0,0:0:0:0:
400,208,15119,1,0,0:0:0:0:
400,208,15289,2,0,B|464:160|464:96|432:48|416:32|368:16|288:16|240:16|160:32|80:96|48:144|32:192|16:304|16:352|32:368|32:368|32:368|32:368|64:336|64:336|64:336,1,825
512,176,16987,5,0,0:0:0:0:
304,64,17327,1,0,0:0:0:0:
240,320,17497,1,0,0:0:0:0:
48,176,17667,1,0,0:0:0:0:
96,144,18007,2,0,B|160:64|160:64|176:80|176:80|224:32|224:32|240:48|240:48|304:32|304:32|304:48|304:48|368:64|368:64|368:80|368:80|432:96|432:96|416:128|416:128|464:144|464:144|432:160|432:160|480:208|480:208|448:224|448:224|480:240|480:240|464:272|464:272|496:288|496:288|448:320|448:320|496:352|496:352|432:352|432:352|432:352|432:352|432:352|432:352|432:352,1,900
320,320,19366,5,0,0:0:0:0:
80,208,19705,1,0,0:0:0:0:
128,112,20215,2,0,L|288:64,1,150
400,64,20725,1,0,0:0:0:0:
448,176,21461,5,0,0:0:0:0:
368,272,21659,1,0,0:0:0:0:
288,288,21801,1,0,0:0:0:0:
160,240,22126,6,0,P|48:240|32:80,1,300
128,64,22849,2,0,P|256:16|400:80,1,300
432,144,23528,2,0,P|352:192|160:304,1,300
128,352,24208,2,0,P|336:320|416:272,1,300
448,208,24887,1,0,0:0:0:0:
400,112,25227,1,0,0:0:0:0:
256,48,25822,5,0,0:0:0:0:
144,64,26161,1,0,0:0:0:0:
128,160,26898,2,0,B|80:112|80:112|80:160|80:160|48:128|48:128,1,150
128,240,27181,2,0,B|176:192|176:192|176:240|176:240|368:240|368:240,1,300
464,128,27860,1,0,0:0:0:0:
384,64,28200,1,0,0:0:0:0:
368,160,28540,1,0,0:0:0:0:
288,96,28880,1,0,0:0:0:0:
288,192,29220,1,0,0:0:0:0:
208,128,29560,1,0,0:0:0:0:
96,128,29899,1,0,0:0:0:0:
48,208,30239,6,0,L|176:336,1,150
160,320,30579,1,0,0:0:0:0:
240,336,31258,1,0,0:0:0:0:
320,336,31598,1,0,0:0:0:0:
400,240,32334,5,0,0:0:0:0:
384,96,32674,1,0,0:0:0:0:
256,96,33014,1,0,0:0:0:0:
128,144,33354,5,0,0:0:0:0:
112,160,33524,1,0,0:0:0:0:
80,176,33694,1,0,0:0:0:0:
64,256,34033,1,0,0:0:0:0:
128,288,34373,2,0,B|192:192|192:192|384:272,1,300
368,240,35053,2,0,B|336:128|336:128|144:80,1,300
80,80,36072,5,0,0:0:0:0:
48,160,36242,1,0,0:0:0:0:
112,208,36412,1,0,0:0:0:0:
224,208,36752,1,0,0:0:0:0:
400,96,37091,1,0,0:0:0:0:
272,64,37431,1,0,0:0:0:0:
448,224,37771,1,0,0:0:0:0:
400,336,37941,1,0,0:0:0:0:
272,320,38111,1,0,0:0:0:0:
208,208,38734,5,0,0:0:0:0:
48,80,39073,1,0,0:0:0:0:
208,32,39413,1,0,0:0:0:0:
368,256,39810,1,0,0:0:0:0:
480,48,40149,1,0,0:0:0:0:
176,288,40489,1,0,0:0:0:0:
64,144,40829,1,0,0:0:0:0:
192,32,40999,1,0,0:0:0:0:
352,64,41169,1,0,0:0:0:0:
336,304,41509,1,0,0:0:0:0:
336,80,42018,5,0,0:0:0:0:
96,288,42188,1,0,0:0:0:0:
96,80,42528,1,0,0:0:0:0:
224,240,43208,6,0,P|192:128|288:112,1,200
272,96,43547,1,0,0:0:0:0:
288,112,43774,6,0,P|241:191|464:288,1,400
464,224,44567,1,0,0:0:0:0:
224,96,44850,1,0,0:0:0:0:
432,96,45190,1,0,0:0:0:0:
64,112,45529,1,0,0:0:0:0:
256,288,45869,1,0,0:0:0:0:
64,240,46209,1,0,0:0:0:0:
176,160,46379,1,0,0:0:0:0:
320,64,46549,1,0,0:0:0:0:
416,176,46889,1,0,0:0:0:0:
224,112,47568,5,0,0:0:0:0:
192,224,47908,2,0,P|144:288|64:240,1,150
48,160,49267,5,0,0:0:0:0:
224,48,49607,1,0,0:0:0:0:
48,160,49947,1,0,0:0:0:0:
272,80,50287,1,0,0:0:0:0:
304,272,50626,1,0,0:0:0:0:
480,128,50966,1,0,0:0:0:0:
128,160,51306,1,0,0:0:0:0:
352,16,51646,1,0,0:0:0:0:
192,304,51985,1,0,0:0:0:0:
416,256,52325,1,0,0:0:0:0:
64,32,53005,5,0,0:0:0:0:
352,256,53345,1,0,0:0:0:0:
384,160,54704,5,0,0:0:0:0:
320,48,55044,1,0,0:0:0:0:
240,48,55383,2,0,P|160:32|16:208,1,300
64,256,56063,1,0,0:0:0:0:
224,304,56403,1,0,0:0:0:0:
384,272,56743,2,0,P|448:224|368:16,1,300
336,32,57422,1,0,0:0:0:0:
224,112,57762,1,0,0:0:0:0:
240,256,58441,5,0,0:0:0:0:
240,256,58781,1,0,0:0:0:0:
480,80,59178,1,0,0:0:0:0:
160,160,59178,1,0,0:0:0:0:
288,272,59178,1,0,0:0:0:0:
368,80,59178,1,0,0:0:0:0:
432,80,59178,1,0,0:0:0:0:
400,80,59178,1,0,0:0:0:0:
240,160,59178,1,0,0:0:0:0:
224,272,59178,1,0,0:0:0:0:
48,272,59178,1,0,0:0:0:0:
144,272,59178,1,0,0:0:0:0:
16,160,59178,1,0,0:0:0:0:
192,272,59178,1,0,0:0:0:0:
0,272,59178,1,0,0:0:0:0:
112,80,59178,1,0,0:0:0:0:
432,32,59178,1,0,0:0:0:0:
400,32,59178,1,0,0:0:0:0:
480,32,59178,1,0,0:0:0:0:
144,32,59178,1,0,0:0:0:0:
112,32,59178,1,0,0:0:0:0:
368,32,59178,1,0,0:0:0:0:
320,80,59178,1,0,0:0:0:0:
32,80,59178,1,0,0:0:0:0:
256,80,59178,1,0,0:0:0:0:
144,80,59178,1,0,0:0:0:0:
224,80,59178,1,0,0:0:0:0:
80,80,59178,1,0,0:0:0:0:
176,80,59178,1,0,0:0:0:0:
400,320,59178,1,0,0:0:0:0:
336,272,59178,1,0,0:0:0:0:
400,272,59178,1,0,0:0:0:0:
368,320,59178,1,0,0:0:0:0:
448,320,59178,1,0,0:0:0:0:
336,320,59178,1,0,0:0:0:0:
112,272,59178,1,0,0:0:0:0:
48,320,59178,1,0,0:0:0:0:
448,272,59178,1,0,0:0:0:0:
288,320,59178,1,0,0:0:0:0:
80,272,59178,1,0,0:0:0:0:
368,272,59178,1,0,0:0:0:0:
192,320,59178,1,0,0:0:0:0:
80,320,59178,1,0,0:0:0:0:
96,160,59178,1,0,0:0:0:0:
384,160,59178,1,0,0:0:0:0:
208,160,59178,1,0,0:0:0:0:
128,160,59178,1,0,0:0:0:0:
464,160,59178,1,0,0:0:0:0:
352,160,59178,1,0,0:0:0:0:
304,160,59178,1,0,0:0:0:0:
112,320,59178,1,0,0:0:0:0:
144,320,59178,1,0,0:0:0:0:
0,320,59178,1,0,0:0:0:0:
416,160,59178,1,0,0:0:0:0:
64,160,59178,1,0,0:0:0:0:
224,320,59178,1,0,0:0:0:0:
112,272,59178,1,0,0:0:0:0:
224,272,59178,1,0,0:0:0:0:
0,272,59178,1,0,0:0:0:0:
400,272,59178,1,0,0:0:0:0:
336,272,59178,1,0,0:0:0:0:
80,272,59178,1,0,0:0:0:0:
144,272,59178,1,0,0:0:0:0:
160,160,59178,1,0,0:0:0:0:
16,160,59178,1,0,0:0:0:0:
240,160,59178,1,0,0:0:0:0:
48,272,59178,1,0,0:0:0:0:
192,272,59178,1,0,0:0:0:0:
288,272,59178,1,0,0:0:0:0:
368,272,59178,1,0,0:0:0:0:
336,320,59178,1,0,0:0:0:0:
80,320,59178,1,0,0:0:0:0:
112,320,59178,1,0,0:0:0:0:
448,320,59178,1,0,0:0:0:0:
368,320,59178,1,0,0:0:0:0:
400,320,59178,1,0,0:0:0:0:
224,320,59178,1,0,0:0:0:0:
192,320,59178,1,0,0:0:0:0:
288,320,59178,1,0,0:0:0:0:
448,272,59178,1,0,0:0:0:0:
0,320,59178,1,0,0:0:0:0:
144,320,59178,1,0,0:0:0:0:
48,320,59178,1,0,0:0:0:0:
464,112,59178,1,0,0:0:0:0:
128,112,59178,1,0,0:0:0:0:
96,112,59178,1,0,0:0:0:0:
64,112,59178,1,0,0:0:0:0:
416,112,59178,1,0,0:0:0:0:
384,112,59178,1,0,0:0:0:0:
352,112,59178,1,0,0:0:0:0:
176,32,59178,1,0,0:0:0:0:
32,32,59178,1,0,0:0:0:0:
256,32,59178,1,0,0:0:0:0:
320,32,59178,1,0,0:0:0:0:
224,32,59178,1,0,0:0:0:0:
80,32,59178,1,0,0:0:0:0:
208,112,59178,1,0,0:0:0:0:
416,160,59178,1,0,0:0:0:0:
384,160,59178,1,0,0:0:0:0:
464,160,59178,1,0,0:0:0:0:
304,160,59178,1,0,0:0:0:0:
208,160,59178,1,0,0:0:0:0:
64,160,59178,1,0,0:0:0:0:
128,160,59178,1,0,0:0:0:0:
16,112,59178,1,0,0:0:0:0:
240,112,59178,1,0,0:0:0:0:
304,112,59178,1,0,0:0:0:0:
96,160,59178,1,0,0:0:0:0:
352,160,59178,1,0,0:0:0:0:
160,112,59178,1,0,0:0:0:0:
336,368,59178,1,0,0:0:0:0:
352,240,59178,1,0,0:0:0:0:
160,192,59178,1,0,0:0:0:0:
80,368,59178,1,0,0:0:0:0:
112,368,59178,1,0,0:0:0:0:
144,320,59178,1,0,0:0:0:0:
128,240,59178,1,0,0:0:0:0:
64,192,59178,1,0,0:0:0:0:
240,192,59178,1,0,0:0:0:0:
304,192,59178,1,0,0:0:0:0:
96,240,59178,1,0,0:0:0:0:
16,192,59178,1,0,0:0:0:0:
208,192,59178,1,0,0:0:0:0:
0,320,59178,1,0,0:0:0:0:
368,368,59178,1,0,0:0:0:0:
192,368,59178,1,0,0:0:0:0:
0,368,59178,1,0,0:0:0:0:
400,368,59178,1,0,0:0:0:0:
48,368,59178,1,0,0:0:0:0:
448,368,59178,1,0,0:0:0:0:
144,368,59178,1,0,0:0:0:0:
224,320,59178,1,0,0:0:0:0:
48,320,59178,1,0,0:0:0:0:
192,320,59178,1,0,0:0:0:0:
288,368,59178,1,0,0:0:0:0:
224,368,59178,1,0,0:0:0:0:
288,320,59178,1,0,0:0:0:0:
64,288,59178,1,0,0:0:0:0:
128,192,59178,1,0,0:0:0:0:
96,192,59178,1,0,0:0:0:0:
208,288,59178,1,0,0:0:0:0:
304,288,59178,1,0,0:0:0:0:
160,288,59178,1,0,0:0:0:0:
416,192,59178,1,0,0:0:0:0:
416,288,59178,1,0,0:0:0:0:
464,192,59178,1,0,0:0:0:0:
464,288,59178,1,0,0:0:0:0:
384,192,59178,1,0,0:0:0:0:
352,192,59178,1,0,0:0:0:0:
384,288,59178,1,0,0:0:0:0:
16,288,59178,1,0,0:0:0:0:
16,240,59178,1,0,0:0:0:0:
208,240,59178,1,0,0:0:0:0:
384,240,59178,1,0,0:0:0:0:
240,240,59178,1,0,0:0:0:0:
304,240,59178,1,0,0:0:0:0:
160,240,59178,1,0,0:0:0:0:
464,240,59178,1,0,0:0:0:0:
240,288,59178,1,0,0:0:0:0:
352,288,59178,1,0,0:0:0:0:
96,288,59178,1,0,0:0:0:0:
64,240,59178,1,0,0:0:0:0:
416,240,59178,1,0,0:0:0:0:
128,288,59178,1,0,0:0:0:0:
256,80,59178,1,0,0:0:0:0:
416,112,59178,1,0,0:0:0:0:
64,112,59178,1,0,0:0:0:0:
32,80,59178,1,0,0:0:0:0:
176,80,59178,1,0,0:0:0:0:
144,80,59178,1,0,0:0:0:0:
464,112,59178,1,0,0:0:0:0:
160,112,59178,1,0,0:0:0:0:
304,112,59178,1,0,0:0:0:0:
240,112,59178,1,0,0:0:0:0:
384,112,59178,1,0,0:0:0:0:
208,112,59178,1,0,0:0:0:0:
16,112,59178,1,0,0:0:0:0:
112,80,59178,1,0,0:0:0:0:
224,80,59178,1,0,0:0:0:0:
400,32,59178,1,0,0:0:0:0:
112,32,59178,1,0,0:0:0:0:
320,80,59178,1,0,0:0:0:0:
480,32,59178,1,0,0:0:0:0:
80,80,59178,1,0,0:0:0:0:
144,32,59178,1,0,0:0:0:0:
368,80,59178,1,0,0:0:0:0:
480,80,59178,1,0,0:0:0:0:
400,80,59178,1,0,0:0:0:0:
432,32,59178,1,0,0:0:0:0:
368,32,59178,1,0,0:0:0:0:
432,80,59178,1,0,0:0:0:0:
448,320,59178,1,0,0:0:0:0:
416,240,59178,1,0,0:0:0:0:
464,240,59178,1,0,0:0:0:0:
368,320,59178,1,0,0:0:0:0:
400,320,59178,1,0,0:0:0:0:
112,320,59178,1,0,0:0:0:0:
128,240,59178,1,0,0:0:0:0:
160,240,59178,1,0,0:0:0:0:
96,240,59178,1,0,0:0:0:0:
240,240,59178,1,0,0:0:0:0:
384,240,59178,1,0,0:0:0:0:
352,240,59178,1,0,0:0:0:0:
16,240,59178,1,0,0:0:0:0:
80,320,59178,1,0,0:0:0:0:
32,32,59178,1,0,0:0:0:0:
224,32,59178,1,0,0:0:0:0:
96,112,59178,1,0,0:0:0:0:
176,32,59178,1,0,0:0:0:0:
80,32,59178,1,0,0:0:0:0:
256,32,59178,1,0,0:0:0:0:
128,112,59178,1,0,0:0:0:0:
336,320,59178,1,0,0:0:0:0:
64,240,59178,1,0,0:0:0:0:
208,240,59178,1,0,0:0:0:0:
320,32,59178,1,0,0:0:0:0:
352,112,59178,1,0,0:0:0:0:
304,240,59178,1,0,0:0:0:0:
352,112,59178,1,0,0:0:0:0:
304,240,59178,1,0,0:0:0:0:
336,320,59178,1,0,0:0:0:0:
96,112,59178,1,0,0:0:0:0:
128,112,59178,1,0,0:0:0:0:
320,32,59178,1,0,0:0:0:0:
64,240,59178,1,0,0:0:0:0:
400,320,59178,1,0,0:0:0:0:
112,320,59178,1,0,0:0:0:0:
448,320,59178,1,0,0:0:0:0:
208,240,59178,1,0,0:0:0:0:
80,320,59178,1,0,0:0:0:0:
368,320,59178,1,0,0:0:0:0:
224,32,59178,1,0,0:0:0:0:
384,112,59178,1,0,0:0:0:0:
208,112,59178,1,0,0:0:0:0:
16,112,59178,1,0,0:0:0:0:
416,112,59178,1,0,0:0:0:0:
64,112,59178,1,0,0:0:0:0:
464,112,59178,1,0,0:0:0:0:
160,112,59178,1,0,0:0:0:0:
80,32,59178,1,0,0:0:0:0:
256,32,59178,1,0,0:0:0:0:
32,32,59178,1,0,0:0:0:0:
304,112,59178,1,0,0:0:0:0:
240,112,59178,1,0,0:0:0:0:
176,32,59178,1,0,0:0:0:0:
224,368,59178,1,0,0:0:0:0:
288,320,59178,1,0,0:0:0:0:
224,320,59178,1,0,0:0:0:0:
0,368,59178,1,0,0:0:0:0:
144,368,59178,1,0,0:0:0:0:
288,368,59178,1,0,0:0:0:0:
48,320,59178,1,0,0:0:0:0:
112,368,59178,1,0,0:0:0:0:
144,320,59178,1,0,0:0:0:0:
336,368,59178,1,0,0:0:0:0:
192,320,59178,1,0,0:0:0:0:
0,320,59178,1,0,0:0:0:0:
80,368,59178,1,0,0:0:0:0:
192,368,59178,1,0,0:0:0:0:
384,240,59178,1,0,0:0:0:0:
352,240,59178,1,0,0:0:0:0:
16,240,59178,1,0,0:0:0:0:
416,240,59178,1,0,0:0:0:0:
464,240,59178,1,0,0:0:0:0:
128,240,59178,1,0,0:0:0:0:
160,240,59178,1,0,0:0:0:0:
48,368,59178,1,0,0:0:0:0:
448,368,59178,1,0,0:0:0:0:
368,368,59178,1,0,0:0:0:0:
96,240,59178,1,0,0:0:0:0:
240,240,59178,1,0,0:0:0:0:
400,368,59178,1,0,0:0:0:0:
64,160,59178,1,0,0:0:0:0:
224,320,59178,1,0,0:0:0:0:
112,320,59178,1,0,0:0:0:0:
208,160,59178,1,0,0:0:0:0:
304,160,59178,1,0,0:0:0:0:
416,160,59178,1,0,0:0:0:0:
144,320,59178,1,0,0:0:0:0:
448,320,59178,1,0,0:0:0:0:
336,320,59178,1,0,0:0:0:0:
400,320,59178,1,0,0:0:0:0:
0,320,59178,1,0,0:0:0:0:
80,320,59178,1,0,0:0:0:0:
368,320,59178,1,0,0:0:0:0:
384,160,59178,1,0,0:0:0:0:
16,160,59178,1,0,0:0:0:0:
192,272,59178,1,0,0:0:0:0:
0,272,59178,1,0,0:0:0:0:
160,160,59178,1,0,0:0:0:0:
288,272,59178,1,0,0:0:0:0:
240,160,59178,1,0,0:0:0:0:
224,272,59178,1,0,0:0:0:0:
464,160,59178,1,0,0:0:0:0:
352,160,59178,1,0,0:0:0:0:
96,160,59178,1,0,0:0:0:0:
48,272,59178,1,0,0:0:0:0:
144,272,59178,1,0,0:0:0:0:
128,160,59178,1,0,0:0:0:0:
368,32,59178,1,0,0:0:0:0:
432,80,59178,1,0,0:0:0:0:
368,80,59178,1,0,0:0:0:0:
112,32,59178,1,0,0:0:0:0:
144,32,59178,1,0,0:0:0:0:
432,32,59178,1,0,0:0:0:0:
480,80,59178,1,0,0:0:0:0:
176,80,59178,1,0,0:0:0:0:
144,80,59178,1,0,0:0:0:0:
256,80,59178,1,0,0:0:0:0:
400,80,59178,1,0,0:0:0:0:
112,80,59178,1,0,0:0:0:0:
32,80,59178,1,0,0:0:0:0:
400,32,59178,1,0,0:0:0:0:
80,272,59178,1,0,0:0:0:0:
368,272,59178,1,0,0:0:0:0:
192,320,59178,1,0,0:0:0:0:
336,272,59178,1,0,0:0:0:0:
400,272,59178,1,0,0:0:0:0:
112,272,59178,1,0,0:0:0:0:
48,320,59178,1,0,0:0:0:0:
480,32,59178,1,0,0:0:0:0:
80,80,59178,1,0,0:0:0:0:
224,80,59178,1,0,0:0:0:0:
448,272,59178,1,0,0:0:0:0:
288,320,59178,1,0,0:0:0:0:
320,80,59178,1,0,0:0:0:0:
128,240,59178,1,0,0:0:0:0:
304,288,59178,1,0,0:0:0:0:
208,288,59178,1,0,0:0:0:0:
464,240,59178,1,0,0:0:0:0:
416,240,59178,1,0,0:0:0:0:
384,240,59178,1,0,0:0:0:0:
64,288,59178,1,0,0:0:0:0:
128,288,59178,1,0,0:0:0:0:
96,288,59178,1,0,0:0:0:0:
352,288,59178,1,0,0:0:0:0:
160,288,59178,1,0,0:0:0:0:
16,288,59178,1,0,0:0:0:0:
240,288,59178,1,0,0:0:0:0:
352,240,59178,1,0,0:0:0:0:
112,320,59178,1,0,0:0:0:0:
80,320,59178,1,0,0:0:0:0:
336,320,59178,1,0,0:0:0:0:
400,320,59178,1,0,0:0:0:0:
368,320,59178,1,0,0:0:0:0:
448,320,59178,1,0,0:0:0:0:
304,240,59178,1,0,0:0:0:0:
16,240,59178,1,0,0:0:0:0:
240,240,59178,1,0,0:0:0:0:
96,240,59178,1,0,0:0:0:0:
208,240,59178,1,0,0:0:0:0:
64,240,59178,1,0,0:0:0:0:
160,240,59178,1,0,0:0:0:0:
128,240,59178,1,0,0:0:0:0:
464,240,59178,1,0,0:0:0:0:
384,240,59178,1,0,0:0:0:0:
160,192,59178,1,0,0:0:0:0:
352,240,59178,1,0,0:0:0:0:
96,240,59178,1,0,0:0:0:0:
416,240,59178,1,0,0:0:0:0:
240,240,59178,1,0,0:0:0:0:
16,240,59178,1,0,0:0:0:0:
160,240,59178,1,0,0:0:0:0:
64,240,59178,1,0,0:0:0:0:
208,240,59178,1,0,0:0:0:0:
304,240,59178,1,0,0:0:0:0:
16,192,59178,1,0,0:0:0:0:
464,192,59178,1,0,0:0:0:0:
352,192,59178,1,0,0:0:0:0:
96,192,59178,1,0,0:0:0:0:
416,288,59178,1,0,0:0:0:0:
384,288,59178,1,0,0:0:0:0:
464,288,59178,1,0,0:0:0:0:
128,192,59178,1,0,0:0:0:0:
208,192,59178,1,0,0:0:0:0:
304,192,59178,1,0,0:0:0:0:
240,192,59178,1,0,0:0:0:0:
384,192,59178,1,0,0:0:0:0:
416,192,59178,1,0,0:0:0:0:
64,192,59178,1,0,0:0:0:0:
416,240,59178,1,0,0:0:0:0:
128,288,59178,1,0,0:0:0:0:
240,288,59178,1,0,0:0:0:0:
384,240,59178,1,0,0:0:0:0:
464,240,59178,1,0,0:0:0:0:
64,240,59178,1,0,0:0:0:0:
352,288,59178,1,0,0:0:0:0:
304,288,59178,1,0,0:0:0:0:
160,288,59178,1,0,0:0:0:0:
64,288,59178,1,0,0:0:0:0:
96,288,59178,1,0,0:0:0:0:
16,288,59178,1,0,0:0:0:0:
208,288,59178,1,0,0:0:0:0:
208,240,59178,1,0,0:0:0:0:
96,240,59178,1,0,0:0:0:0:
16,192,59178,1,0,0:0:0:0:
208,192,59178,1,0,0:0:0:0:
352,240,59178,1,0,0:0:0:0:
160,192,59178,1,0,0:0:0:0:
128,240,59178,1,0,0:0:0:0:
64,192,59178,1,0,0:0:0:0:
304,240,59178,1,0,0:0:0:0:
160,240,59178,1,0,0:0:0:0:
16,240,59178,1,0,0:0:0:0:
240,192,59178,1,0,0:0:0:0:
304,192,59178,1,0,0:0:0:0:
240,240,59178,1,0,0:0:0:0:
448,368,59178,1,0,0:0:0:0:
112,368,59178,1,0,0:0:0:0:
80,368,59178,1,0,0:0:0:0:
48,368,59178,1,0,0:0:0:0:
400,368,59178,1,0,0:0:0:0:
368,368,59178,1,0,0:0:0:0:
336,368,59178,1,0,0:0:0:0:
288,320,59178,1,0,0:0:0:0:
192,320,59178,1,0,0:0:0:0:
48,320,59178,1,0,0:0:0:0:
144,320,59178,1,0,0:0:0:0:
0,320,59178,1,0,0:0:0:0:
224,320,59178,1,0,0:0:0:0:
192,368,59178,1,0,0:0:0:0:
384,192,59178,1,0,0:0:0:0:
352,192,59178,1,0,0:0:0:0:
384,288,59178,1,0,0:0:0:0:
128,192,59178,1,0,0:0:0:0:
96,192,59178,1,0,0:0:0:0:
416,192,59178,1,0,0:0:0:0:
416,288,59178,1,0,0:0:0:0:
0,368,59178,1,0,0:0:0:0:
224,368,59178,1,0,0:0:0:0:
288,368,59178,1,0,0:0:0:0:
464,192,59178,1,0,0:0:0:0:
464,288,59178,1,0,0:0:0:0:
144,368,59178,1,0,0:0:0:0:
160,160,59178,1,0,0:0:0:0:
288,272,59178,1,0,0:0:0:0:
240,160,59178,1,0,0:0:0:0:
16,160,59178,1,0,0:0:0:0:
192,272,59178,1,0,0:0:0:0:
0,272,59178,1,0,0:0:0:0:
224,272,59178,1,0,0:0:0:0:
48,272,59178,1,0,0:0:0:0:
144,272,59178,1,0,0:0:0:0:
128,160,59178,1,0,0:0:0:0:
464,160,59178,1,0,0:0:0:0:
352,160,59178,1,0,0:0:0:0:
96,160,59178,1,0,0:0:0:0:
384,160,59178,1,0,0:0:0:0:
208,160,59178,1,0,0:0:0:0:
304,160,59178,1,0,0:0:0:0:
416,160,59178,1,0,0:0:0:0:
64,160,59178,1,0,0:0:0:0:
224,320,59178,1,0,0:0:0:0:
112,320,59178,1,0,0:0:0:0:
144,320,59178,1,0,0:0:0:0:
0,320,59178,1,0,0:0:0:0:
80,320,59178,1,0,0:0:0:0:
368,320,59178,1,0,0:0:0:0:
448,320,59178,1,0,0:0:0:0:
336,320,59178,1,0,0:0:0:0:
400,320,59178,1,0,0:0:0:0:
336,272,59178,1,0,0:0:0:0:
400,272,59178,1,0,0:0:0:0:
112,272,59178,1,0,0:0:0:0:
80,272,59178,1,0,0:0:0:0:
368,272,59178,1,0,0:0:0:0:
192,320,59178,1,0,0:0:0:0:
48,320,59178,1,0,0:0:0:0:
448,272,59178,1,0,0:0:0:0:
288,320,59178,1,0,0:0:0:0:
320,80,59178,1,0,0:0:0:0:
480,32,59178,1,0,0:0:0:0:
80,80,59178,1,0,0:0:0:0:
224,80,59178,1,0,0:0:0:0:
400,32,59178,1,0,0:0:0:0:
112,32,59178,1,0,0:0:0:0:
144,32,59178,1,0,0:0:0:0:
432,32,59178,1,0,0:0:0:0:
368,32,59178,1,0,0:0:0:0:
432,80,59178,1,0,0:0:0:0:
368,80,59178,1,0,0:0:0:0:
480,80,59178,1,0,0:0:0:0:
400,80,59178,1,0,0:0:0:0:
112,80,59178,1,0,0:0:0:0:
32,80,59178,1,0,0:0:0:0:
176,80,59178,1,0,0:0:0:0:
144,80,59178,1,0,0:0:0:0:
256,80,59178,1,0,0:0:0:0:
416,112,59178,1,0,0:0:0:0:
64,112,59178,1,0,0:0:0:0:
464,112,59178,1,0,0:0:0:0:
384,112,59178,1,0,0:0:0:0:
208,112,59178,1,0,0:0:0:0:
16,112,59178,1,0,0:0:0:0:
160,112,59178,1,0,0:0:0:0:
304,112,59178,1,0,0:0:0:0:
240,112,59178,1,0,0:0:0:0:
176,32,59178,1,0,0:0:0:0:
80,32,59178,1,0,0:0:0:0:
256,32,59178,1,0,0:0:0:0:
32,32,59178,1,0,0:0:0:0:
224,32,59178,1,0,0:0:0:0:
96,112,59178,1,0,0:0:0:0:
128,112,59178,1,0,0:0:0:0:
320,32,59178,1,0,0:0:0:0:
352,112,59178,1,0,0:0:0:0:
304,240,59178,1,0,0:0:0:0:
336,320,59178,1,0,0:0:0:0:
64,240,59178,1,0,0:0:0:0:
208,240,59178,1,0,0:0:0:0:
80,320,59178,1,0,0:0:0:0:
368,320,59178,1,0,0:0:0:0:
400,320,59178,1,0,0:0:0:0:
112,320,59178,1,0,0:0:0:0:
448,320,59178,1,0,0:0:0:0:
416,240,59178,1,0,0:0:0:0:
464,240,59178,1,0,0:0:0:0:
128,240,59178,1,0,0:0:0:0:
384,240,59178,1,0,0:0:0:0:
352,240,59178,1,0,0:0:0:0:
16,240,59178,1,0,0:0:0:0:
160,240,59178,1,0,0:0:0:0:
96,240,59178,1,0,0:0:0:0:
240,240,59178,1,0,0:0:0:0:
400,368,59178,1,0,0:0:0:0:
48,368,59178,1,0,0:0:0:0:
448,368,59178,1,0,0:0:0:0:
368,368,59178,1,0,0:0:0:0:
192,368,59178,1,0,0:0:0:0:
0,368,59178,1,0,0:0:0:0:
144,368,59178,1,0,0:0:0:0:
288,368,59178,1,0,0:0:0:0:
224,368,59178,1,0,0:0:0:0:
288,320,59178,1,0,0:0:0:0:
224,320,59178,1,0,0:0:0:0:
48,320,59178,1,0,0:0:0:0:
192,320,59178,1,0,0:0:0:0:
0,320,59178,1,0,0:0:0:0:
80,368,59178,1,0,0:0:0:0:
112,368,59178,1,0,0:0:0:0:
144,320,59178,1,0,0:0:0:0:
336,368,59178,1,0,0:0:0:0:
352,240,59178,1,0,0:0:0:0:
160,192,59178,1,0,0:0:0:0:
128,240,59178,1,0,0:0:0:0:
96,240,59178,1,0,0:0:0:0:
16,192,59178,1,0,0:0:0:0:
208,192,59178,1,0,0:0:0:0:
64,192,59178,1,0,0:0:0:0:
240,192,59178,1,0,0:0:0:0:
304,192,59178,1,0,0:0:0:0:
240,240,59178,1,0,0:0:0:0:
304,240,59178,1,0,0:0:0:0:
160,240,59178,1,0,0:0:0:0:
16,240,59178,1,0,0:0:0:0:
208,240,59178,1,0,0:0:0:0:
384,240,59178,1,0,0:0:0:0:
464,240,59178,1,0,0:0:0:0:
64,240,59178,1,0,0:0:0:0:
416,240,59178,1,0,0:0:0:0:
128,288,59178,1,0,0:0:0:0:
240,288,59178,1,0,0:0:0:0:
352,288,59178,1,0,0:0:0:0:
96,288,59178,1,0,0:0:0:0:
16,288,59178,1,0,0:0:0:0:
208,288,59178,1,0,0:0:0:0:
304,288,59178,1,0,0:0:0:0:
160,288,59178,1,0,0:0:0:0:
64,288,59178,1,0,0:0:0:0:
128,192,59178,1,0,0:0:0:0:
96,192,59178,1,0,0:0:0:0:
416,192,59178,1,0,0:0:0:0:
384,192,59178,1,0,0:0:0:0:
352,192,59178,1,0,0:0:0:0:
384,288,59178,1,0,0:0:0:0:
416,288,59178,1,0,0:0:0:0:
464,192,59178,1,0,0:0:0:0:
464,288,59178,1,0,0:0:0:0:
144,368,59178,1,0,0:0:0:0:
0,368,59178,1,0,0:0:0:0:
224,368,59178,1,0,0:0:0:0:
288,368,59178,1,0,0:0:0:0:
192,368,59178,1,0,0:0:0:0:
48,368,59178,1,0,0:0:0:0:
400,368,59178,1,0,0:0:0:0:
368,368,59178,1,0,0:0:0:0:
448,368,59178,1,0,0:0:0:0:
112,368,59178,1,0,0:0:0:0:
80,368,59178,1,0,0:0:0:0:
336,368,59178,1,0,0:0:0:0:
144,320,59178,1,0,0:0:0:0:
0,320,59178,1,0,0:0:0:0:
224,320,59178,1,0,0:0:0:0:
288,320,59178,1,0,0:0:0:0:
192,320,59178,1,0,0:0:0:0:
48,320,59178,1,0,0:0:0:0:
400,320,59178,1,0,0:0:0:0:
368,320,59178,1,0,0:0:0:0:
448,320,59178,1,0,0:0:0:0:
112,320,59178,1,0,0:0:0:0:
80,320,59178,1,0,0:0:0:0:
336,320,59178,1,0,0:0:0:0:
304,240,59178,1,0,0:0:0:0:
208,240,59178,1,0,0:0:0:0:
64,240,59178,1,0,0:0:0:0:
160,240,59178,1,0,0:0:0:0:
16,240,59178,1,0,0:0:0:0:
240,240,59178,1,0,0:0:0:0:
96,240,59178,1,0,0:0:0:0:
352,240,59178,1,0,0:0:0:0:
464,240,59178,1,0,0:0:0:0:
416,240,59178,1,0,0:0:0:0:
384,240,59178,1,0,0:0:0:0:
128,240,59178,1,0,0:0:0:0:
304,288,59178,1,0,0:0:0:0:
208,288,59178,1,0,0:0:0:0:
64,288,59178,1,0,0:0:0:0:
160,288,59178,1,0,0:0:0:0:
16,288,59178,1,0,0:0:0:0:
240,288,59178,1,0,0:0:0:0:
128,288,59178,1,0,0:0:0:0:
96,288,59178,1,0,0:0:0:0:
352,288,59178,1,0,0:0:0:0:
416,288,59178,1,0,0:0:0:0:
384,288,59178,1,0,0:0:0:0:
464,288,59178,1,0,0:0:0:0:
464,192,59178,1,0,0:0:0:0:
352,192,59178,1,0,0:0:0:0:
96,192,59178,1,0,0:0:0:0:
128,192,59178,1,0,0:0:0:0:
384,192,59178,1,0,0:0:0:0:
416,192,59178,1,0,0:0:0:0:
64,192,59178,1,0,0:0:0:0:
208,192,59178,1,0,0:0:0:0:
304,192,59178,1,0,0:0:0:0:
240,192,59178,1,0,0:0:0:0:
16,192,59178,1,0,0:0:0:0:
160,192,59178,1,0,0:0:0:0:
352,240,59178,1,0,0:0:0:0:
96,240,59178,1,0,0:0:0:0:
128,240,59178,1,0,0:0:0:0:
464,240,59178,1,0,0:0:0:0:
384,240,59178,1,0,0:0:0:0:
416,240,59178,1,0,0:0:0:0:
64,240,59178,1,0,0:0:0:0:
208,240,59178,1,0,0:0:0:0:
304,240,59178,1,0,0:0:0:0:
240,240,59178,1,0,0:0:0:0:
16,240,59178,1,0,0:0:0:0:
160,240,59178,1,0,0:0:0:0:
448,320,59178,1,0,0:0:0:0:
368,320,59178,1,0,0:0:0:0:
400,320,59178,1,0,0:0:0:0:
336,320,59178,1,0,0:0:0:0:
80,320,59178,1,0,0:0:0:0:
112,320,59178,1,0,0:0:0:0:
224,320,59178,1,0,0:0:0:0:
0,320,59178,1,0,0:0:0:0:
144,320,59178,1,0,0:0:0:0:
48,320,59178,1,0,0:0:0:0:
192,320,59178,1,0,0:0:0:0:
288,320,59178,1,0,0:0:0:0:
448,272,59178,1,0,0:0:0:0:
368,272,59178,1,0,0:0:0:0:
400,272,59178,1,0,0:0:0:0:
336,272,59178,1,0,0:0:0:0:
80,272,59178,1,0,0:0:0:0:
112,272,59178,1,0,0:0:0:0:
224,272,59178,1,0,0:0:0:0:
0,272,59178,1,0,0:0:0:0:
144,272,59178,1,0,0:0:0:0:
48,272,59178,1,0,0:0:0:0:
192,272,59178,1,0,0:0:0:0:
288,272,59178,1,0,0:0:0:0:
160,160,59178,1,0,0:0:0:0:
16,160,59178,1,0,0:0:0:0:
240,160,59178,1,0,0:0:0:0:
304,160,59178,1,0,0:0:0:0:
208,160,59178,1,0,0:0:0:0:
64,160,59178,1,0,0:0:0:0:
416,160,59178,1,0,0:0:0:0:
384,160,59178,1,0,0:0:0:0:
464,160,59178,1,0,0:0:0:0:
128,160,59178,1,0,0:0:0:0:
96,160,59178,1,0,0:0:0:0:
352,160,59178,1,0,0:0:0:0:
160,112,59178,1,0,0:0:0:0:
16,112,59178,1,0,0:0:0:0:
240,112,59178,1,0,0:0:0:0:
304,112,59178,1,0,0:0:0:0:
208,112,59178,1,0,0:0:0:0:
64,112,59178,1,0,0:0:0:0:
416,112,59178,1,0,0:0:0:0:
384,112,59178,1,0,0:0:0:0:
464,112,59178,1,0,0:0:0:0:
128,112,59178,1,0,0:0:0:0:
96,112,59178,1,0,0:0:0:0:
352,112,59178,1,0,0:0:0:0:
320,32,59178,1,0,0:0:0:0:
224,32,59178,1,0,0:0:0:0:
80,32,59178,1,0,0:0:0:0:
176,32,59178,1,0,0:0:0:0:
32,32,59178,1,0,0:0:0:0:
256,32,59178,1,0,0:0:0:0:
144,32,59178,1,0,0:0:0:0:
112,32,59178,1,0,0:0:0:0:
368,32,59178,1,0,0:0:0:0:
432,32,59178,1,0,0:0:0:0:
400,32,59178,1,0,0:0:0:0:
480,32,59178,1,0,0:0:0:0:
320,80,59178,1,0,0:0:0:0:
224,80,59178,1,0,0:0:0:0:
80,80,59178,1,0,0:0:0:0:
176,80,59178,1,0,0:0:0:0:
32,80,59178,1,0,0:0:0:0:
256,80,59178,1,0,0:0:0:0:
144,80,59178,1,0,0:0:0:0:
112,80,59178,1,0,0:0:0:0:
368,80,59178,1,0,0:0:0:0:
432,80,59178,1,0,0:0:0:0:
400,80,59178,1,0,0:0:0:0:
480,80,59178,1,0,0:0:0:0:
160,160,59178,1,0,0:0:0:0:
288,272,59178,1,0,0:0:0:0:
240,160,59178,1,0,0:0:0:0:
16,160,59178,1,0,0:0:0:0:
192,272,59178,1,0,0:0:0:0:
0,272,59178,1,0,0:0:0:0:
224,272,59178,1,0,0:0:0:0:
48,272,59178,1,0,0:0:0:0:
144,272,59178,1,0,0:0:0:0:
128,160,59178,1,0,0:0:0:0:
464,160,59178,1,0,0:0:0:0:
352,160,59178,1,0,0:0:0:0:
96,160,59178,1,0,0:0:0:0:
384,160,59178,1,0,0:0:0:0:
208,160,59178,1,0,0:0:0:0:
304,160,59178,1,0,0:0:0:0:
416,160,59178,1,0,0:0:0:0:
64,160,59178,1,0,0:0:0:0:
224,320,59178,1,0,0:0:0:0:
112,320,59178,1,0,0:0:0:0:
144,320,59178,1,0,0:0:0:0:
0,320,59178,1,0,0:0:0:0:
80,320,59178,1,0,0:0:0:0:
368,320,59178,1,0,0:0:0:0:
448,320,59178,1,0,0:0:0:0:
336,320,59178,1,0,0:0:0:0:
400,320,59178,1,0,0:0:0:0:
336,272,59178,1,0,0:0:0:0:
400,272,59178,1,0,0:0:0:0:
112,272,59178,1,0,0:0:0:0:
80,272,59178,1,0,0:0:0:0:
368,272,59178,1,0,0:0:0:0:
192,320,59178,1,0,0:0:0:0:
48,320,59178,1,0,0:0:0:0:
448,272,59178,1,0,0:0:0:0:
288,320,59178,1,0,0:0:0:0:
320,80,59178,1,0,0:0:0:0:
480,32,59178,1,0,0:0:0:0:
80,80,59178,1,0,0:0:0:0:
224,80,59178,1,0,0:0:0:0:
400,32,59178,1,0,0:0:0:0:
112,32,59178,1,0,0:0:0:0:
144,32,59178,1,0,0:0:0:0:
432,32,59178,1,0,0:0:0:0:
368,32,59178,1,0,0:0:0:0:
432,80,59178,1,0,0:0:0:0:
368,80,59178,1,0,0:0:0:0:
480,80,59178,1,0,0:0:0:0:
400,80,59178,1,0,0:0:0:0:
112,80,59178,1,0,0:0:0:0:
32,80,59178,1,0,0:0:0:0:
176,80,59178,1,0,0:0:0:0:
144,80,59178,1,0,0:0:0:0:
256,80,59178,1,0,0:0:0:0:
416,112,59178,1,0,0:0:0:0:
64,112,59178,1,0,0:0:0:0:
464,112,59178,1,0,0:0:0:0:
384,112,59178,1,0,0:0:0:0:
208,112,59178,1,0,0:0:0:0:
16,112,59178,1,0,0:0:0:0:
160,112,59178,1,0,0:0:0:0:
304,112,59178,1,0,0:0:0:0:
240,112,59178,1,0,0:0:0:0:
176,32,59178,1,0,0:0:0:0:
80,32,59178,1,0,0:0:0:0:
256,32,59178,1,0,0:0:0:0:
32,32,59178,1,0,0:0:0:0:
224,32,59178,1,0,0:0:0:0:
96,112,59178,1,0,0:0:0:0:
128,112,59178,1,0,0:0:0:0:
320,32,59178,1,0,0:0:0:0:
352,112,59178,1,0,0:0:0:0:
304,240,59178,1,0,0:0:0:0:
336,320,59178,1,0,0:0:0:0:
64,240,59178,1,0,0:0:0:0:
208,240,59178,1,0,0:0:0:0:
80,320,59178,1,0,0:0:0:0:
368,320,59178,1,0,0:0:0:0:
400,320,59178,1,0,0:0:0:0:
112,320,59178,1,0,0:0:0:0:
448,320,59178,1,0,0:0:0:0:
416,240,59178,1,0,0:0:0:0:
464,240,59178,1,0,0:0:0:0:
128,240,59178,1,0,0:0:0:0:
384,240,59178,1,0,0:0:0:0:
352,240,59178,1,0,0:0:0:0:
16,240,59178,1,0,0:0:0:0:
160,240,59178,1,0,0:0:0:0:
96,240,59178,1,0,0:0:0:0:
240,240,59178,1,0,0:0:0:0:
400,368,59178,1,0,0:0:0:0:
48,368,59178,1,0,0:0:0:0:
448,368,59178,1,0,0:0:0:0:
368,368,59178,1,0,0:0:0:0:
192,368,59178,1,0,0:0:0:0:
0,368,59178,1,0,0:0:0:0:
144,368,59178,1,0,0:0:0:0:
288,368,59178,1,0,0:0:0:0:
224,368,59178,1,0,0:0:0:0:
288,320,59178,1,0,0:0:0:0:
224,320,59178,1,0,0:0:0:0:
48,320,59178,1,0,0:0:0:0:
192,320,59178,1,0,0:0:0:0:
0,320,59178,1,0,0:0:0:0:
80,368,59178,1,0,0:0:0:0:
112,368,59178,1,0,0:0:0:0:
144,320,59178,1,0,0:0:0:0:
336,368,59178,1,0,0:0:0:0:
352,240,59178,1,0,0:0:0:0:
160,192,59178,1,0,0:0:0:0:
128,240,59178,1,0,0:0:0:0:
96,240,59178,1,0,0:0:0:0:
16,192,59178,1,0,0:0:0:0:
208,192,59178,1,0,0:0:0:0:
64,192,59178,1,0,0:0:0:0:
240,192,59178,1,0,0:0:0:0:
304,192,59178,1,0,0:0:0:0:
240,240,59178,1,0,0:0:0:0:
304,240,59178,1,0,0:0:0:0:
160,240,59178,1,0,0:0:0:0:
16,240,59178,1,0,0:0:0:0:
208,240,59178,1,0,0:0:0:0:
384,240,59178,1,0,0:0:0:0:
464,240,59178,1,0,0:0:0:0:
64,240,59178,1,0,0:0:0:0:
416,240,59178,1,0,0:0:0:0:
128,288,59178,1,0,0:0:0:0:
240,288,59178,1,0,0:0:0:0:
352,288,59178,1,0,0:0:0:0:
96,288,59178,1,0,0:0:0:0:
16,288,59178,1,0,0:0:0:0:
208,288,59178,1,0,0:0:0:0:
304,288,59178,1,0,0:0:0:0:
160,288,59178,1,0,0:0:0:0:
64,288,59178,1,0,0:0:0:0:
128,192,59178,1,0,0:0:0:0:
96,192,59178,1,0,0:0:0:0:
416,192,59178,1,0,0:0:0:0:
384,192,59178,1,0,0:0:0:0:
352,192,59178,1,0,0:0:0:0:
384,288,59178,1,0,0:0:0:0:
416,288,59178,1,0,0:0:0:0:
464,192,59178,1,0,0:0:0:0:
464,288,59178,1,0,0:0:0:0:
