osu file format v9

[General]
AudioFilename: Duck Sauce - Barbara Streisand (Radio Edit) 192.mp3
AudioLeadIn: 0
PreviewTime: 82831
Countdown: 1
SampleSet: Soft
StackLeniency: 0.7
Mode: 0
LetterboxInBreaks: 1

[Editor]
DistanceSpacing: 1
BeatDivisor: 2
GridSize: 4

[Metadata]
Title:Barbra Streisand
Artist:Duck Sauce
Creator:Sushi
Version:Normal
Source:
Tags:

[Difficulty]
HPDrainRate:3
CircleSize:3
OverallDifficulty:3
ApproachRate:5
SliderMultiplier:1.4
SliderTickRate:2

[Events]
//Background and Video events
0,0,"duck.png"
//Break Periods
2,67831,77881
2,143031,152881
//Storyboard Layer 0 (Background)
//Storyboard Layer 1 (Fail)
//Storyboard Layer 2 (Pass)
//Storyboard Layer 3 (Foreground)
//Storyboard Sound Samples
//Background Colour Transformations
3,100,226,226,226

[TimingPoints]
331,468.75,4,2,1,100,1,0
22518,-100,4,2,2,70,0,0
22674,-100,4,2,1,100,0,0
29549,-100,4,2,2,100,0,0
29979,-100,4,2,2,70,0,0
30331,-100,4,2,1,100,0,0
32049,-100,4,2,0,100,0,0
32284,-100,4,2,1,100,0,0
33065,-100,4,2,0,80,0,0
33221,-100,4,2,1,100,0,0
34022,-100,4,2,0,100,0,0
34159,-100,4,2,1,100,0,0
35838,-100,4,2,0,100,0,0
36034,-100,4,2,1,100,0,0
36815,-100,4,2,0,80,0,0
36971,-100,4,2,1,100,0,0
37518,-100,4,2,2,70,0,0
37831,-100,4,2,1,100,0,0
39627,-100,4,2,0,100,0,0
40721,-100,4,2,1,100,0,0
41229,-100,4,2,1,100,0,0
41502,-100,4,2,0,100,0,0
41659,-100,4,2,1,100,0,0
43377,-100,4,2,0,100,0,0
43534,-100,4,2,1,100,0,0
68065,-100,4,2,1,100,0,0
81893,-100,4,2,1,20,0,0
82831,-100,4,2,1,100,0,0
97831,-100,4,2,1,100,0,1
111893,-133.333333333333,4,2,1,100,0,0
112127,-133.333333333333,4,2,1,75,0,0
112362,-133.333333333333,4,2,1,50,0,0
112596,-133.333333333333,4,2,1,30,0,0
112831,-100,4,2,1,100,0,0
114627,-100,4,2,0,100,0,0
114784,-100,4,2,1,100,0,0
115565,-100,4,2,0,80,0,0
115721,-100,4,2,1,100,0,0
116581,-100,4,2,0,100,0,0
116815,-100,4,2,1,100,0,0
118377,-100,4,2,0,100,0,0
118534,-100,4,2,1,100,0,0
119315,-100,4,2,0,80,0,0
119471,-100,4,2,1,100,0,0
120018,-100,4,2,2,70,0,0
120331,-100,4,2,1,100,0,0
122127,-100,4,2,0,100,0,0
122284,-100,4,2,1,100,0,0
123065,-100,4,2,0,80,0,0
123221,-100,4,2,1,100,0,0
124081,-100,4,2,0,100,0,0
124315,-100,4,2,1,100,0,0
125877,-100,4,2,0,100,0,0
126034,-100,4,2,1,100,0,0
126815,-100,4,2,0,80,0,0
126971,-100,4,2,1,100,0,0
127518,-100,4,2,2,70,0,0
127831,-100,4,2,1,100,0,0
129627,-100,4,2,0,100,0,0
129784,-100,4,2,1,100,0,0
130565,-100,4,2,0,80,0,0
130721,-100,4,2,1,100,0,0
131581,-100,4,2,0,100,0,0
131815,-100,4,2,1,100,0,0
133377,-100,4,2,0,100,0,0
133534,-100,4,2,1,100,0,0
134315,-100,4,2,0,80,0,0
134471,-100,4,2,1,100,0,0
135018,-100,4,2,2,100,0,0
135565,-100,4,2,1,100,0,0
137127,-100,4,2,0,100,0,0
137284,-100,4,2,1,100,0,0
138143,-100,4,2,0,100,0,0
138221,-100,4,2,1,100,0,0
138729,-100,4,2,1,100,0,0
139002,-100,4,2,0,100,0,0
139159,-100,4,2,1,100,0,0
140877,-100,4,2,0,100,0,0
141034,-100,4,2,1,100,0,0
141893,-100,4,2,0,100,0,0
141971,-100,4,2,1,100,0,0
142479,-100,4,2,2,70,0,0
142831,-100,4,2,0,100,0,0
142909,-100,4,2,1,100,0,0
156893,-100,4,2,1,20,0,0
157831,-100,4,2,1,100,0,1
172831,-100,4,2,1,100,0,0
180018,-100,4,2,2,70,0,0
180331,-100,4,2,1,100,0,0

[Colours]
Combo1 : 255,0,0
Combo2 : 128,0,255
Combo3 : 255,128,0
Combo4 : 0,0,255

[HitObjects]
296,48,15331,1,4
432,72,15799,1,8
496,200,16268,1,0
432,320,16737,1,8
360,200,17206,6,0,B|357:148|317:109|265:111,1,140,0|8
128,112,18143,2,0,B|133:162|175:200|226:195,1,140,0|8
256,320,19081,5,0
120,336,19549,1,8
176,208,20018,1,0
256,320,20487,1,8
392,328,20956,6,0,B|423:367|492:364|511:319,1,140,0|8
392,240,21893,2,0,B|410:197|479:194|510:233,1,140,0|8
448,104,22831,5,4
384,80,23065,1,2
320,56,23299,1,8
184,80,23768,1,0
56,128,24237,1,8
80,264,24706,6,0,B|112:352|256:388|400:352|432:264,1,420,0|8
292,264,26581,1,0
220,264,26815,1,2
256,200,27049,1,8
328,80,27518,1,0
184,80,27987,1,8
56,168,28456,6,0,B|128:240|256:192|383:140|456:216,1,420,0|2
360,320,30331,6,0,B|208:320,3,140,4|8|0|8
168,192,32206,5,2
256,40,33143,1,2
344,192,34081,6,0,B|360:240|408:264|464:240,3,140,2|8|0|8
440,104,35956,5,2
256,40,36893,1,2
72,104,37831,6,0,B|32:240,1,140,4|8
160,184,38768,2,0,B|232:320,1,140,0|8
360,344,39706,5,2
488,192,40643,1,2
360,40,41581,6,0,B|216:40,1,140,2|8
320,144,42518,2,0,B|184:216,1,140,0|8
136,336,43456,5,2
376,336,44393,1,0
456,64,45331,5,4
320,24,45799,1,8
200,96,46268,1,0
64,64,46737,1,8
52,196,47206,5,0
92,248,47440,1,2
144,288,47674,1,8
208,308,47909,1,2
272,320,48143,2,0,B|344:328|424:312,1,140,0|8
456,184,49081,5,4
424,48,49549,1,8
312,136,50018,1,0
456,184,50487,1,8
456,328,50956,6,0,B|416:264|336:264,1,140,0|8
272,264,51659,1,2
200,264,51893,2,0,B|128:264|80:200,2,140,0|8|4
256,136,53299,5,8
128,80,53768,1,0
16,168,54237,1,8
56,304,54706,1,0
120,320,54940,1,2
184,304,55174,1,8
248,320,55409,1,2
312,296,55643,2,0,B|360:296|392:296|448:320,1,140,0|8
488,184,56581,5,4
392,88,57049,1,8
296,184,57518,1,0
200,88,57987,1,8
104,184,58456,2,0,B|48:200|32:248|48:296,1,140,0|8
104,72,60331,6,0,B|136:40|200:32|240:64,1,140,4|8
168,184,61268,2,0,B|201:211|265:203|297:171,1,140,0|8
392,64,62206,5,4
256,344,63143,1,4
120,64,64081,6,0,B|72:88|56:128|64:184,1,140,4|8
200,168,65018,2,0,B|207:220|191:260|143:284,1,140,0|8
56,172,65956,5,4
456,172,66893,1,4
256,192,79081,12,0,81893
88,152,82831,5,4
40,280,83299,1,8
160,360,83768,1,0
296,336,84237,1,8
428,344,84706,5,0
444,280,84940,1,2
460,216,85174,1,8
480,88,85643,2,0,B|408:56|288:56|200:88,1,280,0|4
64,88,87049,5,8
16,216,87518,1,0
152,200,87987,1,8
96,328,88456,5,0
160,304,88690,1,2
224,328,88924,1,8
288,304,89159,1,2
352,328,89393,2,0,B|432:336|488:296,1,140,0|8
440,168,90331,5,4
392,40,90799,1,8
296,136,91268,1,0
344,272,91737,1,8
200,272,92206,5,0
128,272,92440,1,2
56,272,92674,1,8
88,136,93143,2,0,B|168:104|288:176|384:136,1,280,0|4
288,24,94549,5,8
144,24,95018,1,0
24,96,95487,1,8
24,240,95956,5,0
56,304,96190,1,2
128,304,96424,1,8
176,352,96659,1,2
248,344,96893,2,0,B|328:344|384:288,1,140,0|8
448,176,97831,6,8,B|472:120|416:80|368:104,2,140
288,192,99237,1,8
152,152,99706,6,8,B|112:120|56:128|32:176,2,140
112,288,101112,1,8
240,336,101581,6,8,B|384:336,1,140
264,256,102518,2,8,B|408:256,1,140
288,176,103456,6,8,B|144:176,1,140
264,96,104393,2,8,B|112:96,1,140
40,208,105331,5,8
40,344,105799,1,8
160,280,106268,1,8
40,208,106737,1,8
168,144,107206,5,8
160,280,107674,1,8
272,360,108143,2,8,B|384:392|464:288|400:192,1,280
304,96,109549,5,8
160,96,110018,1,8
40,168,110487,1,8
32,304,110956,1,8
160,360,111424,1,8
296,360,111893,6,0,B|512:360,1,209.999993741512,0|4
408,264,113299,5,8
264,264,113768,1,0
136,216,114237,1,8
128,80,114706,6,0,B|184:16|328:16|384:80,2,280,0|0|2
256,136,117049,5,8
368,224,117518,1,0
324,280,117752,1,0
256,296,117987,1,8
120,320,118456,5,2
256,72,119393,1,2
392,320,120331,5,4
352,184,120799,1,8
256,80,121268,1,0
160,184,121737,1,8
128,304,122206,6,0,B|184:368|328:368|384:304,2,280,2|2|2
256,248,124549,5,8
368,160,125018,1,0
324,104,125252,1,0
256,88,125487,1,8
120,64,125956,5,2
256,312,126893,1,2
392,64,127831,6,0,B|336:112|256:104,1,140,4|8
176,216,128768,2,0,B|248:208|320:256,1,140,0|8
432,320,129706,6,0,B|496:264|496:120|432:64,2,280,0|2|2
376,192,132049,5,8
232,192,132518,2,0,B|136:192,2,70,0|0|8
288,328,133456,5,2
40,192,134393,1,2
288,56,135331,6,0,B|354:114|360:184,1,140,2|8
256,272,136268,2,0,B|189:213|184:144,1,140,0|8
80,64,137206,6,0,B|16:120|16:264|80:320,2,280,2|2|2
136,192,139549,5,8
280,192,140018,2,0,B|352:192,2,70,0|0|8
216,328,140956,5,2
464,192,141893,1,2
216,56,142831,1,2
256,192,154081,12,0,156893
56,320,157831,5,4
192,360,158299,1,8
312,288,158768,1,0
448,320,159237,1,8
480,184,159706,5,0
440,128,159940,1,2
384,88,160174,1,8
320,68,160409,1,2
252,60,160643,2,0,B|180:52|100:68,1,140,0|8
200,168,161581,5,4
336,192,162049,1,8
360,56,162518,1,0
224,32,162987,1,8
84,36,163456,5,0
68,100,163690,1,2
52,164,163924,1,0
32,304,164393,2,0,B|104:336|224:336|312:304,1,280,0|4
448,296,165799,5,8
496,168,166268,1,0
360,184,166737,1,8
416,56,167206,5,0
352,80,167440,1,2
288,56,167674,1,8
224,80,167909,1,2
160,56,168143,2,0,B|80:48|24:88,1,140,0|8
88,216,169081,5,4
120,352,169549,1,8
232,264,170018,1,0
88,216,170487,1,8
88,72,170956,6,0,B|128:136|208:136,1,140,0|8
272,136,171659,1,2
344,136,171893,2,0,B|416:136|464:200,1,140,0|8
352,280,172831,6,0,B|296:360|208:384|104:328,1,280,4|0
64,272,174002,1,2
40,208,174237,1,8
88,72,174706,6,0,B|176:40|280:152|384:96,1,280
424,80,175877,1,2
488,104,176112,1,8
408,216,176581,6,0,B|319:253|379:393|518:334|478:238,1,280
480,168,177752,1,2
416,128,177987,1,8
304,216,178456,6,0,B|232:264|192:176|192:176|152:264|80:216,1,280
64,152,179627,1,2
64,80,179862,1,8
120,40,180096,1,2
192,32,180331,5,4
328,32,180799,1,8
440,120,181268,1,0
448,192,181502,1,2
456,264,181737,1,8
320,272,182206,6,0,B|296:336,2,70,0|2|8
256,144,183143,1,0
192,120,183377,1,2
128,96,183612,1,8
256,192,184081,12,4,187831
