osu file format v9

[General]
AudioFilename: Duck Sauce - Barbara Streisand (Radio Edit) 192.mp3
AudioLeadIn: 0
PreviewTime: 82831
Countdown: 1
SampleSet: Soft
StackLeniency: 0.7
Mode: 0
LetterboxInBreaks: 1

[Editor]
DistanceSpacing: 1.25
BeatDivisor: 6
GridSize: 8

[Metadata]
Title:Barbra Streisand
Artist:Duck Sauce
Creator:Sushi
Version:Insane
Source:
Tags:

[Difficulty]
HPDrainRate:7
CircleSize:4
OverallDifficulty:7
ApproachRate:8
SliderMultiplier:1.8
SliderTickRate:2

[Events]
//Background and Video events
0,0,"duck.png"
//Break Periods
2,68031,78331
2,143031,153331
//Storyboard Layer 0 (Background)
//Storyboard Layer 1 (Fail)
//Storyboard Layer 2 (Pass)
//Storyboard Layer 3 (Foreground)
//Storyboard Sound Samples
//Background Colour Transformations
3,100,226,226,226

[TimingPoints]
331,468.75,4,2,1,100,1,0
22518,-100,4,2,2,70,0,0
22674,-100,4,2,1,100,0,0
30018,-100,4,2,2,70,0,0
30331,-100,4,2,1,100,0,0
32049,-100,4,2,0,100,0,0
32284,-100,4,2,1,100,0,0
33065,-100,4,2,0,100,0,0
33221,-100,4,2,1,100,0,0
34022,-100,4,2,0,100,0,0
34159,-100,4,2,1,100,0,0
35838,-100,4,2,0,100,0,0
36034,-100,4,2,1,100,0,0
36815,-100,4,2,0,100,0,0
36971,-100,4,2,1,100,0,0
37518,-100,4,2,2,70,0,0
37831,-100,4,2,1,100,0,0
39627,-100,4,2,0,100,0,0
39784,-100,4,2,1,100,0,0
40526,-62.8930817610063,4,2,0,100,0,0
40721,-62.8930817610063,4,2,1,100,0,0
41229,-100,4,2,1,100,0,0
41502,-100,4,2,0,100,0,0
41659,-100,4,2,1,100,0,0
43377,-100,4,2,0,100,0,0
43534,-100,4,2,1,100,0,0
67518,-100,4,2,2,70,0,0
67752,-100,4,2,1,100,0,0
81893,-100,4,2,1,20,0,0
82831,-100,4,2,1,100,0,0
97831,-80,4,2,1,100,0,1
111893,-200,4,2,1,100,0,0
112127,-200,4,2,1,75,0,0
112362,-200,4,2,1,50,0,0
112596,-200,4,2,1,30,0,0
112831,-100,4,2,1,100,0,0
114627,-100,4,2,0,100,0,0
114784,-100,4,2,1,100,0,0
115565,-100,4,2,0,100,0,0
115721,-100,4,2,1,100,0,0
118377,-100,4,2,0,100,0,0
118534,-100,4,2,1,100,0,0
119315,-100,4,2,0,100,0,0
119471,-100,4,2,1,100,0,0
120018,-100,4,2,2,70,0,0
120331,-100,4,2,1,100,0,0
122127,-100,4,2,0,100,0,0
122284,-100,4,2,1,100,0,0
123065,-100,4,2,0,100,0,0
123221,-100,4,2,1,100,0,0
125877,-100,4,2,0,100,0,0
126034,-100,4,2,1,100,0,0
126815,-100,4,2,0,100,0,0
126971,-100,4,2,1,100,0,0
127518,-100,4,2,2,70,0,0
127831,-100,4,2,1,100,0,0
129627,-100,4,2,0,100,0,0
129784,-100,4,2,1,100,0,0
130565,-100,4,2,0,100,0,0
130721,-100,4,2,1,100,0,0
133377,-100,4,2,0,100,0,0
133534,-100,4,2,1,100,0,0
134315,-100,4,2,0,100,0,0
134471,-100,4,2,1,100,0,0
135018,-100,4,2,2,70,0,0
135331,-100,4,2,1,100,0,0
137127,-100,4,2,0,100,0,0
137284,-100,4,2,1,100,0,0
138143,-62.8930817610063,4,2,0,100,0,0
138221,-62.8930817610063,4,2,1,100,0,0
138729,-100,4,2,1,100,0,0
139002,-100,4,2,0,100,0,0
139159,-100,4,2,1,100,0,0
140877,-100,4,2,0,100,0,0
141034,-100,4,2,1,100,0,0
141893,-62.8930817610063,4,2,0,100,0,0
141971,-62.8930817610063,4,2,1,100,0,0
142479,-100,4,2,2,70,0,0
142831,-100,4,2,0,100,0,0
142909,-100,4,2,1,100,0,0
156893,-100,4,2,1,20,0,0
157831,-100,4,2,1,100,0,1
172831,-100,4,2,1,100,0,0
180018,-100,4,2,2,70,0,0
180331,-100,4,2,1,100,0,0

[Colours]
Combo1 : 255,0,0
Combo2 : 128,0,255
Combo3 : 255,128,0
Combo4 : 0,0,255

[HitObjects]
32,192,15331,1,4
8,296,15565,1,2
96,360,15799,1,8
184,296,16034,1,0
272,360,16268,1,0
336,328,16424,1,0
336,328,16502,2,0,B|384:312|408:264,2,90,2|8|0
376,96,17206,5,0
280,40,17440,1,2
280,152,17674,1,8
184,96,17909,1,0
104,168,18143,1,0
120,240,18299,1,0
120,240,18377,2,0,B|144:296|184:304,2,90,2|8|0
344,192,19081,5,0
440,248,19315,1,2
344,296,19549,1,8
344,192,19784,1,0
440,136,20018,1,0
432,64,20174,1,0
432,64,20252,2,0,B|400:24|352:32,2,90,2|8|0
232,56,20956,5,0
136,96,21190,1,2
224,152,21424,1,8
128,192,21659,1,0
216,248,21893,1,0
280,280,22049,1,0
280,280,22127,2,0,B|320:304|368:296,2,90,2|8|8
480,128,22831,6,0,B|440:64|424:64,1,60,4|0
424,48,23065,1,2
360,136,23299,1,8
440,208,23534,2,0,B|456:272,1,60,0|2
416,272,23768,2,0,B|384:328,1,60,0|0
352,320,24002,2,0,B|312:344|240:328,2,90,2|8|0
224,152,24706,6,0,B|160:208,1,60
152,216,24940,1,2
96,120,25174,1,8
176,48,25409,2,0,B|248:32,1,60,0|2
256,64,25643,2,0,B|320:64,1,60
328,96,25877,2,0,B|384:112|408:152,2,90,2|8|0
320,304,26581,6,0,B|256:320,1,60
224,328,26815,1,2
136,264,27049,1,8
40,224,27284,2,0,B|64:160,1,60,0|2
96,168,27518,2,0,B|152:152,1,60
176,184,27752,2,0,B|224:192|248:232,2,90,2|8|0
400,136,28456,6,0,B|384:200,1,60
376,232,28690,1,2
312,320,28924,1,8
208,352,29159,2,0,B|144:360,1,60,0|2
120,344,29393,2,0,B|64:328,1,60,0|0
64,288,29627,2,0,B|24:264|16:216,1,90,2|8
136,144,30096,5,8
144,152,30213,1,8
152,160,30331,1,4
176,272,30565,1,0
264,200,30799,1,8
488,232,31268,1,0
384,192,31502,1,0
400,304,31737,1,8
376,88,32206,6,0,B|288:64|184:64,1,180,2|8
240,160,32909,1,0
288,256,33143,2,0,B|198:256|110:232,1,180,2|8
56,136,33846,1,0
88,336,34081,5,2
192,360,34315,1,0
160,256,34549,1,8
360,176,35018,1,0
408,80,35252,1,0
472,168,35487,1,8
136,296,35956,6,0,B|224:320|328:320,1,180,2|8
272,224,36659,1,0
224,128,36893,2,0,B|314:128|402:152,1,180,2|8
472,328,37596,5,8
464,320,37713,1,8
456,312,37831,1,4
400,208,38065,1,0
344,296,38299,1,8
328,80,38768,1,0
256,0,39002,1,0
214,100,39237,1,8
176,248,39706,6,8,B|224:296|288:296|336:248,1,180,2|8
256,176,40409,1,0
128,304,40643,2,0,B|200:376|256:353|312:376|384:304,1,286.200004776478,2|8
424,208,41346,1,0
280,64,41581,5,2
184,112,41815,1,0
272,168,42049,1,8
280,64,42284,1,0
368,128,42518,1,0
448,200,42752,1,0
480,96,42987,1,8
368,128,43221,1,0
336,264,43456,6,0,B|288:312|224:312|176:264,1,180,2|8
256,192,45331,5,4
176,120,45565,1,2
152,224,45799,2,0,B|184:272|224:280,1,90,8|2
152,224,46268,2,0,B|104:272|104:336|152:384,1,180,0|8
224,304,46971,1,2
296,224,47206,2,0,B|344:272|344:336|296:384,1,180,0|8
224,304,47909,1,2
224,200,48143,5,0
224,120,48299,1,0
224,112,48377,1,2
328,64,48612,2,0,B|376:72|400:120,2,90,8|0|4
416,240,49315,5,2
320,288,49549,2,0,B|272:312|264:360,1,90,8|2
320,288,50018,2,0,B|280:232|208:232|168:288,1,180,0|8
88,360,50721,1,2
32,264,50956,2,0,B|8:224|32:176,2,90,0|0|8
128,208,51659,1,2
232,208,51893,5,0
312,208,52049,1,0
320,208,52127,1,2
320,96,52362,2,0,B|280:152|208:152|168:96,1,180,8|4
320,24,53065,5,2
400,96,53299,2,0,B|456:112|488:80,1,90,8|2
400,96,53768,2,0,B|376:160|392:224|440:264,1,180,0|8
360,336,54471,1,2
264,288,54706,2,0,B|288:224|272:160|224:120,1,180,0|8
144,56,55409,1,2
72,136,55643,5,0
40,216,55799,1,0
36,226,55877,1,2
104,312,56112,2,0,B|72:344|16:328,2,90,8|0|4
304,144,56815,5,2
352,240,57049,2,0,B|312:272|264:256,1,90,8|2
352,240,57518,2,0,B|368:288|352:368|280:384,1,180,0|8
176,376,58221,1,2
96,304,58456,2,0,B|56:264|16:264,2,90,0|0|8
8,368,59159,1,2
344,112,60331,6,0,B|360:160|408:196|456:160|472:112,1,180,4|8
408,24,61034,1,0
344,112,61268,1,0
272,152,61424,1,0
264,160,61502,2,0,B|224:200|240:256,2,90,2|8|0
104,160,62206,6,0,B|80:216|88:288|136:328,1,180,4|8
224,312,62909,1,0
31,337,63143,2,0,B|52:281|108:235|168:240,1,180,4|8
224,312,63846,1,0
416,192,64081,6,0,B|428:240|407:296|348:292|308:261,1,180,4|8
312,152,64784,1,2
416,192,65018,1,0
480,160,65174,1,0
478,150,65252,2,0,B|470:102|430:70,2,90,2|8|0
296,128,65956,6,0,B|270:183|211:225|149:216,1,180,4|8
102,140,66659,1,0
212,301,66893,2,0,B|240:247|236:175|193:133,1,180,4|8
102,140,67596,1,8
102,140,67713,1,8
102,140,67831,1,0
256,192,79081,12,0,81893
232,176,82831,5,4
152,104,83065,2,0,B|104:120|56:88,2,90,2|8|2
15,146,83768,2,0,B|57:176|114:190|157:181|200:159,1,180,0|8
264,88,84471,1,2
376,88,84706,6,0,B|424:141,1,60
440,160,84940,1,2
440,264,85174,1,8
440,264,85409,1,0
360,336,85643,2,0,B|293:330,1,60
264,328,85877,1,2
160,296,86112,2,0,B|115:303|72:336,2,90,8|0|4
288,144,86815,6,0,B|304:120|336:104|368:112,2,90,2|8|2
375,43,87518,2,0,B|327:36|276:46|234:91|221:120,1,180,0|8
264,224,88221,1,2
192,304,88456,5,0
112,320,88612,1,0
101,324,88690,1,2
40,232,88924,1,8
40,232,89159,1,2
24,128,89393,2,0,B|85:118|152:171|144:232,2,180,0|8|4
232,56,90565,6,0,B|255:77|296:80|320:64,2,90,2|8|2
352,126,91268,2,0,B|315:147|266:149|220:142|182:102,1,180,0|8
208,208,91971,1,2
312,232,92206,6,0,B|376:248,1,60
408,256,92440,1,2
320,320,92674,1,8
320,320,92909,1,0
232,264,93143,2,0,B|184:320,1,60
168,336,93377,1,2
64,344,93612,2,0,B|16:344|-24:312,2,90,8|0|4
192,152,94315,6,0,B|192:120|208:88|240:80,2,90,2|8|2
213,16,95018,2,0,B|163:36|131:69|121:115|123:160,1,180,0|8
192,240,95721,1,2
296,208,95956,5,0
344,136,96112,1,0
352,128,96190,1,2
416,200,96424,1,8
416,200,96659,1,2
360,296,96893,2,0,B|312:328|248:344|184:344,1,180,0|8
128,256,97596,1,8
128,256,97713,1,8
128,256,97831,6,0,B|69:273|42:327,1,112.499998323619,12|2
170,138,98299,2,0,B|183:78|150:27,1,112.499998323619,8|2
250,234,98768,2,0,B|294:275|355:272,2,112.499998323619,8|2|8
288,104,99471,1,2
424,112,99706,6,0,B|456:128|472:176|464:216,1,112.499998323619,12|2
328,192,100174,1,8
184,192,100409,1,2
364,328,100643,2,0,B|256:384|148:328,1,224.999996647239,8|8
256,240,101346,1,0
416,48,101581,6,0,B|480:144,1,112.499998323619,12|2
272,96,102049,2,0,B|304:208,1,112.499998323619,8|2
112,128,102518,2,0,B|104:248,2,112.499998323619,8|2|8
184,240,103221,1,2
312,288,103456,5,12
493,265,103690,1,2
333,176,103924,1,8
411,342,104159,1,2
445,162,104393,2,0,B|432:88|352:40|264:72,1,224.999996647239,8|8
333,176,105096,1,0
107,357,105331,6,0,B|133:305|192:288,1,112.499998323619,12|2
416,304,105799,2,0,B|358:307|314:266,1,112.499998323619,8|2
216,62,106268,2,0,B|247:110|234:170,2,112.499998323619,8|2|8
88,24,106971,1,2
8,128,107206,6,0,B|0:176|24:216|48:232,1,112.499998323619,12|2
184,192,107674,1,8
328,192,107909,1,2
148,328,108143,2,0,B|256:384|364:328,1,224.999996647239,8|8
256,240,108846,1,0
56,208,109081,6,0,B|16:104,1,112.499998323619,12|2
240,152,109549,2,0,B|224:32,1,112.499998323619,8|2
424,160,110018,2,0,B|432:48,2,112.499998323619,8|2|8
256,248,110721,1,2
209,97,110956,5,12
333,186,111190,1,2
180,186,111424,1,8
304,96,111659,1,2
256,248,111893,6,0,B|192:304|312:304|256:360,1,135,0|0
64,280,112831,6,0,B|16:280|-15:221|16:160|64:160,2,180,4|8|0
152,224,114002,1,0
256,248,114237,1,8
360,224,114471,1,0
304,64,114706,6,0,B|336:56|400:64|436:114|432:177,1,180,2|8
328,168,115409,1,0
224,176,115643,2,0,B|176:184|144:144,2,90,2|0|8
208,72,116346,1,0
280,240,116581,6,0,B|344:288|424:280|456:256,2,180,4|8|0
216,152,117752,1,0
328,144,117987,1,8
280,240,118221,1,0
104,296,118456,6,0,B|128:352|200:368|260:332,1,180,2|8
192,248,119159,1,0
208,144,119393,2,0,B|232:120|264:120|288:144,2,90,2|0|8
344,272,120096,5,8
352,264,120213,1,8
360,256,120331,2,0,B|408:216|408:136|360:96,2,180,4|8|0
256,232,121502,1,0
192,320,121737,1,8
96,272,121971,1,0
40,96,122206,6,0,B|96:96|160:96|224:120,1,180,2|8
320,152,122909,1,0
416,192,123143,2,0,B|456:208|496:240,2,90,2|0|8
328,256,123846,1,0
128,312,124081,6,0,B|64:328|8:280|16:208,2,180,4|8|0
200,232,125252,1,0
232,336,125487,1,8
128,312,125721,1,0
104,112,125956,6,0,B|184:64|280:72,1,180,2|8
240,176,126659,1,0
312,256,126893,2,0,B|344:288|400:296,2,90,2|0|8
456,136,127596,5,8
448,128,127713,1,8
440,120,127831,1,4
368,200,128065,1,0
328,104,128299,1,8
128,192,128768,1,0
24,152,129002,1,0
112,80,129237,1,8
136,296,129706,6,0,B|224:320|328:320,1,180,2|8
272,224,130409,1,0
224,128,130643,2,0,B|314:128|402:152,1,180,2|8
456,248,131346,1,0
424,48,131581,5,4
320,24,131815,1,0
352,128,132049,1,8
152,208,132518,1,0
104,304,132752,1,0
40,216,132987,1,8
376,88,133456,6,0,B|288:64|184:64,1,180,2|8
240,160,134159,1,0
288,256,134393,2,0,B|198:256|110:232,1,180,2|8
40,56,135096,5,8
48,64,135213,1,8
56,72,135331,1,4
112,176,135565,1,0
168,88,135799,1,8
184,304,136268,1,0
256,384,136502,1,0
298,284,136737,1,8
336,136,137206,6,0,B|288:88|224:88|176:136,1,180,2|8
256,208,137909,1,0
384,80,138143,2,0,B|312:8|256:31|200:8|128:80,1,286.200004776478,2|8
88,176,138846,1,0
232,320,139081,5,2
328,272,139315,1,0
240,216,139549,1,8
232,320,139784,1,0
144,256,140018,1,0
64,184,140252,1,0
32,288,140487,1,8
144,256,140721,1,0
176,120,140956,6,0,B|224:72|288:72|336:120,1,180,2|8
256,192,141659,1,0
128,64,141893,2,0,B|200:-8|256:15|312:-8|384:64,1,286.200004776478,2|8
256,176,142596,1,8
256,184,142713,1,8
256,192,142831,1,2
256,192,154081,12,0,156893
256,104,157831,5,4
312,216,158065,1,2
344,336,158299,1,8
232,296,158534,1,2
344,336,158768,2,0,B|392:352|440:336|456:288|440:232,1,180,0|8
400,120,159471,1,2
232,136,159706,5,0
168,192,159862,1,0
160,200,159940,1,2
176,320,160174,2,0,B|192:352|232:360|280:352,2,90,8|2|0
240,264,160799,1,0
248,264,160877,1,2
336,336,161112,5,8
424,192,161346,1,2
336,48,161581,1,4
192,96,161815,5,2
176,216,162049,1,8
80,136,162284,1,2
176,216,162518,2,0,B|224:264|288:264|336:216,1,180,0|8
256,120,163221,1,2
80,136,163456,5,0
48,64,163612,1,0
54,53,163690,1,2
168,64,163924,2,0,B|216:64|280:48,1,90,8|2
168,136,164393,2,0,B|224:136|307:120|357:92,1,180,0|8
464,72,165096,1,0
448,264,165331,5,4
368,312,165487,1,0
352,320,165565,2,0,B|320:336|289:331|272:304,2,90,2|8|2
160,304,166268,2,0,B|147:236|230:178|272:208|296:210,1,180,0|8
400,176,166971,1,2
272,48,167206,5,0
184,48,167362,1,0
171,49,167440,1,2
216,152,167674,1,8
296,232,167909,1,2
360,336,168143,1,0
268,336,168299,1,0
256,336,168377,1,2
120,336,168612,5,8
8,192,168846,1,0
120,48,169081,1,4
176,112,169237,5,0
185,122,169315,2,0,B|220:158|272:152,2,90,2|8|2
366,98,170018,2,0,B|412:154|384:232|323:254,1,180,0|8
216,280,170721,1,2
56,168,170956,5,0
104,88,171112,1,0
120,81,171190,1,2
256,72,171424,1,8
256,192,171659,1,2
256,312,171893,2,0,B|320:328|376:320|432:272,1,180,0|8
464,160,172596,1,0
288,56,172831,6,0,B|232:40|184:56|152:104|144:144,1,180,4|8
256,168,173534,1,0
320,272,173768,1,0
232,312,173924,1,0
216,320,174003,2,0,B|160:344|128:344,2,90,2|8|0
64,240,174706,6,0,B|40:160|80:72|104:64,1,180,0|8
216,48,175409,1,0
320,104,175643,1,0
392,160,175799,1,0
400,168,175877,2,0,B|448:200|464:240,2,90,2|8|0
312,320,176581,6,0,B|272:344|224:336,2,90,0|0|8
248,216,177284,1,0
136,176,177518,1,0
104,104,177674,1,0
120,88,177752,2,0,B|168:64|208:64,2,90,2|8|0
352,144,178456,6,0,B|392:96|384:48,2,90,0|0|8
232,144,179159,1,0
288,248,179393,1,0
208,248,179549,1,0
192,248,179627,2,0,B|128:248|96:224,1,90,2|8
184,40,180096,5,8
192,48,180213,1,8
200,56,180331,2,0,B|264:128,2,90,4|2|8
88,104,181034,2,0,B|40:144,1,60,0|2
56,184,181268,2,0,B|24:240,1,60
48,272,181502,1,2
120,368,181737,1,8
240,368,181971,1,0
408,224,182206,6,0,B|395:144,1,60
392,128,182440,1,2
304,48,182674,1,8
192,96,182909,2,0,B|240:152,1,60,0|2
216,176,183143,2,0,B|224:240,1,60
184,256,183377,1,2
80,320,183612,1,8
32,208,183846,1,0
192,96,184081,6,0,B|256:72,1,60
288,64,184315,1,2
408,64,184549,1,8
424,184,184784,2,0,B|408:248,1,60,0|2
368,248,185018,2,0,B|328:304,1,60
296,296,185252,1,2
176,312,185487,1,8
56,328,185721,1,0
256,192,185956,12,4,187831
