osu file format v13

[General]
AudioFilename: marry me.mp3
AudioLeadIn: 0
PreviewTime: 70632
Countdown: 0
SampleSet: Soft
StackLeniency: 0.7
Mode: 0
LetterboxInBreaks: 0
EpilepsyWarning: 1
WidescreenStoryboard: 1

[Editor]
Bookmarks: 6767,18749,32249,44249,56249,69507,71249,83249,95249,113249
DistanceSpacing: 1
BeatDivisor: 4
GridSize: 4
TimelineZoom: 1

[Metadata]
Title:marry me ?
TitleUnicode:marry me ?
Artist:Duca
ArtistUnicode:Duca
Creator:Xinely
Version:Easy
Source:ゴールデンマリッジ
Tags:Golden Marriage Ensemble visual novel vn opening 2 Hinsvar IamKwan koreapenguin eroge
BeatmapID:474563
BeatmapSetID:200169

[Difficulty]
HPDrainRate:2
CircleSize:2.8
OverallDifficulty:2
ApproachRate:3
SliderMultiplier:1
SliderTickRate:1

[Events]
//Background and Video events
0,0,"marry me.jpg",0,0
//Break Periods
//Storyboard Layer 0 (Background)
//Storyboard Layer 1 (Fail)
//Storyboard Layer 2 (Pass)
//Storyboard Layer 3 (Foreground)
//Storyboard Sound Samples
//Background Colour Transformations
3,100,163,162,255

[TimingPoints]
660,422.535211267606,4,2,1,15,1,0
1082,375,4,2,1,15,1,8
2207,375,4,2,1,20,1,0
6707,-100,4,2,1,30,0,0
18689,375,4,2,1,50,1,0
56189,-100,4,2,1,60,0,0
71189,-100,4,2,1,75,0,1
81501,-100,4,2,1,75,0,0
83189,-100,4,2,1,75,0,1
95189,-100,4,2,1,75,0,0
108501,-100,4,2,1,50,0,0
108876,-100,4,2,1,75,0,0
109439,-100,4,2,1,70,0,0
110189,-100,4,2,1,60,0,0
110939,-100,4,2,1,50,0,0
111689,-100,4,2,1,40,0,0
112439,-100,4,2,1,20,0,0
113189,-100,4,2,1,5,0,0

[Colours]
Combo1 : 0,128,255
Combo2 : 128,128,192
Combo3 : 136,196,255
Combo4 : 194,194,224

[HitObjects]
72,268,6332,5,0,0:0:0:0:
148,336,6707,2,0,P|216:360|320:276,2,200,2|0|2,0:0|0:0|0:0,0:0:0:0:
76,148,8957,2,0,P|124:136|176:152,1,100,2|2,0:0|0:0,0:0:0:0:
252,212,9707,6,0,P|336:224|400:124,1,200,2|0,0:0|0:0,0:0:0:0:
320,80,10832,1,0,0:0:0:0:
232,124,11207,2,0,P|172:172|208:292,2,200,2|0|2,0:0|0:0|0:0,0:0:0:0:
416,40,13457,5,2,0:0:0:0:
440,240,14207,1,2,0:0:0:0:
268,344,14957,1,2,0:0:0:0:
92,248,15707,1,2,0:0:0:0:
112,48,16457,2,0,L|220:72,1,100,2|0,0:0|0:0,0:0:0:0:
256,192,17207,12,4,18689,0:0:0:0:
204,148,20189,5,0,0:0:0:0:
116,192,20564,2,0,P|104:148|120:92,2,100,8|0|8,0:0|0:0|0:0,0:0:0:0:
152,284,21689,6,0,P|264:332|372:216,1,300,0|8,0:0|0:0,0:0:0:0:
356,116,23189,1,0,0:0:0:0:
272,172,23564,2,0,P|256:132|264:72,2,100,8|0|8,0:0|0:0|0:0,0:0:0:0:
300,268,24689,6,0,B|264:336|192:352|192:352|144:292,2,200,0|0|0,0:0|0:0|0:0,0:0:0:0:
320,168,26564,2,0,P|328:112|304:56,1,100,8|0,0:0|0:0,0:0:0:0:
228,124,27314,1,8,0:0:0:0:
244,224,27689,6,0,P|284:260|336:264,1,100,0|8,0:0|0:0,0:0:0:0:
320,168,28439,2,0,P|373:165|413:131,1,100,0|8,0:0|0:0,0:0:0:0:
432,40,29189,1,0,0:0:0:0:
336,68,29564,2,0,L|228:68,2,100,8|0|8,0:0|0:0|0:0,0:0:0:0:
320,168,30689,6,0,B|252:208|252:208|224:272|168:268|168:268|132:216|152:152,1,300,0|4,0:0|1:3,0:0:0:0:
136,64,32189,6,0,P|80:68|28:104,2,100,4|0|0,0:0|0:0|0:0,0:0:0:0:
220,120,33314,1,0,0:0:0:0:
300,60,33689,1,2,0:0:0:0:
376,124,34064,2,0,P|440:175|428:296,1,200,0|0,0:0|0:0,0:0:0:0:
384,368,35189,6,0,P|316:377|235:331,2,150,2|2|0,0:0|0:0|0:0,0:0:0:0:
440,288,36689,1,2,0:0:0:0:
424,188,37064,1,0,0:0:0:0:
384,96,37439,2,0,L|272:112,1,100,2|0,0:0|0:0,0:0:0:0:
188,136,38189,6,0,B|176:192|208:240|208:240|172:284,2,150,2|2|0,0:0|0:0|0:0,0:0:0:0:
212,40,39689,2,0,P|256:64|284:116,2,100,2|0|0,0:0|0:0|0:0,0:0:0:0:
112,28,40814,1,0,0:0:0:0:
28,84,41189,6,0,P|-8:184|32:280,2,200,2|2|2,0:0|0:0|0:0,0:0:0:0:
224,52,43439,1,2,0:0:0:0:
284,132,43814,1,2,2:3:0:0:
308,228,44189,6,0,P|304:296|228:352,2,150,4|2|8,0:0|0:0|0:0,0:0:0:0:
208,252,45689,2,0,P|156:267|95:244,1,100,2|8,0:0|0:0,0:0:0:0:
52,180,46439,2,0,P|103:164|164:187,1,100,0|8,0:0|0:0,0:0:0:0:
208,252,47189,6,0,P|240:188|216:112,2,150,2|2|8,0:0|0:0|0:0,0:0:0:0:
164,344,48689,1,2,0:0:0:0:
76,296,49064,1,8,0:0:0:0:
44,200,49439,2,0,L|44:88,1,100,2|8,0:0|0:0,0:0:0:0:
140,124,50189,6,0,L|140:224,2,100,2|8|0,0:0|0:0|0:0,0:0:0:0:
204,48,51314,1,8,0:0:0:0:
264,128,51689,2,0,L|264:228,2,100,2|8|0,0:0|0:0|0:0,0:0:0:0:
312,40,52814,1,8,0:0:0:0:
412,32,53189,6,0,L|412:152,1,100,4|8,0:0|0:0,0:0:0:0:
404,236,53939,2,0,P|328:256|260:216,2,150,0|10|8,0:0|0:0|0:0,0:0:0:0:
340,156,55439,2,0,P|337:106|354:60,1,100,0|8,0:0|0:0,0:0:0:0:
444,8,56189,5,4,0:0:0:0:
484,204,56939,1,2,0:0:0:0:
424,284,57314,1,0,3:2:0:0:
328,316,57689,2,0,B|280:264|280:264|272:192|336:152,1,200,2|2,0:0|0:0,0:0:0:0:
420,108,58814,1,0,0:0:0:0:
416,208,59189,6,0,P|464:216|520:192,2,100,2|0|0,0:0|0:0|0:0,0:0:0:0:
352,284,60314,1,0,3:2:0:0:
264,240,60689,2,0,L|252:132,1,100,2|0,0:0|0:0,0:0:0:0:
340,92,61439,2,0,L|352:200,1,100,2|0,0:0|0:0,0:0:0:0:
360,292,62189,5,2,0:0:0:0:
440,232,62564,2,0,P|480:168|460:48,1,200,8|8,0:0|0:0,0:0:0:0:
364,32,63689,2,0,P|316:24|248:44,1,100,2|8,0:0|0:0,0:0:0:0:
184,92,64439,2,0,P|136:104|68:80,1,100,0|8,0:0|0:0,0:0:0:0:
136,4,65189,5,4,0:0:0:0:
184,92,65564,1,8,0:0:0:0:
264,32,65939,2,0,P|332:20|408:68,2,150,2|2|8,0:0|0:0|0:0,0:0:0:0:
316,116,67439,2,0,P|316:162|295:215,1,100,2|8,0:0|0:0,0:0:0:0:
224,280,68189,5,4,0:0:0:0:
124,268,68564,1,8,0:0:0:0:
68,188,68939,2,0,P|48:136|84:40,2,150,0|10|8,0:0|0:0|0:0,0:0:0:0:
124,268,70439,1,2,0:0:0:0:
316,312,71189,6,0,L|340:196,1,100,4|8,0:0|0:0,0:0:0:0:
248,164,71939,2,0,L|316:72,1,100,2|8,0:0|0:0,0:0:0:0:
392,28,72689,2,0,P|444:24|492:44,1,100,2|8,0:0|0:0,0:0:0:0:
508,136,73439,1,2,0:0:0:0:
480,232,73814,1,8,0:0:0:0:
404,299,74189,6,0,P|355:292|318:258,2,100,2|8|2,0:0|0:0|0:0,0:0:0:0:
400,200,75314,1,8,0:0:0:0:
304,172,75689,2,0,P|242:211|232:288,2,150,2|2|8,0:0|0:0|0:0,0:0:0:0:
288,72,77189,6,0,L|180:76,1,100,2|8,0:0|0:0,0:0:0:0:
112,12,77939,2,0,L|38:91,1,100,2|8,0:0|0:0,0:0:0:0:
16,180,78689,1,2,0:0:0:0:
76,260,79064,1,8,0:0:0:0:
148,188,79439,2,0,P|200:188|260:220,1,100,2|8,0:0|0:0,0:0:0:0:
332,256,80189,6,0,P|344:200|328:144,1,100,2|8,0:0|0:0,0:0:0:0:
304,64,80939,2,0,P|228:96|152:68,2,150,2|10|8,0:0|0:0|0:0,0:0:0:0:
364,144,82439,2,0,P|326:176|316:224,1,100,2|8,0:0|0:0,0:0:0:0:
324,324,83189,6,0,L|224:312,1,100,4|8,0:0|0:0,0:0:0:0:
132,336,83939,2,0,L|69:256,1,100,2|8,0:0|0:0,0:0:0:0:
68,156,84689,2,0,P|124:148|172:168,2,100,2|8|2,0:0|0:0|0:0,0:0:0:0:
108,248,85814,1,8,0:0:0:0:
192,308,86189,6,0,P|155:341|107:352,2,100,2|8|2,0:0|0:0|0:0,0:0:0:0:
284,268,87314,1,8,0:0:0:0:
212,204,87689,2,0,P|208:168|240:92,1,100,2|8,0:0|0:0,0:0:0:0:
292,32,88439,1,2,0:0:0:0:
336,120,88814,1,8,0:0:0:0:
300,212,89189,6,0,P|280:260|236:288,1,100,4|8,3:0|0:0,0:0:0:0:
156,336,89939,1,2,0:0:0:0:
100,252,90314,1,8,0:0:0:0:
92,152,90689,2,0,P|143:142|207:164,1,100,2|8,0:0|0:0,0:0:0:0:
244,236,91439,1,2,0:0:0:0:
304,156,91814,1,8,0:0:0:0:
364,236,92189,6,0,P|372:288|356:344,1,100,2|8,0:0|0:0,0:0:0:0:
268,368,92939,2,0,B|180:324|180:324|228:288|212:224,1,200,2|2,0:0|0:0,0:0:0:0:
156,152,94064,1,8,0:0:0:0:
80,84,94439,2,0,P|57:128|60:177,1,100,2|8,0:0|0:0,0:0:0:0:
96,268,95189,5,4,0:0:0:0:
184,220,95564,1,8,0:0:0:0:
184,320,95939,2,0,P|252:332|316:288,2,150,2|2|8,0:0|0:0|0:0,0:0:0:0:
96,268,97439,2,0,P|84:219|96:172,1,100,2|8,0:0|0:0,0:0:0:0:
140,84,98189,5,2,0:0:0:0:
224,32,98564,1,8,0:0:0:0:
284,112,98939,2,0,B|344:112|380:144|380:144|421:90,2,150,2|2|8,0:0|0:0|0:0,0:0:0:0:
188,132,100439,2,0,L|202:230,1,100,2|8,0:0|0:0,0:0:0:0:
220,328,101189,5,4,0:0:0:0:
304,272,101564,2,0,B|364:256|404:292|420:344|420:344|460:304|516:316,2,250,8|2|2,0:0|0:0|0:0,0:0:0:0:
240,352,103814,1,8,0:0:0:0:
160,292,104189,6,0,P|108:308|56:292,1,100,2|8,0:0|0:0,0:0:0:0:
20,208,104939,2,0,B|-12:140|-12:140|36:104|20:8,2,200,2|2|2,0:0|0:0|0:0,0:0:0:0:
116,232,106814,1,8,0:0:0:0:
176,152,107189,6,0,B|240:200|228:296|228:296|276:240|324:236|324:236|348:268|404:264,1,350,2|0,0:0|0:0,0:0:0:0:
448,184,108876,2,0,L|444:124,1,50,4|4,0:0|0:0,0:0:0:0:
256,192,109251,12,0,113189,0:0:0:0:
