osu file format v14

[General]
AudioFilename: marry me.mp3
AudioLeadIn: 0
PreviewTime: 146757
Countdown: 0
SampleSet: Soft
StackLeniency: 0.4
Mode: 0
LetterboxInBreaks: 0
EpilepsyWarning: 1
WidescreenStoryboard: 1

[Editor]
DistanceSpacing: 1
BeatDivisor: 4
GridSize: 4
TimelineZoom: 1.8

[Metadata]
Title:marry me ?
TitleUnicode:marry me ?
Artist:Duca
ArtistUnicode:Duca
Creator:Byakugan249
Version:Normal
Source:Golden marriage
Tags:ゴールデンマリッジ Ensemble opening Eroge Visual Novel El Solarbeam Xinely
BeatmapID:459361
BeatmapSetID:193313

[Difficulty]
HPDrainRate:3
CircleSize:3.5
OverallDifficulty:3
ApproachRate:4
SliderMultiplier:1.2
SliderTickRate:2

[Events]
//Background and Video events
0,0,"Golden Marriage.jpg",0,0
//Break Periods
2,183472,193953
//Storyboard Layer 0 (Background)
//Storyboard Layer 1 (Fail)
//Storyboard Layer 2 (Pass)
//Storyboard Layer 3 (Foreground)
//Storyboard Sound Samples

[TimingPoints]
6273,375,4,2,1,50,1,0
6273,-133.333333333333,4,2,1,50,0,0
8898,-133.333333333333,4,2,1,55,0,0
11898,-133.333333333333,4,2,1,65,0,0
12273,-133.333333333333,4,2,1,50,0,0
16023,-133.333333333333,4,2,1,40,0,0
16398,-133.333333333333,4,2,1,45,0,0
16585,-133.333333333333,4,2,1,50,0,0
16773,-133.333333333333,4,2,1,30,0,0
18273,-100,4,2,1,85,0,0
31773,-100,4,2,1,50,0,0
43773,-100,4,2,1,85,0,0
55773,-133.333333333333,4,2,1,85,0,0
61773,-100,4,2,1,85,0,0
70773,-100,4,2,1,85,0,1
70960,-100,4,2,1,85,0,0
82773,-100,4,2,1,85,0,1
82960,-100,4,2,1,85,0,0
88773,-133.333333333333,4,2,1,85,0,0
91773,-100,4,2,1,85,0,0
132273,-133.333333333333,4,2,1,85,0,0
138273,-100,4,2,1,85,0,0
147273,-100,4,2,1,85,0,1
147460,-100,4,2,1,85,0,0
159273,-100,4,2,1,85,0,1
159460,-100,4,2,1,85,0,0
165273,-133.333333333333,4,2,1,85,0,0
168273,-100,4,2,1,85,0,0
171273,-133.333333333333,4,2,1,85,0,0
180273,-100,4,2,1,85,0,0
195273,-133.333333333333,4,2,1,85,0,0
201273,-100,4,2,1,85,0,0
210648,-100,4,2,1,85,0,1
210835,-100,4,2,1,85,0,0
211773,-100,4,2,1,85,0,1
213273,-100,4,2,1,85,0,0
216273,-100,4,2,1,85,0,1
221898,-100,4,2,1,85,0,0
222273,-100,4,2,1,85,0,1
228273,-133.333333333333,4,2,1,85,0,1
231273,-100,4,2,1,85,0,1
234179,-100,4,2,1,85,0,0
234273,-100,4,2,1,85,0,1
234366,-100,4,2,1,85,0,0
246273,-100,4,2,1,55,0,0
247960,-100,4,2,1,85,0,0
252273,-100,4,2,1,10,0,0

[Colours]
Combo1 : 128,64,0
Combo2 : 188,156,29
Combo3 : 158,62,255

[HitObjects]
128,76,6273,6,0,P|80:156|112:252,2,180.000006866455,2|0|2,0:0|0:0|0:0,0:0:0:0:
239,41,8148,1,0,0:0:0:0:
353,67,8523,2,0,P|386:110|386:156,1,90.0000034332276,2|2,0:0|0:0,0:0:0:0:
371,260,9273,6,0,P|377:303|406:337,2,90.0000034332276,2|0|2,0:0|0:0|0:0,0:0:0:0:
310,160,10398,1,0,0:0:0:0:
310,160,10585,2,0,P|252:120|176:125,1,135.000005149841,2|0,0:0|0:0,0:0:0:0:
136,146,11335,2,0,B|87:195|87:195|87:265,1,135.000005149841,2|2,0:0|0:0,0:0:0:0:
171,342,12273,6,0,B|206:372|255:372|255:372|291:338,2,135.000005149841,2|2|0,0:0|0:0|0:0,0:0:0:0:
105,244,13773,2,0,P|105:187|136:149,1,90.0000034332276
210,83,14523,1,2,0:0:0:0:
326,72,14898,1,0,0:0:0:0:
412,151,15273,6,0,P|428:202|412:252,1,90.0000034332277,2|0,0:0|0:0,0:0:0:0:
348,330,16023,2,0,B|298:330|298:330|254:306|273:241,1,135.000005149841,2|2,0:0|0:0,0:0:0:0:
256,192,16773,12,4,18273,0:0:0:0:
138,235,19398,5,8,0:0:0:0:
138,235,19773,2,0,P|137:176|193:132,2,120,0|0|0,0:0|0:0|0:0,0:0:0:0:
201,337,20898,2,0,L|266:337,1,60,8|0,0:0|0:0,0:0:0:0:
319,322,21273,5,0,0:0:0:0:
406,240,21648,1,0,0:0:0:0:
319,156,22023,1,0,0:0:0:0:
235,241,22398,1,8,0:0:0:0:
235,241,22773,6,0,B|172:253|172:253|102:253,2,120,0|0|0,0:0|0:0|0:0,0:0:0:0:
311,148,23898,1,8,0:0:0:0:
427,117,24273,6,0,B|491:103|516:156|516:156|516:238,1,180
500,287,25023,2,0,P|484:320|483:353,2,60,0|0|8,0:0|0:0|0:0,0:0:0:0:
409,208,25773,5,0,0:0:0:0:
318,287,26148,1,0,0:0:0:0:
227,208,26523,1,0,0:0:0:0:
136,287,26898,1,8,0:0:0:0:
47,205,27273,6,0,B|11:133|61:74|61:74|169:74,2,240,0|0|0,0:0|0:0|0:0,0:0:0:0:
130,291,29148,1,0,0:0:0:0:
240,338,29523,2,0,P|280:339|347:296,1,120,0|8,0:0|0:0,0:0:0:0:
418,201,30273,6,0,L|493:201,2,60,8|0|8,3:0|0:0|3:0,0:0:0:0:
344,106,31023,2,0,P|287:77|224:83,1,120,4|4,3:0|3:0,0:0:0:0:
128,140,31773,6,0,B|91:195|91:195|91:269,2,120,4|0|0,0:0|0:0|0:0,0:0:0:0:
233,81,32898,1,8,0:0:0:0:
324,153,33273,6,0,P|342:226|267:301,1,180
216,301,34023,2,0,B|155:300|155:300|76:324,2,120,0|8|0,0:0|0:0|0:0,0:0:0:0:
333,278,35148,1,0,0:0:0:0:
431,210,35523,6,0,P|470:147|474:85,1,120,0|8,0:0|0:0,0:0:0:0:
360,67,36273,2,0,P|321:130|317:192,1,120,0|0,0:0|0:0,0:0:0:0:
340,291,37023,1,2,0:0:0:0:
340,291,37398,1,8,0:0:0:0:
237,352,37773,6,0,B|160:373|129:313|129:313|129:251,2,180,0|0|8,0:0|0:0|0:0,0:0:0:0:
339,290,39273,2,0,P|379:229|375:175,1,120,0|0,0:0|0:0,0:0:0:0:
289,102,40023,1,0,0:0:0:0:
170,122,40398,1,8,0:0:0:0:
82,204,40773,6,0,L|82:276,2,60,0|0|0,0:0|0:0|0:0,0:0:0:0:
170,122,41523,1,0,0:0:0:0:
257,204,41898,1,8,0:0:0:0:
170,287,42273,1,0,0:0:0:0:
257,204,42648,1,0,0:0:0:0:
343,287,43023,2,0,P|426:285|465:244,1,120,0|0,1:0|1:0,0:0:0:0:
501,154,43773,6,0,B|530:88|475:44|475:44|400:44,2,180,4|0|8,0:0|0:0|0:0,0:0:0:0:
439,257,45273,2,0,P|387:292|316:287,1,120,0|8,0:0|0:0,0:0:0:0:
213,269,46023,2,0,L|141:269,1,60
95,286,46398,1,8,0:0:0:0:
28,186,46773,6,0,P|30:113|83:68,1,120,0|8,0:0|0:0,0:0:0:0:
172,39,47523,2,0,L|238:39,2,60,0|0|8,0:0|0:0|0:0,0:0:0:0:
133,152,48273,1,0,0:0:0:0:
172,265,48648,1,8,0:0:0:0:
276,324,49023,2,0,L|405:324,1,120,0|8,0:0|0:0,0:0:0:0:
500,265,49773,6,0,B|517:200|455:157|455:157|383:157,2,180,0|0|8,0:0|0:0|0:0,0:0:0:0:
404,337,51273,2,0,P|327:353|264:335,1,120,0|8,0:0|0:0,0:0:0:0:
208,254,52023,2,0,P|195:180|222:117,1,120,0|8,0:0|0:0,0:0:0:0:
295,56,52773,6,0,B|359:56|359:56|416:27|484:69,2,180,4|0|0,0:0|0:0|0:0,0:0:0:0:
235,62,54085,2,0,P|168:93|165:199,1,180,0|0,1:0|1:0,0:0:0:0:
209,299,55023,1,0,1:0:0:0:
209,299,55398,2,0,L|280:299,1,60,4|4,3:0|3:0,0:0:0:0:
327,299,55773,6,0,P|387:259|395:183,2,135.000005149841,4|0|0,0:0|0:0|0:0,0:0:0:0:
209,299,57273,2,0,P|149:259|141:183,2,135.000005149841,0|0|0,0:0|0:0|0:0,0:0:0:0:
256,189,58773,6,0,P|221:110|169:88,1,135.000005149841,0|0,1:0|0:0,0:0:0:0:
121,90,59523,1,0,0:0:0:0:
28,162,59898,1,0,0:0:0:0:
28,279,60273,6,0,P|50:328|100:348,2,90.0000034332277,0|0|0,0:0|0:0|1:0,0:0:0:0:
28,162,61398,2,0,L|61:115,1,45.0000017166138,0|2,0:0|0:0,0:0:0:0:
93,80,61773,6,0,P|160:48|220:70,1,120,0|8,0:0|0:0,0:0:0:0:
311,108,62523,2,0,P|369:115|419:85,2,120,0|8|0,0:0|0:0|0:0,0:0:0:0:
207,168,63648,5,8,0:0:0:0:
137,265,64023,2,0,L|137:335,2,60,0|0|8,0:0|0:0|0:0,0:0:0:0:
207,168,64773,5,4,0:0:0:0:
326,168,65148,1,0,1:0:0:0:
437,212,65523,2,0,B|486:270|448:330|448:330|371:330,2,180,0|0|0,1:0|1:0|1:0,0:0:0:0:
326,168,67023,2,0,P|266:153|200:173,1,120,0|0,0:0|1:0,0:0:0:0:
186,284,67773,5,4,0:0:0:0:
305,286,68148,1,0,1:0:0:0:
326,168,68523,2,0,P|326:92|233:46,2,180,0|8|4,1:0|3:0|3:0,0:0:0:0:
300,285,70023,1,4,3:0:0:0:
414,248,70398,1,0,1:0:0:0:
326,168,70773,6,0,B|238:140|238:140|182:193|84:166,2,240,4|0|0,0:0|0:0|0:0,0:0:0:0:
437,212,72648,1,8,0:0:0:0:
491,104,73023,2,0,L|491:44,2,60,0|0|8,0:0|0:0|0:0,0:0:0:0:
437,212,73773,6,0,P|378:244|317:240,1,120,0|8,0:0|0:0,0:0:0:0:
353,125,74523,1,0,0:0:0:0:
238,89,74898,1,8,0:0:0:0:
238,89,75085,6,0,P|157:94|82:171,1,180,0|8,0:0|0:0,0:0:0:0:
76,217,75835,2,0,B|76:284|76:284|105:337|181:312,1,180,0|8,0:0|0:0,0:0:0:0:
266,236,76773,6,0,B|309:185|380:185|380:185|421:234|488:235,1,240
476,114,77898,2,0,P|450:83|427:71,1,60,8|0,0:0|0:0,0:0:0:0:
374,60,78273,5,0,0:0:0:0:
257,87,78648,1,8,0:0:0:0:
170,170,79023,2,0,P|150:228|174:283,1,120,0|8,0:0|0:0,0:0:0:0:
274,341,79773,6,0,B|326:357|361:333|361:333|376:291|436:279,2,180,0|0|0,1:0|0:0|0:0,0:0:0:0:
216,323,81085,2,0,P|164:269|182:153,1,180,0|0,1:0|1:0,0:0:0:0:
251,81,82023,1,0,1:0:0:0:
368,58,82398,1,0,1:0:0:0:
368,58,82773,6,0,B|452:58|452:58|508:124|432:201,2,240,4|0|0,0:0|0:0|0:0,0:0:0:0:
249,76,84648,2,0,L|180:76,1,60,8|0,0:0|0:0,0:0:0:0:
131,94,85023,2,0,P|82:142|77:199,1,120,0|8,0:0|0:0,0:0:0:0:
101,307,85773,5,0,0:0:0:0:
217,276,86148,1,8,0:0:0:0:
332,307,86523,2,0,L|406:307,2,60,0|0|8,0:0|0:0|0:0,0:0:0:0:
217,276,87273,6,0,P|198:218|257:107,1,180,0|0,0:0|0:0,0:0:0:0:
294,80,88023,2,0,P|346:57|419:64,1,120,0|8,0:0|0:0,0:0:0:0:
489,137,88773,6,0,P|497:208|453:276,1,135.000005149841,4|0,0:0|0:0,0:0:0:0:
422,299,89523,1,0,1:0:0:0:
306,318,89898,1,0,0:0:0:0:
306,318,90273,6,0,P|257:314|223:287,1,90.0000034332277
196,176,91023,1,0,1:0:0:0:
96,114,91398,1,0,0:0:0:0:
22,208,91773,6,0,B|22:250|22:250|22:290|58:318,1,120,0|0,0:0|1:0,0:0:0:0:
171,352,92523,2,0,P|231:355|328:280,2,180,0|0|8,1:0|1:0|3:0,0:0:0:0:
121,242,94023,5,4,3:0:0:0:
121,242,94210,2,0,P|186:182|274:177,1,180,4|4,3:0|0:0,0:0:0:0:
390,209,95148,5,8,0:0:0:0:
476,126,95523,2,0,P|472:61|370:26,2,180,0|0|8,0:0|0:0|0:0,0:0:0:0:
390,209,97023,2,0,P|378:268|399:330,1,120,0|8,0:0|0:0,0:0:0:0:
498,262,97773,5,0,0:0:0:0:
390,209,98148,1,8,0:0:0:0:
279,162,98523,1,0,0:0:0:0:
222,141,98710,1,0,0:0:0:0:
161,141,98898,1,8,0:0:0:0:
53,194,99273,6,0,P|24:251|40:306,1,120,0|8,0:0|0:0,0:0:0:0:
155,328,100023,2,0,P|184:271|168:216,1,120,0|8,0:0|0:0,0:0:0:0:
135,104,100773,5,4,0:0:0:0:
248,64,101148,1,8,0:0:0:0:
361,104,101523,2,0,B|361:174|361:174|390:223|368:298,2,180,0|0|8,0:0|0:0|0:0,0:0:0:0:
241,117,103023,1,0,0:0:0:0:
254,236,103398,1,8,0:0:0:0:
169,320,103773,6,0,P|94:342|38:321,2,120,0|8|0,0:0|0:0|0:0,0:0:0:0:
254,236,104898,1,8,0:0:0:0:
254,236,105085,2,0,B|286:174|286:174|340:143|401:176,1,180,0|8,0:0|0:0,0:0:0:0:
455,273,106023,2,0,L|455:337,2,60,0|0|8,0:0|0:0|0:0,0:0:0:0:
256,192,106773,12,4,108273,0:0:0:0:
194,271,109398,5,8,0:0:0:0:
280,354,109773,2,0,B|356:354|356:354|452:335|452:222,2,240,0|0|0,0:0|0:0|0:0,0:0:0:0:
192,274,111648,1,8,0:0:0:0:
192,154,112023,2,0,B|191:56|287:37|287:37|361:37,2,240,0|0|0,0:0|0:0|0:0,0:0:0:0:
297,211,113898,1,8,0:0:0:0:
297,211,114273,6,0,P|366:212|440:130,2,180,0|0|8,0:0|0:0|0:0,0:0:0:0:
184,170,115773,2,0,P|118:163|49:179,1,120,0|8,0:0|0:0,0:0:0:0:
65,292,116523,2,0,P|131:299|200:283,1,120,0|8,0:0|0:0,0:0:0:0:
232,255,117085,6,0,B|257:213|295:200|295:200|333:238|408:221,1,180,0|8,0:0|0:0,0:0:0:0:
477,150,118023,2,0,P|479:72|377:38,2,180,0|0|0,1:0|1:0|1:0,0:0:0:0:
426,258,119523,1,0,1:0:0:0:
426,258,119898,2,0,L|367:286,1,60,0|4,0:0|0:0,0:0:0:0:
318,311,120273,6,0,B|252:333|252:333|177:326|162:258,2,180,4|0|8,0:0|0:0|0:0,0:0:0:0:
350,195,121773,1,0,0:0:0:0:
327,78,122148,2,0,P|268:44|206:44,2,120,8|0|8,0:0|0:0|0:0,0:0:0:0:
350,195,123273,5,0,0:0:0:0:
327,312,123648,1,8,0:0:0:0:
211,344,124023,2,0,P|150:308|128:256,1,120,0|8,0:0|0:0,0:0:0:0:
143,146,124773,2,0,B|197:72|197:72|271:72|243:119|351:119,1,240
454,131,125898,1,8,0:0:0:0:
474,249,126273,6,0,P|448:335|351:334,2,180,0|0|8,0:0|0:0|0:0,0:0:0:0:
432,136,127773,2,0,P|441:71|478:34,2,120,0|8|0,0:0|0:0|0:0,0:0:0:0:
474,248,128898,1,8,0:0:0:0:
369,307,129273,6,0,P|292:323|194:273,2,180,4|0|0,0:0|0:0|0:0,0:0:0:0:
406,260,130585,2,0,B|406:170|406:170|354:78,1,180,0|0,1:0|1:0,0:0:0:0:
250,45,131523,1,0,1:0:0:0:
250,45,131898,2,0,L|179:45,1,60,4|4,3:0|3:0,0:0:0:0:
133,58,132273,6,0,P|87:100|71:172,1,135.000005149841,4|0,0:0|0:0,0:0:0:0:
79,226,133023,1,0,1:0:0:0:
151,317,133398,1,0,0:0:0:0:
151,317,133773,2,0,P|233:328|283:300,1,135.000005149841
308,255,134523,1,0,1:0:0:0:
298,138,134898,1,0,0:0:0:0:
379,56,135273,6,0,B|442:28|488:65|488:65|487:141,1,180.000006866455,0|0,0:0|1:0,0:0:0:0:
488,246,136398,1,0,0:0:0:0:
399,321,136773,2,0,P|355:338|314:330,2,90.0000034332277,0|0|0,0:0|0:0|1:0,0:0:0:0:
409,204,137898,1,0,0:0:0:0:
409,204,138273,6,0,P|390:133|335:107,1,120,0|8,0:0|0:0,0:0:0:0:
237,78,139023,1,0,0:0:0:0:
132,137,139398,1,8,0:0:0:0:
146,256,139773,6,0,P|191:320|242:333,2,120,0|8|0,0:0|0:0|0:0,0:0:0:0:
132,137,140898,1,0,1:0:0:0:
132,137,141273,5,4,0:0:0:0:
239,83,141648,1,0,1:0:0:0:
359,83,142023,2,0,P|439:108|477:207,2,180,0|0|0,1:0|1:0|1:0,0:0:0:0:
257,147,143523,1,0,0:0:0:0:
293,261,143898,1,0,1:0:0:0:
293,261,144273,6,0,P|246:303|187:311,1,120,4|0,0:0|1:0,0:0:0:0:
79,267,145023,2,0,B|8:212|31:135|31:135|66:97,2,180,0|0|4,1:0|1:0|3:0,0:0:0:0:
189,314,146523,2,0,P|241:319|306:280,1,120,0|0,1:0|1:0,0:0:0:0:
320,169,147273,6,0,B|335:79|426:63|426:63|525:63,2,240,4|0|0,0:0|0:0|0:0,0:0:0:0:
300,287,149148,1,8,0:0:0:0:
190,335,149523,2,0,L|123:335,2,60,0|0|8,0:0|0:0|0:0,0:0:0:0:
206,215,150273,5,0,0:0:0:0:
266,111,150648,2,0,P|307:91|387:93,1,120,8|0,0:0|0:0,0:0:0:0:
456,183,151398,1,8,0:0:0:0:
456,183,151585,6,0,B|475:256|429:303|429:303|361:303,1,180,0|8,0:0|0:0,0:0:0:0:
319,292,152335,2,0,P|252:278|132:300,1,180,0|8,0:0|0:0,0:0:0:0:
43,227,153273,6,0,B|8:133|8:133|9:89|40:48|120:50,1,240
222,44,154398,1,8,0:0:0:0:
222,44,154585,6,0,P|246:99|246:223,1,180,0|8,0:0|0:0,0:0:0:0:
222,335,155523,1,0,0:0:0:0:
342,335,155898,1,8,0:0:0:0:
413,238,156273,6,0,B|447:168|447:168|433:111|359:107,2,180,0|0|0,1:0|0:0|1:0,0:0:0:0:
378,286,157585,2,0,P|287:330|206:308,1,180,0|0,1:0|1:0,0:0:0:0:
123,233,158523,1,0,1:0:0:0:
186,129,158898,1,0,1:0:0:0:
186,129,159273,6,0,P|262:206|204:318,2,240,4|0|0,0:0|0:0|0:0,0:0:0:0:
56,128,161148,1,8,0:0:0:0:
11,241,161523,2,0,L|11:313,2,60,0|0|8,0:0|0:0|0:0,0:0:0:0:
32,119,162273,5,0,0:0:0:0:
138,61,162648,1,8,0:0:0:0:
257,61,163023,1,0,0:0:0:0:
358,124,163398,1,8,0:0:0:0:
358,124,163585,6,0,B|379:168|379:168|379:235|314:283,1,180,0|8,0:0|0:0,0:0:0:0:
199,288,164523,2,0,P|122:288|68:308,2,120,0|8|4,0:0|0:0|0:0,0:0:0:0:
305,237,165648,5,0,0:0:0:0:
420,262,166023,1,0,1:0:0:0:
485,163,166398,6,0,P|485:119|460:83,1,90.0000034332277
350,41,167148,1,0,0:0:0:0:
241,83,167523,2,0,P|215:119|216:163,1,90.0000034332277,0|0,1:0|0:0,0:0:0:0:
250,279,168273,5,0,0:0:0:0:
149,344,168648,1,0,1:0:0:0:
48,278,169023,2,0,P|29:215|72:153,1,120,0|0,1:0|0:0,0:0:0:0:
149,98,169773,2,0,L|149:35,2,60,4|4|8,3:0|3:0|3:0,0:0:0:0:
225,190,170523,1,0,1:0:0:0:
225,190,170710,2,0,P|279:218|350:203,1,120,0|0,1:0|1:0,0:0:0:0:
385,179,171273,6,0,P|414:101|345:40,1,180.000006866455,4|8,0:0|0:0,0:0:0:0:
235,25,172398,1,0,0:0:0:0:
235,25,172585,2,0,P|170:40|119:84,1,135.000005149841
63,187,173523,1,8,0:0:0:0:
109,294,173898,1,0,0:0:0:0:
222,320,174273,6,0,B|300:320|300:320|331:278|397:278,1,180.000006866455,0|8,0:0|0:0,0:0:0:0:
478,202,175398,2,0,L|478:142,1,45.0000017166138
323,72,176148,2,0,P|275:74|228:106,2,90.0000034332277,0|8|0,0:0|0:0|0:0,0:0:0:0:
415,135,177273,6,0,P|434:200|408:263,1,135.000005149841,4|0,0:0|0:0,0:0:0:0:
368,301,178023,1,8,0:0:0:0:
258,343,178398,1,0,0:0:0:0:
148,301,178773,2,0,P|114:270|108:214,2,90.0000034332277,0|0|8,0:0|0:0|0:0,0:0:0:0:
258,262,179898,1,0,0:0:0:0:
342,176,180273,6,0,B|343:73|245:54|245:54|152:54,2,240,0|0|0,0:0|0:0|0:0,0:0:0:0:
300,288,182148,1,0,1:0:0:0:
186,327,182523,1,0,1:0:0:0:
81,267,182898,2,0,P|48:210|49:155,1,120,0|4,0:0|0:0,0:0:0:0:
302,81,195273,6,0,P|391:82|441:116,2,135.000005149841,4|0|0,0:0|0:0|0:0,0:0:0:0:
196,131,196773,2,0,P|107:130|57:96,2,135.000005149841,0|0|0,0:0|0:0|0:0,0:0:0:0:
293,196,198273,2,0,P|292:285|258:335,2,135.000005149841,0|0|0,0:0|0:0|0:0,0:0:0:0:
300,78,199773,5,0,0:0:0:0:
300,78,199960,2,0,P|376:89|419:136,1,135.000005149841
419,245,200898,1,0,0:0:0:0:
419,245,201273,6,0,P|345:303|305:292,1,120,0|8,0:0|0:0,0:0:0:0:
269,281,201835,2,0,P|197:258|86:290,1,180,0|8,0:0|0:0,0:0:0:0:
28,183,202773,2,0,P|35:91|128:56,2,180,0|0|8,0:0|0:0|0:0,0:0:0:0:
112,265,204273,5,4,0:0:0:0:
227,298,204648,1,0,1:0:0:0:
342,265,205023,2,0,P|402:192|399:97,2,180,0|0|0,1:0|1:0|1:0,0:0:0:0:
256,180,206523,2,0,P|200:146|134:154,1,120,0|0,0:0|1:0,0:0:0:0:
173,266,207273,5,4,0:0:0:0:
256,180,207648,1,0,1:0:0:0:
361,122,208023,2,0,B|423:81|482:112|482:112|482:178,2,180,0|0|4,1:0|1:0|3:0,0:0:0:0:
256,181,209523,2,0,P|185:204|131:198,1,120,0|0,1:0|1:0,0:0:0:0:
347,78,210648,6,0,P|392:138|392:202,1,120,4|0,0:0|1:0,0:0:0:0:
384,239,211210,2,0,B|348:290|348:290|280:291,1,120,0|4,1:0|0:0,0:0:0:0:
230,280,211773,6,0,P|185:220|185:156,1,120,0|8,0:0|0:0,0:0:0:0:
247,77,212523,2,0,L|247:16,2,60,0|0|8,0:0|0:0|0:0,0:0:0:0:
181,177,213273,5,0,0:0:0:0:
95,92,213648,1,8,0:0:0:0:
95,211,214023,2,0,P|173:271|256:233,2,180,0|0|8,0:0|0:0|0:0,0:0:0:0:
95,150,215335,2,0,P|173:90|256:128,1,180,0|8,0:0|0:0,0:0:0:0:
331,195,216273,6,0,B|456:194|456:194|495:148|460:64,2,240,4|0|0,0:0|0:0|0:0,0:0:0:0:
226,254,218148,1,8,0:0:0:0:
331,311,218523,2,0,L|453:311,1,120,0|8,0:0|0:0,0:0:0:0:
478,193,219273,6,0,B|478:140|478:140|478:92|439:63|388:71,2,180,0|0|0,0:0|0:0|1:0,0:0:0:0:
457,249,220585,2,0,P|379:296|283:272,1,180,0|0,1:0|1:0,0:0:0:0:
180,246,221523,1,0,1:0:0:0:
95,330,221898,1,0,1:0:0:0:
68,215,222273,6,0,B|21:125|67:45|67:45|147:45,2,240,4|0|0,0:0|0:0|0:0,0:0:0:0:
156,296,224148,1,8,0:0:0:0:
272,324,224523,2,0,L|350:324,2,60,0|0|8,0:0|0:0|0:0,0:0:0:0:
156,296,225273,5,0,0:0:0:0:
194,182,225648,1,8,0:0:0:0:
291,111,226023,2,0,P|357:77|465:102,1,180,0|0,0:0|0:0,0:0:0:0:
468,276,227148,5,8,0:0:0:0:
366,339,227523,2,0,P|305:351|242:332,2,120,0|8|4,0:0|0:0|0:0,0:0:0:0:
396,226,228648,5,0,0:0:0:0:
396,226,229023,2,0,P|401:173|392:132,1,90.0000034332277,0|0,1:0|0:0,0:0:0:0:
300,67,229773,5,0,0:0:0:0:
184,83,230148,1,0,0:0:0:0:
90,153,230523,2,0,P|66:193|66:236,1,90.0000034332277,0|0,1:0|0:0,0:0:0:0:
153,317,231273,6,0,P|216:337|272:322,1,120,0|0,0:0|1:0,0:0:0:0:
364,254,232023,2,0,P|406:162|384:71,2,180,0|0|8,1:0|1:0|3:0,0:0:0:0:
267,325,233523,1,4,3:0:0:0:
267,325,233710,2,0,P|196:323|127:242,1,180,4|4,3:0|0:0,0:0:0:0:
121,125,234648,5,8,0:0:0:0:
221,59,235023,2,0,P|287:69|337:168,2,180,0|0|8,0:0|0:0|0:0,0:0:0:0:
122,125,236523,1,0,0:0:0:0:
132,244,236898,1,8,0:0:0:0:
227,316,237273,6,0,P|302:332|357:314,1,120,0|8,0:0|0:0,0:0:0:0:
435,245,238023,2,0,B|489:203|483:137|483:137|421:137,2,180,0|0|8,0:0|0:0|0:0,0:0:0:0:
325,294,239523,2,0,P|261:300|198:269,1,120,0|8,0:0|0:0,0:0:0:0:
118,205,240273,6,0,L|49:205,2,60,4|0|8,0:0|0:0|0:0,0:0:0:0:
207,125,241023,2,0,L|276:125,2,60,0|0|8,0:0|0:0|0:0,0:0:0:0:
118,205,241773,1,0,0:0:0:0:
207,285,242148,1,8,0:0:0:0:
323,313,242523,2,0,P|386:290|411:241,1,120,0|8,0:0|0:0,0:0:0:0:
434,128,243273,6,0,B|434:43|434:43|389:25|331:48,2,180,0|0|8,0:0|0:0|0:0,0:0:0:0:
366,227,244773,2,0,P|306:258|231:258,1,120,0|8,0:0|0:0,0:0:0:0:
135,244,245523,2,0,L|64:244,2,60,0|0|8,0:0|0:0|0:0,0:0:0:0:
207,148,246273,5,0,0:0:0:0:
306,81,246648,1,0,0:0:0:0:
405,148,247023,2,0,P|427:237|384:319,1,180,0|0,0:0|0:0,0:0:0:0:
272,338,247960,2,0,L|204:338,1,60,4|4,0:0|0:0,0:0:0:0:
256,192,248241,12,0,252273,0:0:0:0:
