osu file format v9

[General]
AudioFilename: yume.mp3
AudioLeadIn: 0
PreviewTime: 69265
Countdown: 0
SampleSet: Soft
StackLeniency: 0.7
Mode: 0
LetterboxInBreaks: 0

[Editor]
Bookmarks: 21865,36265,50665,69565,87565,105565,119965,134365,153265,169465
DistanceSpacing: 0.8
BeatDivisor: 3
GridSize: 4

[Metadata]
Title:Yume no Dori Michi
Artist:Duca
Creator:Mystica
Version:Normal
Source:
Tags:

[Difficulty]
HPDrainRate:2
CircleSize:3
OverallDifficulty:2
ApproachRate:5
SliderMultiplier:0.9
SliderTickRate:1

[Events]
//Background and Video events
0,0,"bg.jpg"
//Break Periods
2,87765,102565
//Storyboard Layer 0 (Background)
//Storyboard Layer 1 (Fail)
//Storyboard Layer 2 (Pass)
//Storyboard Layer 3 (Foreground)
//Storyboard Sound Samples
//Background Colour Transformations
3,100,163,162,255

[TimingPoints]
265,300,3,1,0,100,1,0
3865,-100,3,2,0,60,0,0
4165,-100,3,2,1,70,0,0
7465,-100,3,2,0,60,0,0
7765,-100,3,2,1,70,0,0
11065,-100,3,2,0,60,0,0
11365,-100,3,2,1,70,0,0
14665,-100,3,2,0,60,0,0
14765,-100,3,2,1,70,0,0
21865,-100,3,2,2,45,0,0
22765,-100,3,2,2,45,0,0
29065,-100,3,2,1,45,0,0
29965,-100,3,2,2,45,0,0
36265,-100,3,1,2,65,0,0
45765,-100,3,2,2,65,0,0
45965,-100,3,1,2,65,0,0
50665,-100,3,2,0,45,0,0
50765,-100,3,2,1,65,0,0
57865,-100,3,2,0,60,0,0
57965,-100,3,2,1,80,0,0
61465,-100,3,2,0,40,0,0
62365,-100,3,2,1,60,0,0
63265,-100,3,2,0,45,0,0
64165,-100,3,2,1,70,0,0
65065,-100,3,2,0,50,0,0
65965,-100,3,2,1,80,0,0
68665,-100,3,2,0,40,0,0
69565,-100,3,2,0,60,0,0
69665,-100,3,2,1,80,0,0
76765,-100,3,2,0,60,0,0
76865,-100,3,2,1,80,0,0
80365,-100,3,2,0,60,0,0
80465,-100,3,2,1,80,0,0
87565,-100,3,2,0,50,0,0
106465,-100,3,2,2,45,0,0
112765,-100,3,2,1,45,0,0
113665,-100,3,2,2,45,0,0
119965,-100,3,1,2,65,0,0
129465,-100,3,2,2,65,0,0
129665,-100,3,1,2,65,0,0
134365,-100,3,2,0,45,0,0
134465,-100,3,2,1,65,0,0
141565,-100,3,2,0,45,0,0
141665,-100,3,2,1,65,0,0
145165,-100,3,2,0,40,0,0
146065,-100,3,2,1,60,0,0
146965,-100,3,2,0,45,0,0
147865,-100,3,2,1,70,0,0
148765,-100,3,2,0,50,0,0
149665,-100,3,2,1,80,0,0
152365,-100,3,2,0,40,0,0
153265,-100,3,2,0,60,0,0
153365,-100,3,2,1,80,0,0
160465,-100,3,2,0,60,0,0
160565,-100,3,2,1,80,0,0
164065,-100,3,2,0,60,0,0
164165,-100,3,2,1,80,0,0

[Colours]
Combo1 : 128,255,255
Combo2 : 192,192,192
Combo3 : 128,255,128

[HitObjects]
80,80,3865,1,4
152,80,4165,1,12
224,80,4465,1,12
304,200,5065,1,12
232,200,5365,1,12
144,316,5965,1,12
216,316,6265,1,12
360,316,6865,2,0,B|460:316,2,90,12|12|4
356,172,8065,5,12
212,176,8665,2,0,B|212:288,1,90,12|12
100,176,9565,2,0,B|100:64,2,90,12|12|8
260,60,11065,5,4
332,60,11365,1,12
404,60,11665,1,12
332,180,12265,1,12
260,180,12565,1,12
168,292,13165,1,12
240,292,13465,1,12
384,296,14065,1,12
448,260,14365,1,12
468,192,14665,6,0,B|480:84|392:28,1,180,4|12
260,48,15865,1,12
196,84,16165,1,12
176,152,16465,2,0,B|164:260|252:316,1,180,8|12
316,312,17365,2,0,B|504:312,1,180,8|12
472,168,18565,5,12
432,108,18865,1,12
288,88,19465,1,12
328,148,19765,1,12
256,192,20065,12,4,21865
172,124,22765,5,0
272,84,23665,1,0
320,180,24565,1,0
220,220,25465,5,0
124,272,26365,1,0
28,316,27265,2,0,B|0:176|48:32,1,270
144,84,29065,5,2
244,44,29965,1,0
292,140,30865,1,0
192,180,31765,1,0
244,276,32665,5,0
348,308,33565,1,0
452,328,34465,2,0,B|484:192|428:40,1,270
220,48,36265,5,6
60,192,37165,1,10
224,332,38065,1,10
368,332,38665,2,0,B|472:332,1,90,2|10
480,116,39865,5,10
336,136,40465,2,0,B|304:240,1,90,2|10
168,200,41365,2,0,B|132:304,1,90,2|10
56,168,42265,2,0,B|96:64,1,90,2|10
232,76,43165,5,2
232,148,43465,1,6
356,220,44065,1,2
356,292,44365,1,10
140,296,45265,1,10
76,264,45565,2,0,B|32:184|72:84,1,180,2|10
280,44,47065,5,10
404,116,47665,1,2
468,152,47965,1,10
296,284,48865,1,10
172,212,49465,1,2
108,176,49765,1,10
288,56,50665,6,0,B|336:48|400:56,2,90,4|12|12
144,60,51865,1,12
72,60,52165,1,12
168,168,52765,1,12
240,168,53065,1,12
288,304,53665,1,12
360,304,53965,1,12
432,304,54265,6,0,B|440:240|428:188,2,90,8|12|12
324,212,55465,2,0,B|316:164|324:96,1,90,12|12
176,124,56365,1,12
108,148,56665,1,12
116,220,56965,1,8
184,240,57265,1,12
224,180,57565,1,12
176,124,57865,6,0,B|144:88|120:40,2,90,4|12|12
320,112,59065,2,0,B|352:148|376:196,1,90,12|12
240,248,59965,1,12
168,264,60265,1,12
120,128,60865,1,12
184,96,61165,1,12
256,80,61465,5,4
452,172,62365,2,0,B|452:276,1,90,8|12
320,316,63265,5,4
132,212,64165,2,0,B|132:108,1,90,8|12
256,48,65065,5,4
256,260,65965,2,0,B|256:364,1,90,8|12
256,192,66865,12,4,68665
308,44,69565,6,0,B|432:24|464:136,1,180,4|10
456,188,70465,1,8
436,256,70765,1,14
368,280,71065,1,14
256,188,71665,1,14
192,152,71965,1,14
52,184,72565,1,14
48,256,72865,1,14
88,316,73165,6,0,B|212:336|244:224,1,180,8|10
328,136,74365,1,14
328,136,74665,1,14
436,232,75265,1,14
436,232,75565,1,14
344,340,76165,1,14
272,340,76465,1,14
204,340,76765,6,0,B|80:360|48:248,1,180,4|10
52,124,77965,1,14
52,52,78265,1,14
172,128,78865,1,14
172,200,79165,1,14
316,200,79765,1,14
316,272,80065,1,14
320,344,80365,6,0,B|408:344,2,90,4|14|14
188,284,81565,2,0,B|88:284,1,90,14|14
156,152,82465,2,0,B|256:152,1,90,14|14
332,36,83365,2,0,B|432:36,1,90,14|14
424,180,84265,1,14
352,180,84565,1,14
280,180,84865,2,0,B|92:180,1,180,8|10
256,192,85765,12,4,87565
256,192,103765,12,4,105565
376,112,106465,5,0
268,112,107365,1,0
160,112,108265,1,0
108,208,109165,5,0
184,288,110065,1,0
288,320,110965,2,0,B|448:336|492:164,1,270
484,72,112765,5,2
376,72,113665,1,0
268,76,114565,1,0
160,76,115465,1,0
96,164,116365,5,0
164,248,117265,1,0
104,340,118165,2,0,B|376:340,1,270
460,144,119965,5,6
264,56,120865,1,10
188,260,121765,1,10
320,320,122365,2,0,B|424:364,1,90,2|10
460,144,123565,5,10
320,176,124165,2,0,B|320:288,1,90,2|10
176,244,125065,2,0,B|176:352,1,90,2|10
60,248,125965,2,0,B|60:136,1,90,2|10
184,84,126865,5,2
256,84,127165,1,6
356,188,127765,1,2
428,188,128065,1,10
328,292,128665,1,2
256,292,128965,1,10
184,292,129265,2,0,B|64:312|36:192,1,180,2|10
200,68,130765,5,10
344,68,131365,1,2
416,68,131665,1,10
308,256,132565,1,10
164,256,133165,1,2
92,256,133465,1,10
296,192,134365,6,0,B|348:184|396:232,2,90,4|12|12
152,168,135565,2,0,B|100:176|52:128,1,90,12|12
68,288,136465,1,12
128,328,136765,1,12
272,320,137365,1,12
332,280,137665,1,12
380,228,137965,6,0,B|444:236|496:224,2,90,8|12|12
304,108,139165,2,0,B|260:100|192:112,1,90,12|12
104,204,140065,1,12
76,268,140365,1,12
116,328,140665,1,8
188,320,140965,1,12
216,252,141265,1,12
168,196,141565,6,0,B|152:152|176:96,2,90,4|12|12
272,96,142765,1,12
344,84,143065,1,12
436,196,143665,1,12
364,208,143965,1,12
288,328,144565,1,12
216,340,144865,1,12
144,356,145165,5,4
88,148,146065,2,0,B|88:44,1,90,8|12
232,56,146965,5,4
404,188,147865,2,0,B|404:292,1,90,8|12
256,312,148765,5,4
256,124,149665,2,0,B|256:20,1,90,8|12
256,192,150565,12,4,152365
208,316,153265,6,0,B|84:336|52:224,1,180,4|10
52,172,154165,1,8
88,108,154465,1,14
156,84,154765,1,14
260,184,155365,1,14
328,204,155665,1,14
468,172,156265,1,14
480,100,156565,1,14
432,48,156865,6,0,B|340:28|232:52,1,180,8|10
116,92,158065,1,14
116,92,158365,1,14
56,224,158965,1,14
56,224,159265,1,14
124,352,159865,1,14
196,352,160165,1,14
268,352,160465,6,0,B|448:352,1,180,4|10
448,208,161665,1,14
376,208,161965,1,14
368,64,162565,1,14
296,64,162865,1,14
296,208,163465,1,14
224,208,163765,1,14
152,208,164065,6,0,B|64:208,2,90,4|14|14
268,296,165265,2,0,B|352:340,1,90,14|14
328,196,166165,2,0,B|244:152,1,90,14|14
364,72,167065,2,0,B|448:116,1,90,14|14
444,256,167965,1,14
380,228,168265,1,14
312,204,168565,2,0,B|124:204,1,180,8|10
256,192,169465,12,0,171865
