osu file format v13

[General]
AudioFilename: I'm a cake.mp3
AudioLeadIn: 2000
PreviewTime: 519564
Countdown: 1
SampleSet: Soft
StackLeniency: 0.7
Mode: 0
LetterboxInBreaks: 1
WidescreenStoryboard: 0

[Editor]
Bookmarks: 592248
DistanceSpacing: 1.2
BeatDivisor: 4
GridSize: 8
TimelineZoom: 1.6

[Metadata]
Title:Songs Compilation
TitleUnicode:Songs Compilation
Artist:Duca
ArtistUnicode:Duca
Creator:Natsu
Version:Marathon
Source:
Tags:Kodora KSHR Gero Xinely KantoKun P A N p_a_n Ai no Niwa Revolution Ironna Katachi Niflheimr Snow wish Shiawase Teigi Shiawase no Otoshimono Kokoro no Tane Kanransha ~ Anohi to Kinou to Kyou to Ashita to ~ Futari Iro Clover Amaoto Welcome Berry's Cold butterfly Ashita Tenkini Naare Full Throttle Heart xXCrystalMoonAnimeXx Garden Koiiro Soramoyou Kono Oozora ni, Tsubasa wo Hirogete FLIGHT DIARY Imouto no Kouyoku no Soleil -vii's World- Duelist x Engage Kanojo to Ore to Koibito to. your diary+ CAFE SOURIRE DANDELION Koiiro Soramoyou your diary Amesarasa ~Ame to, Fushigi na Kimi ni, Koi wo Suru~ Sei Shoujo ~Seido Ikusei Gakuen~ Nettai Teikiatsu Shoujo Koiiro Soramoyou after happiness and extra hearts hentai eroge visual novel Kanari AiRI
BeatmapID:425916
BeatmapSetID:143216

[Difficulty]
HPDrainRate:7
CircleSize:4
OverallDifficulty:7
ApproachRate:9
SliderMultiplier:1.8
SliderTickRate:2

[Events]
//Background and Video events
0,0,"kawaiicutemoebg.jpg",0,0
//Break Periods
2,47360,56801
2,88842,94785
2,137185,143140
2,175222,180095
2,209529,215193
2,253540,260166
2,300079,305852
2,343462,348628
2,403881,409180
2,442208,447142
2,512176,519008
2,556357,562172
2,585645,590292
2,625560,631391
2,694085,695654
2,696612,698022
2,702927,708073
2,751831,756741
//Storyboard Layer 0 (Background)
//Storyboard Layer 1 (Fail)
//Storyboard Layer 2 (Pass)
//Storyboard Layer 3 (Foreground)
//Storyboard Sound Samples
//Background Colour Transformations
3,100,163,162,255

[TimingPoints]
1390,500,3,2,0,60,1,0
38890,526.315789473684,3,2,0,60,1,0
40468,545.454545454546,3,2,0,60,1,0
41558,500,3,2,0,60,1,0
42058,545.454545454546,3,2,0,60,1,0
43148,600,3,2,0,60,1,0
43748,500,3,2,0,60,1,0
44748,545.454545454546,3,2,0,60,1,0
46400,600,3,2,0,60,1,0
46714,952.380952380952,3,2,0,60,1,0
47160,800,3,2,0,60,1,0
47588,666.666666666667,3,2,0,60,1,0
48254,705.882352941176,3,2,0,60,1,0
48606,888.888888888889,3,2,0,60,1,0
49050,1034.48275862069,3,2,0,60,1,0
57401,413.793103448276,4,1,1,60,1,0
58332,-100,4,1,1,55,0,0
58538,-100,4,1,1,60,0,0
58745,-100,4,1,1,65,0,0
58952,-100,4,1,1,70,0,0
64176,-100,4,1,1,60,0,0
83883,-166.666666666667,4,1,1,60,0,0
83987,-166.666666666667,4,1,1,30,0,0
84504,-100,4,1,1,60,0,0
84608,-100,4,1,1,50,0,0
84711,-100,4,1,1,60,0,0
85021,-100,4,1,1,50,0,0
85228,-100,4,1,1,60,0,0
85745,-100,4,1,1,50,0,0
85849,-100,4,1,1,40,0,0
85952,-100,4,1,1,60,0,0
87194,-100,4,1,1,50,0,0
87607,-100,4,1,0,40,0,0
88021,-100,4,1,0,30,0,0
88435,-100,4,1,0,20,0,0
88642,-100,4,1,0,5,0,0
95385,400,4,2,7,50,1,0
112585,-133.333333333333,4,2,7,50,0,0
113985,-100,4,2,7,50,0,0
114585,-100,4,2,7,55,0,0
116685,-100,4,2,7,50,0,0
126785,-100,4,2,7,60,0,0
130685,-100,4,2,7,10,0,0
143740,512.820512820513,4,2,0,55,1,0
172586,-100,4,2,0,25,0,0
175022,-100,4,2,0,5,0,0
180695,377.358490566038,4,2,39,50,1,0
182204,-100,4,2,39,60,0,0
185034,-100,4,2,39,50,0,0
185128,-100,4,2,39,60,0,0
186732,-100,4,2,43,75,0,0
186827,-100,4,2,39,60,0,0
189706,377.358490566038,4,2,39,60,1,0
190461,-100,4,2,43,75,0,0
190555,-100,4,2,39,60,0,0
191216,-100,4,2,43,75,0,0
191309,-100,4,2,39,60,0,0
192630,-100,4,2,39,35,0,0
192725,-100,4,2,39,60,0,0
195743,-100,4,2,43,75,0,0
195838,-100,4,2,39,60,0,0
198007,-100,4,2,43,75,0,0
198102,-100,4,2,39,60,0,0
198196,-100,4,2,39,30,0,0
198290,-100,4,2,39,60,0,0
198763,-100,4,2,43,75,0,0
198856,-100,4,2,39,60,0,0
202159,-100,4,2,43,75,0,0
202253,-100,4,2,39,60,0,0
203102,-100,4,2,43,75,0,0
203196,-100,4,2,39,60,0,0
204045,-100,4,2,43,75,0,0
204139,-100,4,2,39,60,0,0
207819,-100,4,2,43,75,0,0
209328,-100,4,2,43,5,0,0
215793,377.358490566038,4,2,1,70,1,0
260766,379.746835443038,4,1,0,100,1,0
260766,-108.695652173913,4,2,7,60,0,0
273868,-108.695652173913,4,2,7,30,0,0
274248,-108.695652173913,4,2,7,60,0,0
292855,-108.695652173913,4,2,7,30,0,0
292950,-108.695652173913,4,2,7,60,0,0
306452,368.098159509202,4,2,56,50,1,0
307740,-100,4,2,56,70,0,0
316943,-100,4,2,56,55,0,0
317679,-100,4,2,56,70,0,0
333691,-125,4,2,56,70,0,0
341789,-125,4,2,56,30,0,0
343262,-125,4,2,56,5,0,0
349228,504.201680672269,4,2,0,50,1,0
349228,-90.9090909090909,4,2,0,60,0,0
399522,-90.9090909090909,4,2,0,20,0,0
403681,-90.9090909090909,4,2,0,5,0,0
409780,342.857142857143,4,1,1,50,1,0
440037,-100,4,2,1,30,0,0
440980,-100,4,2,1,20,0,0
441665,-100,4,2,1,10,0,0
442008,-100,4,2,1,5,0,0
447742,352.941176470588,4,2,99,30,1,0
448094,-100,4,2,99,40,0,0
448447,-100,4,2,99,50,0,0
449153,-100,4,2,99,60,0,0
452683,-66.6666666666667,4,2,99,30,0,0
452859,-80,4,2,99,30,0,0
453036,-100,4,2,99,30,0,0
453212,-133.333333333333,4,2,99,30,0,0
453389,-133.333333333333,4,2,99,60,0,0
456212,-100,4,2,99,60,0,0
457624,-80,4,2,99,60,0,0
460447,-133.333333333333,4,2,99,60,0,0
472094,-200,4,2,99,20,0,0
473859,352.941176470588,4,2,99,60,1,0
475976,-133.333333333333,4,2,99,60,0,0
476329,-117.647058823529,4,2,99,60,0,0
476682,-100,4,2,99,60,0,0
484447,-100,4,2,99,30,0,0
485153,-100,4,2,99,60,0,0
495741,-66.6666666666667,4,2,99,30,0,0
495917,-80,4,2,99,30,0,0
496094,-100,4,2,99,30,0,0
496270,-133.333333333333,4,2,99,30,0,0
496447,-133.333333333333,4,2,99,50,0,0
519608,422.535211267606,4,1,0,100,1,0
519608,-113.636363636364,4,2,7,50,0,0
545910,-113.636363636364,4,2,7,30,0,0
546227,-113.636363636364,4,2,7,50,0,0
546333,-113.636363636364,4,2,7,30,0,0
546650,-113.636363636364,4,2,7,50,0,0
560679,697.674418604651,4,1,1,25,1,0
562772,-44.4444444444445,4,1,1,25,0,0
562888,-40,4,1,1,25,0,0
563004,-15.015015015015,4,1,1,25,0,0
563469,-66.6666666666667,4,2,7,60,0,0
573120,-66.6666666666667,4,1,1,40,0,0
573817,-66.6666666666667,4,2,1,60,0,0
579515,-66.6666666666667,4,2,1,60,0,0
583934,-66.6666666666667,4,2,7,5,0,0
590892,319.148936170213,4,2,1,30,1,0
590971,-100,4,2,11,30,0,0
591530,-100,4,2,11,40,0,0
591769,-100,4,2,11,50,0,0
592088,-100,4,2,11,60,0,0
592487,-100,4,2,11,70,0,0
597913,-100,4,2,11,60,0,0
597993,-100,4,2,11,70,0,0
608046,-100,4,2,11,60,0,0
608205,-100,4,2,11,70,0,0
610759,-100,4,2,1,50,0,0
610918,-100,4,2,11,70,0,0
611157,-133.333333333333,4,2,1,60,0,0
611397,-133.333333333333,4,2,11,40,0,0
612673,-133.333333333333,4,2,11,30,0,0
612833,-133.333333333333,4,2,11,40,0,0
614269,-133.333333333333,4,2,11,30,0,0
614429,-133.333333333333,4,2,11,40,0,0
615067,-133.333333333333,4,2,11,50,0,0
616344,-133.333333333333,4,2,1,50,0,0
616503,-133.333333333333,4,2,11,50,0,0
618897,-100,4,2,11,50,0,0
620173,-100,4,2,11,60,0,0
621370,-100,4,2,11,50,0,0
621450,-100,4,2,11,60,0,0
622567,-133.333333333333,4,2,11,50,0,0
622727,-133.333333333333,4,2,11,40,0,0
623445,-133.333333333333,4,2,11,60,0,0
623524,-100,4,2,11,50,0,0
623684,-100,4,2,11,40,0,0
624003,-100,4,2,1,50,0,0
624322,-100,4,2,1,30,0,0
624721,-100,4,2,1,20,0,0
625040,-100,4,2,1,10,0,0
625360,-100,4,2,1,5,0,0
631991,315.789473684211,4,1,1,50,1,0
643280,-100,4,2,1,30,0,0
644622,-100,4,2,0,15,0,0
645412,-125,4,2,1,60,0,0
662069,-125,4,2,1,30,0,0
662148,-125,4,2,1,60,0,0
662385,-125,4,2,1,30,0,0
662464,-125,4,2,1,60,0,0
663569,-100,4,1,1,60,0,0
680069,-100,4,1,1,30,0,0
680148,-100,4,1,1,60,0,0
680385,-100,4,1,1,30,0,0
680464,-100,4,1,1,60,0,0
680701,-100,4,1,1,30,0,0
680780,-100,4,1,1,60,0,0
681017,-100,4,1,1,30,0,0
681096,-100,4,1,1,50,0,0
690885,-133.333333333333,4,1,1,50,0,0
691201,-133.333333333333,4,2,1,35,0,0
691438,-133.333333333333,4,2,1,30,0,0
693727,-133.333333333333,4,1,1,50,0,0
698622,-100,4,1,1,50,0,0
700359,-100,4,2,1,40,0,0
701464,-100,4,2,1,30,0,0
702096,-100,4,2,1,15,0,0
702727,-100,4,2,1,5,0,0
708673,355.029585798817,4,2,88,70,1,0
734235,-133.333333333333,4,2,88,70,0,0
737075,-100,4,2,88,70,0,0
749767,-100,4,2,88,30,0,0
750566,-100,4,2,88,15,0,0
751631,-100,4,2,88,5,0,0
756652,344.827586206897,4,1,0,100,1,0
757341,-100,4,2,1,50,0,0
759238,-100,4,2,1,60,0,0
774065,-100,4,1,1,40,0,0
774583,-100,4,2,1,60,0,0
780272,-100,4,2,1,80,0,0
781824,-100,4,2,1,65,0,0
782169,-100,4,2,1,45,0,0
783031,-100,4,1,0,85,0,0
783117,-100,4,1,1,50,0,0
783548,-100,4,1,0,85,0,0
783634,-100,4,1,1,50,0,0
784065,-100,4,1,0,85,0,0
784152,-100,4,2,1,50,0,0
784927,-100,4,2,1,40,0,0
785617,-100,4,2,1,30,0,0
786307,-100,4,2,1,20,0,0
786996,-100,4,2,1,10,0,0
787858,-100,4,2,1,5,0,0

[Colours]
Combo1 : 255,126,64
Combo2 : 254,16,123
Combo3 : 70,163,255
Combo4 : 255,255,255
Combo5 : 160,228,58
Combo6 : 0,64,128
Combo7 : 255,17,17
Combo8 : 165,74,255

[HitObjects]
51,115,890,5,0,0:0:0:0:
159,280,1390,2,0,P|249:290|283:199,1,180,2|0,0:0|0:0,0:0:0:0:
260,125,2140,1,0,0:0:0:0:
340,67,2390,1,0,0:0:0:0:
433,100,2640,1,0,0:0:0:0:
453,196,2890,2,0,P|421:297|459:364,2,180,2|0|0,0:0|0:0|0:0,0:0:0:0:
304,326,4390,6,0,P|243:349|144:325,1,135,2|0,0:0|0:0,0:0:0:0:
135,310,4890,2,0,P|86:319|46:349,1,90
0,263,5390,1,0,0:0:0:0:
29,168,5640,1,0,0:0:0:0:
125,146,5890,2,0,P|152:116|164:64,2,90,2|0|0,0:0|0:0|0:0,0:0:0:0:
103,243,6640,1,0,0:0:0:0:
153,328,6890,6,0,C|194:349|259:352,1,90,0|0,0:0|0:0,0:0:0:0:
338,247,7390,2,0,L|367:60,2,180,2|0|0,0:0|0:0|0:0,0:0:0:0:
159,331,8890,1,2,0:0:0:0:
75,297,9140,1,0,0:0:0:0:
42,213,9390,1,0,0:0:0:0:
72,128,9640,1,0,0:0:0:0:
145,76,9890,6,0,P|194:77|242:114,1,90,0|0,0:0|0:0,0:0:0:0:
467,60,10390,2,0,P|385:85|295:37,2,180,2|0|0,0:0|0:0|0:0,0:0:0:0:
423,334,11890,5,2,0:0:0:0:
369,261,12140,1,0,0:0:0:0:
370,171,12390,1,0,0:0:0:0:
433,107,12640,1,0,0:0:0:0:
370,171,12890,6,0,P|324:186|270:152,1,90
41,230,13390,2,0,P|135:205|213:243,2,180,2|0|0,0:0|0:0|0:0,0:0:0:0:
463,130,14890,1,2,0:0:0:0:
414,205,15140,1,0,0:0:0:0:
324,200,15390,1,0,0:0:0:0:
290,116,15640,1,0,0:0:0:0:
342,43,15890,1,0,0:0:0:0:
382,123,16140,1,0,0:0:0:0:
252,271,16390,6,0,P|165:301|80:242,2,180,2|0|0,0:0|0:0|0:0,0:0:0:0:
190,101,17890,1,2,0:0:0:0:
188,190,18140,1,0,0:0:0:0:
110,143,18390,1,0,0:0:0:0:
115,53,18640,1,0,0:0:0:0:
195,12,18890,1,0,0:0:0:0:
268,64,19140,1,0,0:0:0:0:
326,196,19390,6,0,L|349:385,2,180,2|0|0,0:0|0:0|0:0,0:0:0:0:
150,239,20890,2,0,P|106:232|45:265,1,90,2|0,0:0|0:0,0:0:0:0:
223,275,21390,2,0,P|230:231|197:170,1,90
185,348,21890,2,0,P|229:355|290:322,1,90
355,224,22390,2,0,L|387:32,2,180,2|0|0,0:0|0:0|0:0,0:0:0:0:
128,47,23890,2,0,P|87:28|19:43,1,90,2|0,0:0|0:0,0:0:0:0:
188,101,24390,2,0,P|206:60|191:-7,1,90
131,161,24890,6,0,P|171:179|239:164,1,90
341,124,25390,2,0,P|389:116|449:144,1,90,2|0,0:0|0:0,0:0:0:0:
481,201,25890,1,0,0:0:0:0:
448,331,26140,1,0,0:0:0:0:
351,236,26390,1,0,0:0:0:0:
481,201,26640,1,0,0:0:0:0:
342,347,26890,6,0,P|272:378|165:319,2,180,2|0|0,0:0|0:0|0:0,0:0:0:0:
264,271,28140,1,0,0:0:0:0:
356,221,28390,2,0,B|357:190|333:164|333:164|356:135|368:84|328:24,1,180,2|0,0:0|0:0,0:0:0:0:
244,100,29140,1,0,0:0:0:0:
150,153,29390,1,0,0:0:0:0:
155,45,29640,1,0,0:0:0:0:
242,219,29890,2,0,P|232:317|156:355,1,180,2|0,0:0|0:0,0:0:0:0:
5,210,30890,5,0,0:0:0:0:
480,113,31390,1,2,0:0:0:0:
412,68,31640,1,0,0:0:0:0:
333,44,31890,1,0,0:0:0:0:
255,31,32140,1,0,0:0:0:0:
179,44,32390,1,0,0:0:0:0:
100,68,32640,1,0,0:0:0:0:
32,113,32890,5,2,0:0:0:0:
99,318,33390,1,0,0:0:0:0:
308,263,33890,1,0,0:0:0:0:
357,70,34390,6,0,P|406:75|454:52,2,90,2|0|0,0:0|0:0|0:0,0:0:0:0:
274,33,35140,2,0,P|225:28|177:51,2,90
288,122,35890,1,2,0:0:0:0:
288,122,36890,5,2,0:0:0:0:
406,302,37390,5,2,0:0:0:0:
330,344,37640,1,0,0:0:0:0:
333,260,37890,1,0,0:0:0:0:
333,260,38390,5,2,0:0:0:0:
151,127,38890,5,2,0:0:0:0:
152,39,39153,1,0,0:0:0:0:
72,82,39416,1,0,0:0:0:0:
72,82,39942,5,2,0:0:0:0:
294,75,40468,5,2,0:0:0:0:
499,117,41013,5,0,0:0:0:0:
446,336,41558,5,0,0:0:0:0:
252,293,42058,5,2,0:0:0:0:
380,200,42603,5,0,0:0:0:0:
380,200,43148,1,0,0:0:0:0:
297,215,43448,1,0,0:0:0:0:
276,135,43748,5,2,0:0:0:0:
276,135,44248,1,0,0:0:0:0:
261,51,44498,1,0,0:0:0:0:
189,94,44748,1,2,0:0:0:0:
189,94,45293,5,2,0:0:0:0:
167,121,45566,5,0,0:0:0:0:
156,151,45838,5,0,0:0:0:0:
148,182,46111,5,0,0:0:0:0:
151,216,46400,5,0,0:0:0:0:
160,250,46714,5,0,0:0:0:0:
172,278,47160,5,2,0:0:0:0:
482,126,57401,6,0,P|424:164|360:156,1,135,6|0,0:0|0:0,0:0:0:0:
362,157,57815,2,0,P|314:157|274:177,1,90,10|0,0:0|0:0,0:0:0:0:
340,252,58228,1,0,0:0:0:0:
340,252,58435,1,2,0:0:0:0:
412,88,58642,2,0,P|422:46|418:-6,1,90,10|2,0:0|0:0,0:0:0:0:
510,222,59056,6,0,P|500:264|504:316,1,90,2|0,0:0|0:0,0:0:0:0:
503,310,59366,2,0,L|457:301,1,45,0|10,0:0|0:0,0:0:0:0:
322,350,59677,2,0,L|286:320,1,45,0|2,0:0|0:0,0:0:0:0:
144,292,59987,2,0,L|128:248,1,45,0|2,0:0|0:0,0:0:0:0:
18,152,60297,1,10,0:0:0:0:
64,64,60504,1,0,0:0:0:0:
200,152,60711,6,0,B|248:156|284:128|284:128|280:176,1,135,2|0,0:0|0:0,0:0:0:0:
280,173,61125,2,0,P|323:159|371:163,1,90,8|0,0:0|0:0,0:0:0:0:
336,256,61539,1,2,0:0:0:0:
336,256,61642,1,0,0:0:0:0:
336,256,61746,1,0,0:0:0:0:
220,72,61952,2,0,P|196:64|128:68,1,90,10|0,0:0|0:0,0:0:0:0:
40,232,62366,6,0,P|64:240|132:236,1,90,2|0,0:0|0:0,0:0:0:0:
127,237,62677,2,0,L|120:288,1,45,0|10,0:0|0:0,0:0:0:0:
320,352,62987,1,2,0:0:0:0:
352,348,63090,1,2,0:0:0:0:
384,344,63194,1,0,0:0:0:0:
416,340,63297,1,2,0:0:0:0:
448,336,63401,1,0,0:0:0:0:
368,216,63608,1,10,0:0:0:0:
472,264,63814,1,0,0:0:0:0:
412,136,64021,6,0,P|340:128|284:176,1,135,6|0,0:0|0:0,0:0:0:0:
291,162,64435,2,0,L|300:72,1,90,10|0,0:0|0:0,0:0:0:0:
380,20,64849,1,0,0:0:0:0:
200,108,65056,1,0,0:0:0:0:
200,108,65159,1,0,0:0:0:0:
200,108,65263,1,10,0:0:0:0:
368,216,65470,2,0,P|372:260|364:304,1,90,0|6,0:0|0:2,0:0:0:0:
284,364,65883,5,0,0:0:0:0:
140,256,66090,1,10,0:0:0:0:
224,212,66297,1,0,0:0:0:0:
112,356,66504,1,2,0:0:0:0:
88,360,66608,1,2,0:0:0:0:
64,364,66711,1,0,0:0:0:0:
40,368,66814,1,0,0:0:0:0:
4,344,66918,2,0,L|92:328,1,90,10|0,0:0|0:0,0:0:0:0:
224,212,67332,6,0,P|236:256|228:300,1,90,6|0,0:0|0:0,0:0:0:0:
220,312,67642,1,0,0:0:0:0:
212,324,67746,2,0,L|300:340,1,90,10|0,0:0|0:0,0:0:0:0:
436,272,68159,5,4,0:0:0:0:
372,64,68470,1,0,0:0:0:0:
224,212,68780,1,0,0:0:0:0:
328,176,68987,6,0,L|372:184,1,45,2|0,0:0|0:0,0:0:0:0:
440,152,69194,2,0,L|484:160,2,45,0|2|10,0:0|0:0|0:0,0:0:0:0:
316,296,69608,5,0,0:0:0:0:
320,324,69711,1,10,0:0:0:0:
184,208,69918,1,0,0:0:0:0:
180,236,70021,1,10,0:0:0:0:
320,120,70229,1,2,0:0:0:0:
324,148,70332,1,8,0:0:0:0:
328,176,70435,1,10,0:0:0:0:
164,128,70642,6,0,L|176:36,1,90,6|0,0:0|0:0,0:0:0:0:
175,38,70952,1,0,0:0:0:0:
175,38,71056,1,8,0:0:0:0:
128,216,71263,2,0,P|68:248|4:236,1,135
4,236,71677,1,0,0:0:0:0:
52,140,71883,1,10,0:0:0:0:
156,312,72090,1,0,0:0:0:0:
220,240,72297,6,0,P|264:228|312:232,1,90,2|0,0:0|0:0,0:0:0:0:
307,231,72608,2,0,L|300:176,1,45,0|10,0:0|0:0,0:0:0:0:
408,332,72918,2,0,L|401:287,1,45,0|2,0:0|0:0,0:0:0:0:
424,108,73228,2,0,L|430:152,1,45,0|2,0:0|0:0,0:0:0:0:
512,228,73539,1,10,0:0:0:0:
512,228,73746,1,0,0:0:0:0:
464,44,73952,6,0,P|396:36|352:84,1,135,6|0,0:0|0:0,0:0:0:0:
353,80,74366,2,0,P|311:99|255:95,1,90,8|0,0:0|0:0,0:0:0:0:
292,8,74780,1,2,0:0:0:0:
432,152,74987,1,2,0:0:0:0:
428,172,75090,1,0,0:0:0:0:
424,192,75194,1,10,0:0:0:0:
484,304,75401,1,0,0:0:0:0:
328,356,75608,6,0,L|307:268,1,90,6|0,0:0|0:0,0:0:0:0:
264,208,75918,2,0,L|252:256,1,45,0|10,0:0|0:0,0:0:0:0:
144,372,76228,1,2,0:0:0:0:
110,367,76331,1,2,0:0:0:0:
77,362,76434,1,0,0:0:0:0:
43,357,76538,1,2,0:0:0:0:
10,352,76641,1,0,0:0:0:0:
128,216,76849,1,10,0:0:0:0:
200,312,77056,1,0,0:0:0:0:
228,128,77263,6,0,P|304:128|344:172,1,135,6|0,0:0|0:0,0:0:0:0:
342,167,77677,2,0,P|388:168|432:156,1,90,8|0,0:0|0:0,0:0:0:0:
484,76,78090,1,0,0:0:0:0:
444,248,78297,1,0,0:0:0:0:
448,268,78401,1,0,0:0:0:0:
452,288,78504,1,10,0:0:0:0:
342,167,78711,1,0,0:0:0:0:
284,280,78918,6,0,P|232:292|192:288,1,90,6|0,0:0|0:0,0:0:0:0:
124,204,79332,1,8,0:0:0:0:
24,340,79539,2,0,L|120:328,1,90
113,328,79849,2,0,L|103:383,1,45,2|0,0:0|0:0,0:0:0:0:
232,212,80159,2,0,L|220:120,1,90,10|0,0:0|0:0,0:0:0:0:
144,52,80573,5,6,0:0:0:0:
144,52,80780,1,0,0:0:0:0:
36,164,80987,2,0,P|80:164|124:152,1,90,8|0,0:0|0:0,0:0:0:0:
240,32,81401,5,2,0:0:0:0:
268,40,81504,1,8,0:0:0:0:
344,168,81711,1,0,0:0:0:0:
372,160,81814,1,8,0:0:0:0:
460,52,82021,1,0,0:0:0:0:
508,152,82228,6,0,L|516:204,3,45,2|0|0|0,0:0|0:0|0:0|0:0,0:0:0:0:
444,220,82642,2,0,L|436:268,3,45,10|0|0|0,0:0|0:0|0:0|0:0,0:0:0:0:
496,308,83056,2,0,L|512:360,3,45,2|0|0|0,0:0|0:0|0:0|0:0,0:0:0:0:
440,372,83469,2,0,L|396:360,1,45,10|0,0:0|0:0,0:0:0:0:
352,300,83676,2,0,L|308:316,1,45,2|0,0:0|0:0,0:0:0:0:
252,364,83883,6,0,P|188:320|108:332,1,161.999995056153,6|0,0:0|0:0,0:0:0:0:
108,331,84608,1,0,0:0:0:0:
108,331,84711,6,0,L|120:240,1,90,8|0,0:3|0:0,0:0:0:0:
204,180,85125,1,8,0:3:0:0:
60,88,85332,1,0,3:0:0:0:
32,252,85539,2,0,P|76:255|119:242,1,90,4|0,0:2|0:3,0:3:0:0:
136,232,85849,1,0,0:2:0:0:
256,192,85952,12,0,88642,0:0:0:0:
356,270,95385,6,0,P|371:228|368:184,1,90,4|0,0:0|0:0,0:0:0:0:
272,53,95785,1,8,0:0:0:0:
424,102,95985,1,0,0:0:0:0:
272,152,96185,1,2,0:0:0:0:
366,22,96385,1,0,0:0:0:0:
368,184,96585,1,8,0:0:0:0:
272,53,96785,6,0,P|184:40|112:88,1,180,2|0,0:0|0:0,0:0:0:0:
80,192,97385,1,8,0:0:0:0:
111,295,97585,2,0,P|185:344|272:331,1,180,2|0,0:0|0:0,0:0:0:0:
344,256,98185,1,8,0:0:0:0:
360,152,98385,6,0,P|433:207|440:296,1,180,4|0,0:0|0:0,0:0:0:0:
344,256,98985,1,8,0:0:0:0:
360,152,99185,1,0,0:0:0:0:
256,192,99385,1,2,0:0:0:0:
272,88,99585,1,0,0:0:0:0:
168,120,99785,2,0,P|120:104|88:64,1,90,8|0,0:0|0:0,0:0:0:0:
9,14,100185,6,0,P|-9:104|45:170,1,180,2|8,0:0|0:0,0:0:0:0:
144,200,100785,1,0,0:0:0:0:
248,216,100985,2,0,P|260:312|208:372,1,180,2|8,0:0|0:0,0:0:0:0:
159,277,101585,1,0,0:0:0:0:
159,277,101785,6,0,L|356:324,1,180,4|8,0:0|0:0,0:0:0:0:
420,240,102385,2,0,L|516:260,2,90,0|2|0,0:0|0:0|0:0,0:0:0:0:
304,216,102985,1,8,0:0:0:0:
188,196,103185,6,0,B|154:129|192:83|192:83|148:36,1,180
68,120,103785,1,8,0:0:0:0:
264,140,103985,2,0,P|308:140|360:116,1,90,2|0,0:0|0:0,0:0:0:0:
396,16,104385,1,0,0:0:0:0:
472,104,104585,1,8,0:0:0:0:
448,220,104785,6,0,B|396:248|351:221|351:221|308:236|292:280,1,180,4|0,0:0|0:0,0:0:0:0:
392,336,105385,1,8,0:0:0:0:
397,148,105585,2,0,L|398:52,2,90,2|0|0,0:0|0:0|0:0,0:0:0:0:
392,336,106185,2,0,P|352:360|296:360,1,90,8|0,0:0|0:0,0:0:0:0:
188,288,106585,6,0,P|143:291|105:315,2,90,2|0|8,0:0|0:0|0:0,0:0:0:0:
328,288,107185,1,0,0:0:0:0:
212,204,107385,1,2,0:0:0:0:
256,336,107585,1,0,0:0:0:0:
300,204,107785,1,8,0:0:0:0:
256,72,107985,1,0,0:0:0:0:
212,204,108185,6,0,P|128:192|88:104,1,180,4|8,0:0|0:0,0:0:0:0:
256,72,108785,2,0,P|340:84|380:172,1,180,2|0,0:0|0:0,0:0:0:0:
348,296,109385,1,8,0:0:0:0:
348,296,109585,6,0,L|168:332,1,180,4|0,0:0|0:0,0:0:0:0:
64,348,110185,1,8,0:0:0:0:
124,260,110385,2,0,P|140:212|132:164,2,90,2|0|2,0:0|0:0|0:0,0:0:0:0:
32,200,110985,1,8,0:0:0:0:
32,200,111085,1,0,1:0:0:0:
32,200,111185,1,0,1:0:0:0:
240,236,111385,5,4,0:0:0:0:
496,68,111785,1,4,0:0:0:0:
208,168,112185,1,4,0:0:0:0:
488,144,112585,6,0,P|448:252|300:264,1,270.000010299683,4|0,0:0|0:0,0:0:0:0:
64,40,113985,5,0,1:0:0:0:
41,55,114085,1,0,1:0:0:0:
24,75,114185,1,0,1:0:0:0:
12,99,114285,1,0,1:0:0:0:
6,126,114385,1,0,1:0:0:0:
7,152,114485,1,0,1:0:0:0:
16,176,114585,5,4,0:0:0:0:
128,256,114785,1,0,0:0:0:0:
96,128,114985,1,8,0:0:0:0:
44,252,115185,1,0,0:0:0:0:
192,204,115385,2,0,P|224:180|280:176,1,90,2|0,0:0|0:0,0:0:0:0:
360,224,115785,2,0,P|408:220|452:184,1,90,8|0,0:0|0:0,0:0:0:0:
273,175,116185,6,0,P|258:259|324:315,1,180,4|8,0:0|0:0,0:0:0:0:
505,200,116785,2,0,P|489:153|458:127,2,90,0|2|0,0:0|0:0|0:0,0:0:0:0:
456,324,117385,1,8,0:0:0:0:
324,316,117585,6,0,P|228:308|144:340,1,180,4|0,0:0|0:0,0:0:0:0:
40,372,118185,1,8,0:0:0:0:
92,268,118385,1,0,1:0:0:0:
104,240,118485,1,0,1:0:0:0:
104,208,118585,1,2,0:0:0:0:
32,116,118785,1,0,1:0:0:0:
32,84,118885,1,0,1:0:0:0:
44,56,118985,1,8,0:0:0:0:
172,136,119185,6,0,P|264:156|336:104,1,180,4|0,0:0|0:0,0:0:0:0:
240,44,119785,1,12,0:0:0:0:
268,240,119985,1,0,0:0:0:0:
268,240,120185,2,0,L|288:344,1,90,2|0,0:0|0:0,0:0:0:0:
400,376,120585,2,0,L|383:287,1,90,8|0,0:0|0:0,0:0:0:0:
340,84,120985,6,0,B|292:36|212:100|164:52,1,180,4|8,0:0|0:0,0:0:0:0:
72,12,121585,1,0,0:0:0:0:
72,12,121785,2,0,L|64:104,1,90,2|0,0:0|0:0,0:0:0:0:
52,208,122185,1,8,0:0:0:0:
328,356,122585,6,0,P|352:272|332:180,1,180,4|8,0:0|0:0,0:0:0:0:
260,104,123185,1,0,0:0:0:0:
260,104,123385,2,0,P|232:140|228:192,1,90,2|0,0:0|0:0,0:0:0:0:
252,288,123785,1,8,0:0:0:0:
500,116,124185,6,0,P|440:52|352:44,1,180,4|8,0:0|0:0,0:0:0:0:
260,104,124785,1,0,0:0:0:0:
172,164,124985,2,0,P|152:116|160:68,1,90,2|0,0:0|0:0,0:0:0:0:
340,220,125385,2,0,P|360:268|352:316,1,90,8|0,0:0|0:0,0:0:0:0:
140,364,125785,6,0,P|61:323|36:236,1,180,2|8,0:0|0:0,0:0:0:0:
68,136,126385,1,0,0:0:0:0:
172,164,126585,1,2,0:0:0:0:
172,164,126685,1,0,1:0:0:0:
172,164,126785,1,0,1:0:0:0:
260,104,126985,1,8,0:0:0:0:
368,124,127185,1,0,1:0:0:0:
368,124,127285,1,0,1:0:0:0:
368,124,127385,6,0,P|448:80|464:-4,1,180,4|8,0:0|0:0,0:0:0:0:
368,124,127985,2,0,L|360:232,1,90,4|0,0:0|0:0,0:0:0:0:
348,360,128385,1,0,1:0:0:0:
348,360,128585,2,0,P|260:360|204:288,1,180,12|2,0:0|0:0,0:0:0:0:
188,148,129185,5,0,1:0:0:0:
256,64,129385,1,8,0:0:0:0:
256,64,129485,1,0,1:0:0:0:
256,64,129585,1,0,1:0:0:0:
296,164,129785,1,8,0:0:0:0:
168,64,129985,6,0,P|104:128|136:216,1,180,4|0,0:0|0:0,0:0:0:0:
316,248,130585,1,4,0:0:0:0:
256,192,130685,12,0,136985,0:0:0:0:
200,284,143740,6,0,P|256:342|312:284,1,180,6|10,0:0|0:0,0:0:0:0:
256,192,144509,1,0,0:0:0:0:
200,100,144765,2,0,P|256:42|312:100,1,180,2|8,0:0|0:0,0:0:0:0:
372,192,145534,5,2,0:0:0:0:
362,201,145663,1,0,0:0:0:0:
352,210,145791,1,2,0:0:0:0:
140,192,146047,1,2,0:0:0:0:
150,201,146176,1,0,0:0:0:0:
160,210,146304,1,10,0:0:0:0:
256,282,146560,2,0,L|256:98,1,180,2|2,0:0|0:0,0:0:0:0:
216,23,147329,2,0,P|256:6|296:24,1,90,10|0,0:0|0:0,0:0:0:0:
296,360,147842,6,0,P|256:378|216:360,1,90,6|0,0:0|0:0,0:0:0:0:
206,350,148227,1,0,0:0:0:0:
196,340,148355,1,10,0:0:0:0:
136,266,148611,1,2,0:0:0:0:
76,205,148868,2,0,P|132:260|224:237,1,180,2|10,0:0|0:0,0:0:0:0:
286,174,149637,1,0,0:0:0:0:
458,63,149893,6,0,L|484:153,1,90,6|0,0:0|0:0,0:0:0:0:
392,330,150406,2,0,L|405:232,1,90,10|2,0:0|0:0,0:0:0:0:
472,40,150919,2,0,L|498:130,1,90,0|2,0:0|0:0,0:0:0:0:
368,344,151432,2,0,L|381:246,1,90,10|2,0:0|0:0,0:0:0:0:
296,100,151945,6,0,B|269:68|228:68|228:68|171:68,1,135,6|2,0:0|0:0,0:0:0:0:
155,81,152457,1,8,0:0:0:0:
94,136,152714,2,0,P|73:223|96:313,1,180,2|2,0:0|0:0,0:0:0:0:
175,347,153483,6,0,L|271:346,1,90,10|0,0:0|0:0,0:0:0:0:
369,261,153996,2,0,L|234:261,1,135,2|2,0:0|0:0,0:0:0:0:
176,216,154509,2,0,P|220:216|252:184,1,90,8|2,0:0|0:0,0:0:0:0:
315,121,155022,5,2,0:0:0:0:
410,25,155278,1,0,0:0:0:0:
505,120,155534,1,10,0:0:0:0:
409,215,155791,1,0,0:0:0:0:
315,121,156047,6,0,L|220:111,1,90,6|0,0:0|0:0,0:0:0:0:
319,206,156560,2,0,L|408:215,1,90,10|2,0:0|0:0,0:0:0:0:
418,225,156945,1,0,0:0:0:0:
427,234,157073,1,2,0:0:0:0:
490,297,157329,5,0,0:0:0:0:
408,120,157586,1,10,0:0:0:0:
344,300,157842,1,0,0:0:0:0:
504,180,158098,1,2,0:0:0:0:
416,360,158355,1,0,0:0:0:0:
319,206,158611,1,10,0:0:0:0:
490,297,158868,1,2,0:0:0:0:
344,300,159124,5,10,0:0:0:0:
355,292,159252,1,8,0:0:0:0:
366,284,159381,1,2,0:0:0:0:
319,206,159637,1,10,0:0:0:0:
271,129,159893,1,10,0:0:0:0:
282,121,160022,1,8,0:0:0:0:
293,113,160150,6,0,B|360:113|360:113|408:161,1,135,6|2,0:0|0:0,0:0:0:0:
408,161,160663,2,0,L|480:103,1,90,8|2,0:0|0:0,0:0:0:0:
483,227,161175,2,0,L|411:285,1,90,2|0,0:0|0:0,0:0:0:0:
337,332,161688,1,10,0:0:0:0:
257,288,161945,5,2,0:0:0:0:
244,282,162073,1,0,0:0:0:0:
231,275,162201,1,2,0:0:0:0:
267,100,162457,1,2,0:0:0:0:
280,106,162585,1,0,0:0:0:0:
293,113,162713,1,10,0:0:0:0:
342,229,162970,2,0,L|172:161,1,180,2|2,0:0|0:0,0:0:0:0:
293,113,163740,2,0,L|383:147,1,90,10|0,0:0|0:0,0:0:0:0:
257,288,164252,6,0,L|169:256,1,90,6|2,0:0|0:0,0:0:0:0:
162,247,164637,1,0,0:0:0:0:
152,237,164765,1,10,0:0:0:0:
88,173,165022,1,2,0:0:0:0:
28,116,165278,2,0,P|87:170|150:110,1,180,2|10,0:0|0:0,0:0:0:0:
232,78,166047,1,0,0:0:0:0:
311,35,166304,6,0,L|406:35,1,90,6|2,0:0|0:0,0:0:0:0:
410,44,166688,1,0,0:0:0:0:
419,53,166816,1,10,0:0:0:0:
512,155,167073,1,2,0:0:0:0:
502,164,167201,1,8,0:0:0:0:
492,173,167329,1,2,0:0:0:0:
398,275,167586,1,2,0:0:0:0:
296,173,167842,1,8,0:0:0:0:
194,274,168098,1,2,0:0:0:0:
305,66,168355,6,0,L|280:155,1,90,6|0,0:0|0:0,0:0:0:0:
287,164,168740,1,2,0:0:0:0:
296,173,168868,1,8,0:0:0:0:
398,275,169124,2,0,L|439:91,1,180,2|2,0:0|0:0,0:0:0:0:
347,87,169893,6,0,P|302:89|265:64,1,90,10|0,0:0|0:0,0:0:0:0:
415,30,170406,2,0,P|460:28|497:53,1,90,6|0,0:0|0:0,0:0:0:0:
328,104,170919,2,0,P|283:105|246:80,1,90,10|0,0:0|0:0,0:0:0:0:
432,16,171432,2,0,P|476:14|513:39,1,90,6|0,0:0|0:0,0:0:0:0:
324,108,171945,2,0,P|279:109|242:84,1,90,10|0,0:0|0:0,0:0:0:0:
179,20,172457,1,6,0:0:0:0:
256,192,172586,12,0,175022,0:0:0:0:
80,288,180695,6,0,P|136:328|248:296,1,180,4|0,0:0|0:0,0:0:0:0:
256,132,181261,2,0,P|200:92|88:124,1,180,2|0,0:0|0:0,0:0:0:0:
40,196,181827,1,8,0:0:0:0:
80,288,182015,1,0,0:0:0:0:
240,336,182204,6,0,P|284:344|344:328,1,90,2|0,0:0|0:0,0:0:0:0:
412,284,182581,1,8,0:0:0:0:
216,108,182770,2,0,P|168:96|120:112,1,90,2|0,0:0|0:0,0:0:0:0:
272,172,183147,2,0,P|316:184|372:164,1,90,2|8,0:0|0:0,0:0:0:0:
436,108,183525,1,0,0:0:0:0:
412,284,183713,6,0,L|312:284,2,90,2|0|8,0:0|0:0|0:0,0:0:0:0:
263,195,184279,2,0,P|220:270|252:352,1,180,2|0,0:0|0:0,0:0:0:0:
352,364,184845,1,8,0:0:0:0:
336,144,185034,6,0,P|254:112|179:155,1,180,4|0,0:0|0:0,0:0:0:0:
136,244,185600,1,8,0:0:0:0:
312,280,185789,2,0,P|352:292|408:272,1,90,2|0,0:0|0:0,0:0:0:0:
360,96,186166,2,0,L|360:208,1,90,2|8,0:0|0:0,0:0:0:0:
272,344,186544,1,0,0:0:0:0:
272,344,186638,1,0,0:0:0:0:
272,344,186732,6,0,P|356:368|456:328,1,180,2|8,0:0|0:0,0:0:0:0:
312,244,187298,2,0,P|264:232|208:248,1,90,2|0,0:0|0:0,0:0:0:0:
104,348,187676,2,0,P|152:360|208:344,1,90,2|8,0:0|0:0,0:0:0:0:
362,327,188053,6,0,P|400:248|367:165,1,180,2|0,0:0|0:0,0:0:0:0:
280,124,188619,1,8,0:0:0:0:
222,244,188808,2,0,L|312:244,1,90,2|0,0:0|0:0,0:0:0:0:
472,176,189185,1,2,0:0:0:0:
400,48,189374,1,8,0:0:0:0:
280,124,189562,1,0,0:0:0:0:
172,32,189706,6,0,P|136:116|168:196,1,180,2|8,0:0|0:0,0:0:0:0:
236,320,190272,1,2,0:0:0:0:
368,260,190461,1,2,0:0:0:0:
368,260,190555,1,0,0:0:0:0:
368,260,190650,1,0,0:0:0:0:
292,200,190838,2,0,P|248:192|196:208,1,90,8|2,0:0|0:0,0:0:0:0:
124,264,191216,5,2,0:0:0:0:
180,344,191404,1,0,0:0:0:0:
344,280,191593,2,0,P|384:206|340:114,1,180,8|2,0:0|0:0,0:0:0:0:
212,80,192159,1,0,0:0:0:0:
196,112,192253,1,0,0:0:0:0:
188,148,192348,2,0,L|320:212,1,135,8|0,0:0|0:0,0:0:0:0:
236,252,192725,6,0,L|144:212,1,90,4|0,0:0|0:0,0:0:0:0:
64,172,193102,1,8,0:0:0:0:
280,144,193291,2,0,P|360:180|448:136,1,180,2|0,0:0|0:0,0:0:0:0:
492,60,193857,1,8,0:0:0:0:
360,24,194046,1,0,0:0:0:0:
272,56,194234,6,0,P|228:48|176:60,1,90,2|0,0:0|0:0,0:0:0:0:
116,128,194612,1,8,0:0:0:0:
192,276,194800,2,0,P|112:311|32:274,1,180,2|2,0:0|0:0,0:0:0:0:
28,176,195366,1,8,0:0:0:0:
116,128,195555,1,0,0:0:0:0:
264,184,195743,6,0,P|272:236|256:284,2,90,2|0|8,0:0|0:0|0:0,0:0:0:0:
180,312,196309,2,0,P|256:353|348:305,1,180,2|0,0:0|0:0,0:0:0:0:
404,248,196875,1,8,0:0:0:0:
344,112,197064,2,0,P|268:71|176:119,1,180,2|0,0:0|0:0,0:0:0:0:
116,172,197631,1,8,0:0:0:0:
236,292,197819,2,0,L|336:324,2,90,2|2|2,0:0|0:0|0:0,0:0:0:0:
136,304,198385,1,8,0:0:0:0:
116,172,198574,1,0,0:0:0:0:
116,172,198668,1,0,0:0:0:0:
116,172,198763,6,0,P|192:128|288:164,1,180,0|8,0:0|0:0,0:0:0:0:
432,224,199329,2,0,P|386:235|342:223,1,90,2|0,0:0|0:0,0:0:0:0:
384,36,199706,2,0,L|384:132,1,90,2|8,0:0|0:0,0:0:0:0:
468,296,200083,6,0,P|380:316|280:276,1,180,2|0,0:0|0:0,0:0:0:0:
216,232,200650,1,8,0:0:0:0:
336,112,200838,2,0,L|436:112,1,90,2|0,0:0|0:0,0:0:0:0:
248,160,201216,2,0,L|148:160,1,90,2|0,0:0|0:0,0:0:0:0:
300,276,201593,1,0,0:0:0:0:
328,300,201687,1,0,0:0:0:0:
360,320,201782,6,0,L|448:272,1,90,2|0,0:0|0:0,0:0:0:0:
484,160,202159,1,2,0:0:0:0:
336,112,202348,2,0,P|256:140|148:92,1,180,2|2,0:0|0:0,0:0:0:0:
144,100,203102,1,2,0:0:0:0:
144,100,203196,1,0,0:0:0:0:
144,100,203291,6,0,L|104:196,1,90,2|0,0:0|0:0,0:0:0:0:
72,276,203668,1,8,0:0:0:0:
328,200,203857,2,0,L|236:224,1,90,2|2,0:0|0:0,0:0:0:0:
148,256,204234,1,8,0:0:0:0:
472,160,204612,5,4,0:0:0:0:
256,192,204706,12,2,209329,0:0:0:0:
116,260,215793,6,0,P|124:212|156:168,1,90,4|0,0:0|0:0,0:0:0:0:
228,108,216170,1,8,0:0:0:0:
332,76,216359,1,0,0:0:0:0:
428,128,216548,2,0,P|420:176|388:220,1,90,2|0,0:0|0:0,0:0:0:0:
316,280,216925,1,8,0:0:0:0:
212,312,217114,1,0,0:0:0:0:
108,288,217302,6,0,P|76:248|68:200,1,90
88,64,217680,1,8,0:0:0:0:
88,64,217868,2,0,L|188:68,1,90,2|0,0:0|0:0,0:0:0:0:
320,156,218246,2,0,L|230:152,1,90,0|8,0:0|0:0,0:0:0:0:
124,148,218623,1,0,0:0:0:0:
124,148,218717,1,0,0:0:0:0:
124,148,218812,5,4,0:0:0:0:
288,76,219000,1,0,0:0:0:0:
88,64,219189,1,8,0:0:0:0:
320,156,219378,1,0,0:0:0:0:
156,228,219567,2,0,P|178:266|216:289,1,90,2|0,0:0|0:0,0:0:0:0:
392,300,219944,1,8,0:0:0:0:
320,156,220133,6,0,B|304:86|245:76|245:76|276:16,1,180,4|0,0:0|0:0,0:0:0:0:
372,64,220699,1,8,0:0:0:0:
228,168,220887,2,0,P|185:184|126:166,1,90,2|0,0:0|0:0,0:0:0:0:
36,148,221265,2,0,P|48:236|128:284,1,180,2|0,0:0|0:0,0:0:0:0:
311,303,221831,6,0,P|300:216|228:168,1,180,4|8,0:0|0:0,0:0:0:0:
32,64,222585,2,0,P|72:40|124:36,1,90,2|0,0:0|0:0,0:0:0:0:
285,70,222963,2,0,P|248:93|204:99,1,90,8|0,0:0|0:0,0:0:0:0:
388,36,223340,6,0,B|408:92|364:144|364:144|396:212,1,180,4|8,0:0|0:0,0:0:0:0:
216,372,224095,1,2,0:0:0:0:
189,368,224189,1,0,0:0:0:0:
164,357,224284,1,0,0:0:0:0:
144,340,224378,1,0,0:0:0:0:
124,320,224472,2,0,P|100:276|96:232,1,90,8|0,0:0|0:0,0:0:0:0:
208,272,224850,6,0,P|272:296|368:240,1,180,4|8,0:0|0:0,0:0:0:0:
256,36,225604,1,2,0:0:0:0:
140,16,225793,1,0,0:0:0:0:
252,52,225982,1,8,0:0:0:0:
136,32,226170,1,0,0:0:0:0:
172,144,226359,6,0,L|152:244,1,90,2|0,0:0|0:0,0:0:0:0:
132,348,226736,1,8,0:0:0:0:
244,376,226925,2,0,L|276:188,1,180,2|0,0:0|0:0,0:0:0:0:
296,84,227491,1,8,0:0:0:0:
384,164,227680,1,0,0:0:0:0:
224,132,227868,5,4,0:0:0:0:
372,88,228057,1,0,0:0:0:0:
228,32,228246,1,8,0:0:0:0:
300,168,228434,1,0,0:0:0:0:
148,200,228623,1,2,0:0:0:0:
148,200,228717,1,0,0:0:0:0:
148,200,228812,1,0,0:0:0:0:
288,260,229000,1,8,0:0:0:0:
144,316,229189,1,0,0:0:0:0:
288,260,229378,6,0,P|336:260|380:248,1,90,2|0,0:0|0:0,0:0:0:0:
472,200,229755,1,8,0:0:0:0:
500,96,229944,1,0,0:0:0:0:
416,24,230133,1,2,0:0:0:0:
389,19,230227,1,0,0:0:0:0:
362,19,230321,1,0,0:0:0:0:
336,26,230416,1,0,0:0:0:0:
312,38,230510,1,8,0:0:0:0:
228,108,230699,1,0,0:0:0:0:
228,108,230793,1,0,0:0:0:0:
228,108,230887,5,4,0:0:0:0:
188,208,231076,1,0,0:0:0:0:
296,192,231265,1,8,0:0:0:0:
152,136,231453,5,0,0:0:0:0:
252,260,231642,2,0,L|260:312,2,45,2|0|0,0:0|0:0|0:0,0:0:0:0:
312,112,232019,1,8,0:0:0:0:
252,260,232208,1,0,0:0:0:0:
152,136,232397,6,0,P|112:108|88:64,1,90,2|0,0:0|0:0,0:0:0:0:
164,216,232774,2,0,P|115:207|75:177,1,90,8|0,0:0|0:0,0:0:0:0:
212,280,233151,2,0,P|164:292|115:282,1,90,2|0,0:0|0:0,0:0:0:0:
284,320,233529,2,0,P|246:351|197:363,1,90,8|0,0:0|0:0,0:0:0:0:
280,240,233906,6,0,B|340:242|360:296|360:296|400:320|448:284,1,180,4|8,0:0|0:0,0:0:0:0:
508,216,234472,1,0,0:0:0:0:
424,144,234661,2,0,P|408:132|372:124,2,45,2|0|0,0:0|0:0|0:0,0:0:0:0:
320,172,235038,2,0,P|304:128|324:72,1,90,8|0,0:0|0:0,0:0:0:0:
192,212,235416,6,0,P|208:256|188:312,1,90,2|0,0:0|0:0,0:0:0:0:
104,352,235793,2,0,P|88:308|108:252,1,90,8|0,0:0|0:0,0:0:0:0:
96,160,236170,2,0,P|92:140|92:112,2,45,2|0|0,0:0|0:0|0:0,0:0:0:0:
192,212,236548,1,8,0:0:0:0:
264,132,236736,1,0,0:0:0:0:
264,132,236831,1,0,0:0:0:0:
264,132,236925,6,0,P|308:120|364:128,1,90,4|0,0:0|0:0,0:0:0:0:
448,172,237302,1,8,0:0:0:0:
416,276,237491,1,0,0:0:0:0:
391,295,237585,1,0,0:0:0:0:
362,308,237680,1,2,0:0:0:0:
331,312,237774,1,0,0:0:0:0:
300,308,237868,1,0,0:0:0:0:
212,248,238057,1,12,0:0:0:0:
152,160,238246,1,0,0:0:0:0:
152,160,238340,1,0,0:0:0:0:
152,160,238434,6,0,L|56:184,1,90,2|0,0:0|0:0,0:0:0:0:
120,88,238812,2,0,L|207:66,1,90,12|0,0:0|0:0,0:0:0:0:
312,44,239189,1,2,0:0:0:0:
416,20,239378,1,4,0:0:0:0:
416,20,239944,6,0,P|476:76|452:176,1,180,4|8,0:0|0:0,0:0:0:0:
364,208,240510,1,0,0:0:0:0:
256,220,240699,2,0,P|232:224|196:240,2,45,2|0|0,0:0|0:0|0:0,0:0:0:0:
364,208,241076,1,8,0:0:0:0:
176,320,241265,6,0,P|124:252|140:164,1,180,4|0,0:0|0:0,0:0:0:0:
244,132,241831,2,0,P|292:136|364:112,1,90,8|0,0:0|0:0,0:0:0:0:
424,68,242208,1,2,0:0:0:0:
404,43,242302,1,0,0:0:0:0:
378,26,242396,1,0,0:0:0:0:
347,19,242491,1,0,0:0:0:0:
316,23,242585,1,8,0:0:0:0:
32,288,242963,6,0,P|60:320|124:336,1,90,4|0,0:0|0:0,0:0:0:0:
208,304,243340,2,0,P|256:300|308:316,1,90,8|0,0:0|0:0,0:0:0:0:
396,356,243717,2,0,P|424:360|464:356,2,45,2|0|0,0:0|0:0|0:0,0:0:0:0:
380,248,244095,1,8,0:0:0:0:
304,172,244284,1,0,0:0:0:0:
196,156,244472,6,0,P|144:136|116:104,1,90,2|0,0:0|0:0,0:0:0:0:
72,16,244850,1,8,0:0:0:0:
28,116,245038,1,0,0:0:0:0:
18,141,245132,1,0,0:0:0:0:
16,168,245226,1,2,0:0:0:0:
20,194,245321,1,0,0:0:0:0:
31,219,245415,1,0,0:0:0:0:
48,240,245509,1,0,0:0:0:0:
68,260,245604,2,0,P|108:272|164:252,1,90,8|0,0:0|0:0,0:0:0:0:
256,192,245982,5,2,0:0:0:0:
332,116,246170,1,0,0:0:0:0:
440,132,246359,2,0,P|480:164|492:204,1,90,8|0,0:0|0:0,0:0:0:0:
440,296,246736,2,0,P|464:308|500:304,2,45,2|0|0,0:0|0:0|0:0,0:0:0:0:
336,264,247114,2,0,P|292:260|240:280,1,90,8|0,0:0|0:0,0:0:0:0:
152,344,247491,6,0,P|128:300|124:256,1,90,2|0,0:0|0:0,0:0:0:0:
188,114,247868,2,0,P|212:160|216:200,1,90,8|0,0:0|0:0,0:0:0:0:
124,28,248246,1,2,0:0:0:0:
152,13,248340,1,0,0:0:0:0:
182,8,248434,1,0,0:0:0:0:
214,12,248529,1,0,0:0:0:0:
242,25,248623,2,0,P|284:44|316:92,1,90,8|0,0:0|0:0,0:0:0:0:
324,184,249000,6,0,P|364:172|404:128,1,90,2|0,0:0|0:0,0:0:0:0:
324,184,249378,1,8,0:0:0:0:
216,200,249567,1,0,0:0:0:0:
116,240,249755,2,0,P|94:241|67:230,2,45,2|0|0,0:0|0:0|0:0,0:0:0:0:
216,200,250133,2,0,P|240:244|240:296,1,90,8|0,0:0|0:0,0:0:0:0:
144,160,250510,6,0,P|120:116|120:64,1,90,2|0,0:0|0:0,0:0:0:0:
224,88,250887,2,0,P|268:64|320:64,1,90,8|0,0:0|0:0,0:0:0:0:
296,168,251265,2,0,P|320:212|320:264,1,90,2|0,0:0|0:0,0:0:0:0:
216,244,251642,2,0,P|172:268|120:268,1,90,8|0,0:0|0:0,0:0:0:0:
0,196,252019,5,4,0:0:0:0:
0,196,252208,1,4,0:0:0:0:
256,24,252585,1,4,0:0:0:0:
256,24,252774,1,4,0:0:0:0:
512,196,253151,1,4,0:0:0:0:
512,196,253340,1,4,0:0:0:0:
432,316,260766,6,0,P|440:268|436:224,1,82.7999972204591,4|0,0:0|0:0,0:0:0:0:
368,168,261146,1,8,0:0:0:0:
368,168,261335,2,0,L|204:184,1,165.599994440918,4|4,0:0|0:0,0:0:0:0:
128,252,261906,1,0,1:0:0:0:
184,172,262096,6,0,L|348:156,1,165.599994440918,4|8,0:0|0:0,0:0:0:0:
412,80,262665,1,0,1:0:0:0:
488,224,262855,1,0,0:0:0:0:
488,224,262950,1,0,0:0:0:0:
488,224,263044,2,0,L|476:308,1,82.7999972204591,2|8,0:0|0:0,0:0:0:0:
376,328,263425,1,0,1:0:0:0:
376,328,263614,6,0,P|316:288|224:308,1,165.599994440918,4|8,0:0|0:0,0:0:0:0:
144,356,264184,1,0,1:0:0:0:
52,320,264373,2,0,P|40:276|48:232,1,82.7999972204591,0|10,0:0|0:0,0:0:0:0:
140,192,264753,2,0,P|152:236|144:280,1,82.7999972204591,8|0,0:0|1:0,0:0:0:0:
52,132,265134,6,0,P|128:84|196:104,1,165.599994440918,4|8,0:0|0:0,0:0:0:0:
216,132,265608,1,0,0:0:0:0:
216,132,265702,2,0,P|260:140|304:136,1,82.7999972204591,0|0,1:0|0:0,0:0:0:0:
384,60,266083,1,2,0:0:0:0:
479,121,266272,2,0,L|472:204,1,82.7999972204591,8|0,0:0|1:0,0:0:0:0:
389,325,266653,6,0,B|396:276|396:276|376:216|376:216|380:164,1,165.599994440918,4|8,0:0|0:0,0:0:0:0:
472,204,267222,1,0,1:0:0:0:
296,280,267412,1,0,0:0:0:0:
328,76,267602,1,2,0:0:0:0:
248,176,267792,1,8,0:0:0:0:
248,176,267887,1,0,0:0:0:0:
248,176,267981,1,0,1:0:0:0:
226,58,268171,6,8,L|328:76,1,82.7999972204591,8|4,0:0|0:0,0:0:0:0:
406,25,268550,1,0,0:0:0:0:
476,100,268740,2,0,P|484:148|480:192,1,82.7999972204591,0|0,1:0|0:0,0:0:0:0:
404,248,269121,1,2,0:0:0:0:
404,248,269311,1,8,0:0:0:0:
296,224,269500,2,0,L|208:232,1,82.7999972204591,0|0,1:0|0:0,0:0:0:0:
88,316,269879,6,0,B|140:312|140:312|200:328|200:328|252:324,2,165.599994440918,8|0|2,0:0|1:0|0:0,0:0:0:0:
16,240,270830,1,8,0:0:0:0:
16,240,270925,1,0,0:0:0:0:
16,240,271019,2,0,P|4:200|8:160,1,82.7999972204591,0|0,1:0|0:0,0:0:0:0:
108,200,271398,6,0,P|160:212|248:132,1,165.599994440918,4|0,0:0|1:0,0:0:0:0:
488,72,272159,1,2,0:0:0:0:
388,52,272349,1,8,0:0:0:0:
372,152,272539,1,0,1:0:0:0:
476,172,272728,1,0,0:0:0:0:
476,172,272917,6,0,B|484:224|484:224|444:272|464:340,1,165.599994440918,4|0,0:0|1:0,0:0:0:0:
368,296,273488,1,0,0:0:0:0:
280,344,273678,1,0,1:0:0:0:
88,244,273868,1,0,1:0:0:0:
96,216,273963,1,0,1:0:0:0:
104,188,274058,1,0,1:0:0:0:
112,160,274153,1,0,1:0:0:0:
120,132,274248,6,0,P|164:100|268:148,1,165.599994440918,4|8,0:0|0:0,0:0:0:0:
24,168,274816,2,0,P|16:124|28:80,1,82.7999972204591,0|0,1:0|0:0,0:0:0:0:
116,20,275197,1,2,0:0:0:0:
228,60,275386,2,0,L|312:52,1,82.7999972204591,8|0,0:0|1:0,0:0:0:0:
396,160,275767,6,0,L|216:176,1,165.599994440918,4|8,0:0|0:0,0:0:0:0:
472,228,276335,2,0,P|492:176|476:104,1,124.199995830689,0|0,1:0|0:0,0:0:0:0:
464,92,276716,1,10,0:0:0:0:
372,64,276906,1,8,0:0:0:0:
376,256,277095,2,0,L|384:300,1,41.3999986102295,0|0,1:0|0:0,0:0:0:0:
404,324,277284,6,0,P|328:284|252:308,1,165.599994440918,4|8,0:0|0:0,0:0:0:0:
168,348,277855,2,0,L|72:340,1,82.7999972204591,0|0,1:0|0:0,0:0:0:0:
48,240,278235,2,0,L|144:248,1,82.7999972204591,2|8,0:0|0:0,0:0:0:0:
288,220,278614,1,0,1:0:0:0:
276,200,278709,1,0,0:0:0:0:
264,180,278804,6,0,B|200:176|200:176|160:156|160:156|64:148,1,165.599994440918,4|0,0:0|0:0,0:0:0:0:
228,84,279374,2,0,P|232:40|228:0,1,82.7999972204591,0|0,1:0|0:0,0:0:0:0:
392,92,279754,2,0,P|384:136|388:180,1,82.7999972204591,2|8,0:0|0:0,0:0:0:0:
452,241,280133,2,0,L|542:229,1,82.7999972204591,0|0,1:0|0:0,0:0:0:0:
360,268,280513,6,0,P|312:304|212:288,2,165.599994440918,4|0|2,0:0|1:0|0:0,0:0:0:0:
280,128,281463,2,0,L|276:216,1,82.7999972204591,8|0,0:0|1:0,0:0:0:0:
216,52,282032,6,0,L|36:64,1,165.599994440918,4|0,0:0|1:0,0:0:0:0:
0,192,282602,2,0,L|96:184,1,82.7999972204591,8|2,0:0|0:0,0:0:0:0:
152,256,282981,1,8,0:0:0:0:
152,256,283076,1,0,0:0:0:0:
152,256,283171,1,0,1:0:0:0:
52,64,283360,1,0,0:0:0:0:
280,128,283551,6,0,P|328:156|424:116,1,165.599994440918,4|0,0:0|1:0,0:0:0:0:
460,32,284120,1,0,0:0:0:0:
460,32,284215,1,0,0:0:0:0:
460,32,284309,1,0,1:0:0:0:
432,224,284500,1,0,0:0:0:0:
432,224,284595,1,0,0:0:0:0:
432,224,284689,2,0,L|440:308,1,82.7999972204591,0|0,1:0|0:0,0:0:0:0:
344,100,285070,6,0,B|348:156|348:156|328:208|328:208|332:264,1,165.599994440918,4|0,0:0|1:0,0:0:0:0:
296,344,285640,2,0,P|208:372|148:328,1,165.599994440918,8|8,0:0|0:0,0:0:0:0:
112,252,286209,2,0,L|116:168,1,82.7999972204591,0|0,1:0|0:0,0:0:0:0:
8,112,286589,6,0,L|0:292,2,165.599994440918,4|0|2,0:0|1:0|0:0,0:0:0:0:
104,40,287538,1,8,0:0:0:0:
104,40,287633,1,0,0:0:0:0:
104,40,287728,2,0,P|148:52|196:48,1,82.7999972204591,0|0,1:0|0:0,0:0:0:0:
288,20,288108,6,0,P|340:4|416:28,1,124.199995830689,4|0,0:0|0:0,0:0:0:0:
406,21,288487,1,0,1:0:0:0:
344,112,288677,1,8,0:0:0:0:
344,112,289057,1,8,0:0:0:0:
384,212,289247,1,0,1:0:0:0:
488,232,289436,1,0,0:0:0:0:
420,312,289627,6,0,P|360:320|280:256,1,165.599994440918,4|0,0:0|1:0,0:0:0:0:
344,112,290197,2,0,P|404:104|484:168,1,165.599994440918,2|8,0:0|0:0,0:0:0:0:
256,148,290766,2,0,P|248:104|256:64,1,82.7999972204591,0|0,1:0|0:0,0:0:0:0:
344,204,291146,6,0,P|292:244|184:224,1,165.599994440918,4|0,0:0|1:0,0:0:0:0:
112,176,291715,1,0,0:0:0:0:
100,164,291810,1,0,0:0:0:0:
88,152,291906,2,0,P|40:148|-4:152,1,82.7999972204591,2|8,0:0|0:0,0:0:0:0:
40,240,292284,1,0,1:0:0:0:
60,64,292474,1,0,0:0:0:0:
40,240,292665,6,0,L|56:368,1,124.199995830689,4|0,0:0|0:0,0:0:0:0:
68,344,293045,2,0,P|108:304|220:340,1,165.599994440918,4|2,1:0|0:0,0:0:0:0:
296,360,293614,1,8,0:0:0:0:
296,360,293709,1,0,0:0:0:0:
296,360,293803,1,0,1:0:0:0:
364,292,293994,6,0,L|452:288,1,82.7999972204591,0|4,0:0|0:0,0:0:0:0:
264,168,294374,2,0,L|176:172,1,82.7999972204591,8|0,0:0|1:0,0:0:0:0:
376,312,294754,2,0,L|464:308,1,82.7999972204591,0|2,0:0|0:0,0:0:0:0:
252,148,295133,2,0,L|164:152,1,82.7999972204591,8|0,0:0|1:0,0:0:0:0:
92,224,295513,6,0,P|64:144|96:72,1,165.599994440918,4|8,0:0|0:0,0:0:0:0:
184,24,296082,1,0,1:0:0:0:
184,24,296273,2,0,P|267:39|313:103,1,165.599994440918,4|8,0:0|0:0,0:0:0:0:
312,204,296841,5,0,1:0:0:0:
312,204,297032,2,0,P|256:268|178:276,1,165.599994440918,4|8,0:0|0:0,0:0:0:0:
212,180,297601,1,0,1:0:0:0:
312,344,297792,2,0,B|364:336|364:336|420:352|420:352|476:344,1,165.599994440918,4|8,0:0|0:0,0:0:0:0:
512,264,298360,1,0,1:0:0:0:
412,112,298741,6,0,L|420:28,1,82.7999972204591,4|0,0:0|1:0,0:0:0:0:
308,88,299121,2,0,L|316:0,1,82.7999972204591,0|4,1:0|0:0,0:0:0:0:
120,140,299689,1,0,1:0:0:0:
120,140,299879,1,4,0:0:0:0:
224,304,306452,6,0,L|352:304,1,90,4|0,0:0|0:0,0:0:0:0:
312,220,306820,2,0,L|200:220,1,90,8|0,0:0|0:0,0:0:0:0:
136,264,307188,2,0,P|124:220|144:168,2,90,2|0|8,0:0|0:0|0:0,0:0:0:0:
216,148,307740,6,0,P|144:100|64:132,1,180,2|0,0:0|0:0,0:0:0:0:
20,220,308292,1,8,0:0:0:0:
64,308,308476,1,0,0:0:0:0:
156,272,308660,2,0,P|200:264|244:272,1,90,2|0,0:0|0:0,0:0:0:0:
424,312,309029,2,0,P|380:320|336:312,1,90,8|0,0:0|0:0,0:0:0:0:
208,188,309397,6,0,L|188:88,2,90,0|0|8,0:0|0:0|0:0,0:0:0:0:
104,72,309949,2,0,P|164:21|258:44,1,180,2|0,0:0|0:0,0:0:0:0:
416,44,310501,1,8,0:0:0:0:
332,156,310685,1,0,0:0:0:0:
440,344,310869,6,0,P|489:265|457:177,1,180,2|8,0:0|0:0,0:0:0:0:
243,252,311421,2,0,P|320:292|400:256,1,180,0|0,3:0|0:0,0:0:0:0:
324,192,311973,1,8,0:0:0:0:
248,36,312157,1,0,0:0:0:0:
120,124,312341,6,0,P|83:158|70:216,1,90,2|0,0:0|0:0,0:0:0:0:
76,224,312618,1,0,0:0:0:0:
88,248,312710,2,0,L|168:296,1,90,8|0,0:0|0:0,0:0:0:0:
288,344,313078,1,2,0:0:0:0:
436,268,313262,1,0,0:0:0:0:
436,268,313354,1,0,0:0:0:0:
436,268,313446,1,8,0:0:0:0:
316,192,313630,1,0,0:0:0:0:
176,268,313814,6,0,P|128:280|72:260,2,90,2|0|8,0:0|0:0|0:0,0:0:0:0:
316,192,314366,1,0,0:0:0:0:
316,192,314458,1,0,0:0:0:0:
316,192,314550,2,0,P|360:180|416:200,1,90,2|0,0:0|0:0,0:0:0:0:
360,336,314918,1,8,0:0:0:0:
252,264,315102,1,0,0:0:0:0:
312,120,315286,6,0,P|304:76|324:24,1,90,2|0,0:0|0:0,0:0:0:0:
420,192,315654,2,0,P|428:236|408:288,1,90,8|0,0:0|0:0,0:0:0:0:
240,232,316022,2,0,P|283:243|336:228,1,90,2|0,0:0|0:0,0:0:0:0:
160,160,316391,2,0,P|116:148|63:163,1,90,8|0,0:0|0:0,0:0:0:0:
112,328,316759,5,0,0:0:0:0:
248,344,316943,1,2,0:0:0:0:
284,336,317035,1,0,0:0:0:0:
312,316,317127,1,2,0:0:0:0:
340,292,317219,2,0,L|384:304,1,45,0|2,0:0|0:0,0:0:0:0:
452,220,317403,2,0,L|388:224,1,45,0|2,0:0|0:0,0:0:0:0:
240,256,317679,1,4,0:0:0:0:
100,208,317863,2,0,P|76:144|108:76,1,135,8|0,0:0|0:0,0:0:0:0:
124,60,318231,6,0,L|4:60,1,90,4|0,0:1|0:0,0:0:0:0:
160,148,318599,2,0,L|260:148,1,90,8|0,0:0|0:0,0:0:0:0:
368,200,318967,2,0,P|376:244|360:296,2,90,2|0|8,0:0|0:0|0:0,0:0:0:0:
288,316,319519,6,0,P|352:364|448:304,1,180,2|0,0:0|0:0,0:0:0:0:
504,256,320072,1,8,0:0:0:0:
452,172,320256,1,0,0:0:0:0:
284,88,320440,1,2,0:0:0:0:
284,88,320532,1,0,0:0:0:0:
284,88,320624,2,0,L|168:88,2,90,0|8|0,0:0|0:0|0:0,0:0:0:0:
452,172,321176,6,0,L|272:172,1,180,2|8,0:0|0:0,0:0:0:0:
176,140,321728,1,0,0:0:0:0:
88,204,321912,2,0,P|80:252|108:308,2,90,2|0|8,0:0|0:0|0:0,0:0:0:0:
172,324,322464,6,0,P|103:375|24:341,1,180,2|0,0:0|0:0,0:0:0:0:
88,204,323016,1,8,0:0:0:0:
212,64,323200,1,0,0:0:0:0:
300,232,323384,1,2,0:0:0:0:
112,112,323568,1,0,0:0:0:0:
304,128,323753,2,0,P|344:116|400:136,1,90,8|0,0:0|0:0,0:0:0:0:
424,144,324029,1,0,0:0:0:0:
456,160,324121,6,0,P|416:80|484:24,1,180,2|8,0:0|0:0,0:0:0:0:
376,296,324857,1,2,0:0:0:0:
148,248,325225,6,0,P|100:260|44:240,1,90,8|0,0:0|0:0,0:0:0:0:
222,205,325593,2,0,P|231:249|220:292,1,90,2|0,0:0|0:0,0:0:0:0:
180,132,325961,2,0,P|223:122|266:134,1,90,8|0,0:0|0:0,0:0:0:0:
440,88,326329,1,2,0:0:0:0:
352,264,326513,1,0,0:0:0:0:
456,328,326697,1,8,0:0:0:0:
352,144,326881,1,0,0:0:0:0:
236,292,327065,6,0,P|164:340|92:280,2,180,2|8|2,0:0|0:0|0:0,0:0:0:0:
332,240,327986,2,0,P|372:228|424:244,2,90,0|8|0,0:0|0:0|0:0,0:0:0:0:
220,104,328538,6,0,L|120:124,1,90,2|0,0:0|0:0,0:0:0:0:
0,152,328906,1,8,0:0:0:0:
136,272,329090,2,0,L|244:272,1,90,0|2,0:0|0:0,0:0:0:0:
360,268,329458,1,0,0:0:0:0:
389,257,329550,1,0,0:0:0:0:
411,235,329642,1,8,0:0:0:0:
421,205,329734,1,0,0:0:0:0:
419,174,329826,1,0,0:0:0:0:
256,56,330010,5,4,0:1:0:0:
256,192,330102,12,2,332955,0:0:0:0:
192,304,333691,5,8,0:0:0:0:
312,340,333875,1,0,0:0:0:0:
416,264,334059,1,2,0:0:0:0:
324,120,334243,1,0,0:0:0:0:
160,172,334427,6,0,P|120:164|76:176,2,72,2|0|2,0:0|0:0|0:0,0:0:0:0:
416,264,335164,1,8,0:0:0:0:
252,48,335532,1,2,0:0:0:0:
236,80,335624,1,0,0:0:0:0:
228,116,335716,1,0,0:0:0:0:
232,152,335808,1,0,0:0:0:0:
252,180,335900,6,0,P|320:204|396:168,1,144,4|0,0:0|0:0,0:0:0:0:
440,104,336452,2,0,P|473:164|452:232,1,144,2|0,0:0|0:0,0:0:0:0:
356,292,337004,2,0,L|272:296,1,72,2|0,0:0|0:0,0:0:0:0:
76,260,337372,5,2,0:0:0:0:
264,132,337740,1,0,0:0:0:0:
224,372,338108,2,0,P|185:312|204:240,1,144,2|0,0:0|0:0,0:0:0:0:
392,268,338660,6,0,P|333:307|264:296,1,144,2|0,0:0|0:0,0:0:0:0:
236,272,339121,1,0,0:0:0:0:
220,240,339213,1,2,0:0:0:0:
168,104,339397,1,8,0:0:0:0:
73,215,339581,1,0,3:0:0:0:
72,264,339673,1,0,3:0:0:0:
90,308,339765,1,4,3:0:0:0:
240,236,339949,1,0,0:0:0:0:
432,352,340133,5,4,0:1:0:0:
256,192,340225,12,0,343262,0:0:0:0:
304,72,349228,6,0,B|352:72|352:72|396:104,1,99.0000030212403,6|0,0:0|0:0,0:0:0:0:
208,72,349732,2,0,B|160:72|160:72|116:104,1,99.0000030212403,8|0,1:2|0:0,0:0:0:0:
196,164,350236,1,2,0:0:0:0:
256,244,350488,1,0,0:0:0:0:
316,164,350740,1,8,1:2:0:0:
156,244,350992,1,0,0:0:0:0:
356,244,351244,6,0,L|376:96,1,148.50000453186,2|0,0:0|0:0,0:0:0:0:
321,46,351748,2,0,P|364:23|412:32,1,99.0000030212403,8|0,1:2|0:0,0:0:0:0:
476,108,352254,1,2,0:0:0:0:
484,132,352380,1,0,0:0:0:0:
492,156,352506,1,0,0:0:0:0:
444,244,352757,2,0,L|472:338,1,99.0000030212403,8|0,1:2|0:0,0:0:0:0:
356,244,353262,6,0,L|324:136,1,99.0000030212403,2|0,0:0|0:0,0:0:0:0:
304,140,353640,1,0,0:0:0:0:
280,132,353766,1,8,1:2:0:0:
140,84,354018,1,0,0:0:0:0:
220,208,354270,1,2,0:0:0:0:
228,60,354522,1,0,0:0:0:0:
136,176,354774,1,8,1:2:0:0:
280,132,355026,1,0,0:0:0:0:
140,84,355278,6,0,L|52:208,1,148.50000453186,2|0,0:0|0:0,0:0:0:0:
24,272,355782,2,0,P|12:320|24:372,1,99.0000030212403,8|0,1:2|0:0,0:0:0:0:
112,324,356287,1,2,0:0:0:0:
112,324,356413,1,0,0:0:0:0:
112,324,356539,1,0,0:0:0:0:
256,192,356791,1,8,1:2:0:0:
400,60,357043,1,0,0:0:0:0:
400,60,357169,1,0,0:0:0:0:
400,60,357296,6,0,B|352:48|352:48|304:60,1,99.0000030212403,6|0,0:0|0:0,0:0:0:0:
304,60,357674,2,0,L|257:44,1,49.5000015106202,0|8,0:0|1:2,0:0:0:0:
192,116,358051,1,0,0:0:0:0:
256,192,358303,2,0,P|295:279|256:367,1,198.000006042481,2|8,0:0|1:2,0:0:0:0:
208,280,359060,1,0,0:0:0:0:
320,116,359312,6,0,L|428:116,1,99.0000030212403,2|0,0:0|0:0,0:0:0:0:
432,136,359690,1,0,0:0:0:0:
444,156,359816,1,8,1:2:0:0:
496,296,360069,1,0,0:0:0:0:
372,216,360321,5,2,0:0:0:0:
372,216,360447,1,0,0:0:0:0:
372,216,360573,1,0,0:0:0:0:
508,208,360825,1,8,1:2:0:0:
396,304,361077,1,0,0:0:0:0:
396,304,361203,1,0,0:0:0:0:
396,304,361329,6,0,P|328:296|284:232,1,148.50000453186,6|0,0:0|0:0,0:0:0:0:
280,159,361833,2,0,P|235:177|211:218,1,99.0000030212403,8|0,1:2|0:0,0:0:0:0:
372,216,362338,2,0,P|417:197|441:156,2,99.0000030212403,2|0|8,0:0|0:0|1:2,0:0:0:0:
348,204,362967,1,0,0:0:0:0:
324,192,363093,1,0,0:0:0:0:
196,92,363346,6,0,B|148:92|148:92|112:128,1,99.0000030212403,2|0,0:0|0:0,0:0:0:0:
188,192,363850,1,8,1:2:0:0:
188,192,363976,1,8,1:2:0:0:
188,192,364102,1,4,1:2:0:0:
256,328,364354,5,10,1:2:0:0:
256,328,364480,1,8,1:2:0:0:
324,192,364732,1,0,1:0:0:0:
324,192,364858,1,8,1:2:0:0:
256,56,365110,1,8,1:2:0:0:
256,56,365236,1,8,1:2:0:0:
256,56,365362,5,6,1:2:0:0:
188,192,365613,1,0,0:0:0:0:
172,212,365739,1,0,0:0:0:0:
156,232,365866,2,0,B|156:280|156:280|124:328,1,99.0000030212403,8|0,1:2|0:0,0:0:0:0:
384,322,366370,2,0,B|356:280|356:280|356:232,1,99.0000030212403,2|0,0:0|0:0,0:0:0:0:
408,148,366874,1,8,1:2:0:0:
476,76,367126,1,0,0:0:0:0:
476,76,367253,1,0,0:0:0:0:
476,76,367379,6,0,B|448:48|400:48|400:48|328:48,1,148.50000453186,6|2,0:0|0:0,0:0:0:0:
272,88,367883,2,0,P|256:148|272:184,1,99.0000030212403,8|2,1:2|0:0,0:0:0:0:
332,256,368387,1,2,0:0:0:0:
348,276,368513,1,0,0:0:0:0:
364,296,368639,1,0,0:0:0:0:
256,368,368891,1,8,1:2:0:0:
148,296,369143,1,0,0:0:0:0:
164,276,369269,1,0,0:0:0:0:
180,256,369395,6,0,P|192:208|176:160,1,99.0000030212403,6|0,0:0|0:0,0:0:0:0:
177,162,369774,1,0,0:0:0:0:
177,162,369900,2,0,L|256:96,1,99.0000030212403,8|0,1:2|0:0,0:0:0:0:
344,24,370403,1,2,0:0:0:0:
436,100,370655,1,0,0:0:0:0:
436,219,370908,1,8,1:2:0:0:
344,288,371160,1,0,0:0:0:0:
246,219,371412,6,0,P|179:188|115:217,1,148.50000453186,6|0,0:0|0:0,0:0:0:0:
69,275,371916,2,0,L|53:175,1,99.0000030212403,8|0,1:2|0:0,0:0:0:0:
88,32,372421,1,2,0:0:0:0:
92,56,372547,1,0,0:0:0:0:
96,80,372673,1,0,0:0:0:0:
168,152,372925,1,8,1:2:0:0:
246,219,373177,1,0,0:0:0:0:
250,243,373303,1,0,0:0:0:0:
254,267,373429,5,6,0:0:0:0:
320,340,373681,1,0,0:0:0:0:
320,340,373807,1,0,0:0:0:0:
320,340,373933,2,0,P|368:364|416:360,1,99.0000030212403,8|0,1:2|0:0,0:0:0:0:
476,288,374437,2,0,P|428:264|380:268,1,99.0000030212403,2|0,0:0|0:0,0:0:0:0:
256,52,374941,5,8,1:2:0:0:
172,104,375194,1,0,0:0:0:0:
172,104,375320,1,0,0:0:0:0:
172,104,375446,2,0,B|256:156|256:156|340:104,1,198.000006042481,6|8,0:0|1:2,0:0:0:0:
412,172,376202,1,0,0:0:0:0:
472,248,376454,1,2,0:0:0:0:
472,248,376580,1,0,0:0:0:0:
472,248,376706,2,0,B|472:296|472:296|444:344,1,99.0000030212403,0|8,0:0|1:2,0:0:0:0:
348,356,377211,1,0,0:0:0:0:
248,368,377463,6,0,B|92:360,1,148.50000453186,6|0,0:0|0:0,0:0:0:0:
52,304,377966,1,8,1:2:0:0:
16,212,378218,2,0,P|4:164|16:116,1,99.0000030212403,0|2,0:0|0:0,0:0:0:0:
104,76,378723,1,0,0:0:0:0:
196,44,378975,2,0,L|300:44,1,99.0000030212403,8|0,1:2|0:0,0:0:0:0:
376,156,379479,6,0,L|272:156,1,99.0000030212403,6|0,0:0|0:0,0:0:0:0:
344,272,379984,2,0,L|448:272,1,99.0000030212403,8|6,1:2|0:0,0:0:0:0:
360,140,380488,6,0,L|256:140,1,99.0000030212403,2|0,0:0|0:0,0:0:0:0:
360,296,380992,2,0,L|464:296,1,99.0000030212403,8|2,1:2|0:0,0:0:0:0:
476,280,381370,1,0,0:0:0:0:
496,264,381496,5,6,0:0:0:0:
376,156,381748,1,2,0:0:0:0:
344,312,382000,1,8,1:2:0:0:
496,264,382253,1,10,1:2:0:0:
376,156,382505,5,12,1:2:0:0:
344,312,382757,1,10,1:2:0:0:
372,320,382883,1,8,1:2:0:0:
400,324,383009,1,14,1:2:0:0:
428,320,383135,1,0,1:0:0:0:
456,308,383261,1,10,1:2:0:0:
480,288,383387,1,10,1:2:0:0:
496,264,383513,6,0,L|512:164,1,99.0000030212403,6|0,1:2|0:0,0:0:0:0:
391,58,384017,2,0,L|376:156,1,99.0000030212403,8|0,1:2|0:0,0:0:0:0:
279,252,384521,2,0,L|288:204,2,49.5000015106202,2|0|0,0:0|0:0|0:0,0:0:0:0:
204,320,385026,2,0,P|156:335|111:323,1,99.0000030212403,8|0,1:2|0:0,0:0:0:0:
157,100,385531,6,0,P|183:167|155:234,1,148.50000453186,2|0,0:0|0:0,0:0:0:0:
155,234,386035,2,0,L|204:321,1,99.0000030212403,8|0,1:2|0:0,0:0:0:0:
356,148,386539,2,0,L|323:90,2,49.5000015106202,2|0|0,0:0|0:0|0:0,0:0:0:0:
428,220,387043,1,8,1:2:0:0:
496,292,387295,1,0,0:0:0:0:
496,292,387421,1,0,0:0:0:0:
496,292,387547,6,0,L|476:132,2,148.50000453186,6|2|2,0:0|0:0|0:0,0:0:0:0:
356,148,388555,2,0,L|412:8,2,148.50000453186,2|2|2,0:0|0:0|0:0,0:0:0:0:
200,296,389564,6,0,B|208:336|256:375|256:375|304:336|312:296,1,198.000006042481,6|8,0:0|1:2,0:0:0:0:
200,88,390321,2,0,B|208:48|256:9|256:9|304:48|312:88,1,198.000006042481,6|0,0:0|0:0,0:0:0:0:
256,192,391077,1,8,1:2:0:0:
244,213,391203,1,8,1:2:0:0:
233,235,391329,1,0,0:0:0:0:
221,257,391455,1,8,1:2:0:0:
210,279,391581,5,14,1:2:0:0:
266,384,391833,1,0,0:0:0:0:
277,362,391959,1,0,0:0:0:0:
288,340,392085,1,2,0:0:0:0:
340,244,392338,6,0,P|372:152|340:60,1,198.000006042481,6|0,0:0|0:0,0:0:0:0:
256,12,393094,2,0,L|152:36,1,99.0000030212403,8|0,1:2|0:0,0:0:0:0:
92,108,393598,5,2,1:2:0:0:
80,128,393724,1,8,1:2:0:0:
108,240,393976,1,2,0:0:0:0:
120,220,394102,1,8,1:2:0:0:
92,108,394354,1,10,1:2:0:0:
104,88,394480,1,8,1:2:0:0:
116,68,394606,5,2,1:2:0:0:
120,220,394859,1,0,1:0:0:0:
108,240,394985,1,10,1:2:0:0:
96,260,395111,2,0,P|81:307|93:353,1,99.0000030212403,0|0,1:0|0:0,0:0:0:0:
181,309,395615,5,6,0:0:0:0:
256,192,395867,1,8,1:2:0:0:
331,75,396119,1,8,1:2:0:0:
181,75,396371,1,2,0:0:0:0:
256,192,396623,1,2,0:0:0:0:
256,192,396749,1,0,0:0:0:0:
256,192,396875,1,8,1:2:0:0:
331,309,397127,2,0,P|389:309|422:288,1,99.0000030212403,8|0,1:2|0:0,0:0:0:0:
181,309,397632,6,0,P|123:309|90:288,1,99.0000030212403,6|8,0:0|1:2,0:0:0:0:
90,288,398010,2,0,L|57:325,1,49.5000015106202,8|2,1:2|0:0,0:0:0:0:
9,231,398388,2,0,L|80:151,1,99.0000030212403,6|8,0:0|1:2,0:0:0:0:
78,18,398892,2,0,L|12:92,1,99.0000030212403,2|8,0:0|1:2,0:0:0:0:
9,231,399396,6,0,B|68:200|140:228|140:228|136:172|144:108|212:64|212:64|256:108|256:108|332:184|312:252|256:284|212:312|140:336|140:336|212:324|256:372|256:372|300:324|372:336|372:336|300:312|256:284|200:252|180:184|256:108|256:108|300:64|300:64|368:108|376:172|372:228|372:228|444:200|503:231,1,1683.00005136109,6|2,0:0|0:0,0:0:0:0:
116,84,409780,5,4,0:0:0:0:
160,184,409951,1,0,0:0:0:0:
260,228,410122,2,0,P|300:240|364:228,1,90,8|0,0:0|0:0,0:0:0:0:
476,140,410465,2,0,P|436:128|372:140,1,90,2|0,0:0|0:0,0:0:0:0:
260,228,410808,1,8,0:0:0:0:
132,324,410980,6,0,P|56:284|40:188,1,180,2|0,0:0|0:0,0:0:0:0:
116,84,411494,2,0,L|304:60,1,180,8|0,0:0|0:0,0:0:0:0:
404,48,412008,1,2,0:0:0:0:
404,48,412180,2,0,P|412:96|388:148,1,90,8|0,0:0|0:0,0:0:0:0:
324,212,412522,5,4,0:0:0:0:
200,288,412694,1,0,0:0:0:0:
120,168,412865,2,0,P|128:120|160:84,1,90,8|0,0:0|0:0,0:0:0:0:
284,24,413208,1,2,0:0:0:0:
380,132,413380,1,0,0:0:0:0:
240,160,413551,1,8,0:0:0:0:
404,48,413722,6,0,P|464:112|428:204,1,180,4|0,0:0|0:0,0:0:0:0:
348,252,414237,1,8,0:0:0:0:
240,248,414408,1,0,0:0:0:0:
144,196,414580,2,0,P|108:156|100:112,1,90,2|0,0:0|0:0,0:0:0:0:
208,108,414922,1,12,0:0:0:0:
20,212,415094,1,0,0:0:0:0:
208,108,415265,5,4,0:0:0:0:
308,148,415437,2,0,P|364:144|400:116,1,90,0|8,0:0|0:0,0:0:0:0:
468,52,415780,2,0,P|492:96|492:148,1,90,2|0,0:0|0:0,0:0:0:0:
320,344,416294,1,8,0:0:0:0:
212,332,416465,1,0,0:0:0:0:
124,268,416637,5,4,0:0:0:0:
72,172,416808,2,0,P|76:120|104:72,1,90,0|8,0:0|0:0,0:0:0:0:
360,56,417322,1,2,0:0:0:0:
360,56,417494,2,0,P|378:96|380:141,1,90,0|8,0:0|0:0,0:0:0:0:
348,244,417837,1,0,0:0:0:0:
272,320,418008,6,0,P|244:268|244:224,1,90,4|0,0:0|0:0,0:0:0:0:
260,132,418351,1,8,0:0:0:0:
248,24,418522,2,0,B|180:36|156:96|156:96|100:68,1,180,2|0,0:0|0:0,0:0:0:0:
16,8,419037,1,8,0:0:0:0:
16,192,419208,6,0,P|36:268|128:292,1,180,4|2,0:0|0:0,0:0:0:0:
224,248,419722,1,8,0:0:0:0:
252,232,419808,1,0,0:0:0:0:
268,204,419894,1,0,0:0:0:0:
288,100,420065,1,2,0:0:0:0:
314,81,420151,1,0,0:0:0:0:
346,79,420237,1,0,0:0:0:0:
448,116,420408,1,8,0:0:0:0:
472,134,420494,1,0,0:0:0:0:
490,161,420580,1,0,0:0:0:0:
497,191,420665,1,0,0:0:0:0:
495,222,420751,6,0,P|488:264|456:300,1,90,4|0,0:0|0:0,0:0:0:0:
352,320,421094,1,8,0:0:0:0:
252,280,421265,1,0,0:0:0:0:
152,236,421437,2,0,P|104:232|60:252,1,90,2|0,0:0|0:0,0:0:0:0:
124,340,421780,1,8,0:0:0:0:
152,236,421951,1,0,0:0:0:0:
108,136,422122,5,2,0:0:0:0:
36,56,422294,1,0,0:0:0:0:
144,36,422465,2,0,L|240:20,1,90,8|0,0:0|0:0,0:0:0:0:
340,8,422808,1,2,0:0:0:0:
440,48,422980,1,0,0:0:0:0:
500,136,423151,2,0,P|496:188|472:224,1,90,8|0,0:0|0:0,0:0:0:0:
285,251,423494,5,2,0:0:0:0:
189,202,423665,1,0,0:0:0:0:
280,144,423837,1,8,0:0:0:0:
188,284,424008,5,0,0:0:0:0:
184,96,424180,1,2,0:0:0:0:
351,189,424351,1,0,0:0:0:0:
188,284,424522,1,8,0:0:0:0:
184,96,424694,1,0,0:0:0:0:
184,96,424780,1,0,0:0:0:0:
184,96,424865,6,0,P|136:80|92:84,1,90,2|0,0:0|0:0,0:0:0:0:
8,144,425208,1,8,0:0:0:0:
16,252,425380,1,0,0:0:0:0:
100,320,425551,2,0,P|144:321|186:306,1,90,2|0,0:0|0:0,0:0:0:0:
260,228,425894,1,8,0:0:0:0:
288,215,425980,1,0,0:0:0:0:
319,212,426065,1,0,0:0:0:0:
350,218,426151,1,0,0:0:0:0:
377,234,426237,5,4,0:0:0:0:
444,360,426408,1,0,0:0:0:0:
316,296,426580,1,8,0:0:0:0:
468,288,426751,1,0,0:0:0:0:
468,180,426922,1,2,0:0:0:0:
445,158,427008,1,0,0:0:0:0:
418,141,427094,1,0,0:0:0:0:
389,130,427180,1,0,0:0:0:0:
358,126,427265,1,8,0:0:0:0:
248,132,427437,1,0,0:0:0:0:
152,180,427608,5,4,0:0:0:0:
100,276,427780,1,0,0:0:0:0:
156,368,427951,2,0,P|204:376|260:360,1,90,8|0,0:0|0:0,0:0:0:0:
428,100,428637,2,0,P|380:92|324:108,1,90,8|0,0:0|0:0,0:0:0:0:
248,132,428980,6,0,B|189:146|152:96|152:96|96:144,1,180,4|8,0:0|0:0,0:0:0:0:
168,224,429494,1,0,0:0:0:0:
224,48,429665,2,0,P|273:48|313:75,1,90,2|0,0:0|0:0,0:0:0:0:
364,160,430008,1,8,0:0:0:0:
276,224,430180,1,0,0:0:0:0:
276,224,430265,1,0,0:0:0:0:
276,224,430351,6,0,P|364:268|440:232,1,180,4|12,0:0|0:0,0:0:0:0:
276,224,430865,1,0,0:0:0:0:
168,224,431037,1,2,0:0:0:0:
88,152,431208,1,0,0:0:0:0:
108,44,431380,1,8,0:0:0:0:
188,116,431551,1,0,0:0:0:0:
188,116,431637,1,0,0:0:0:0:
188,116,431722,6,0,P|276:132|348:72,1,180,4|8,0:0|0:0,0:0:0:0:
248,20,432237,1,0,0:0:0:0:
316,212,432408,2,0,P|344:248|404:268,1,90,2|0,0:0|0:0,0:0:0:0:
484,308,432751,2,0,P|452:352|408:368,1,90,8|0,0:0|0:0,0:0:0:0:
320,332,433094,6,0,P|232:308|144:332,1,180,4|8,0:0|0:0,0:0:0:0:
48,372,433608,1,0,0:0:0:0:
64,264,433780,1,0,0:0:0:0:
152,200,433951,1,0,0:0:0:0:
260,184,434122,2,0,P|300:160|328:112,1,90,8|0,0:0|0:0,0:0:0:0:
348,12,434465,6,0,P|412:60|428:164,1,180,4|8,0:0|0:0,0:0:0:0:
342,326,434980,2,0,P|273:270|260:184,1,180,2|0,0:0|0:0,0:0:0:0:
260,76,435494,1,8,0:0:0:0:
348,12,435665,1,0,0:0:0:0:
164,12,435837,6,0,P|120:84|152:168,1,180,4|8,0:0|0:0,0:0:0:0:
256,196,436351,2,0,P|300:208|340:248,2,90,0|2|0,0:0|0:0|0:0,0:0:0:0:
336,324,436865,2,0,P|380:312|412:272,1,90,8|0,0:0|0:0,0:0:0:0:
408,104,437208,6,0,P|378:71|336:60,1,90,4|0,0:0|0:0,0:0:0:0:
228,80,437551,1,8,0:0:0:0:
128,120,437722,2,0,P|36:96|16:8,1,180,2|0,0:0|0:0,0:0:0:0:
128,120,438237,2,0,L|144:220,1,90,12|0,0:0|0:0,0:0:0:0:
248,324,438580,6,0,L|233:235,1,90,4|0,0:0|0:0,0:0:0:0:
304,100,438922,2,0,L|320:200,1,90,8|0,0:0|0:0,0:0:0:0:
340,328,439265,1,2,0:0:0:0:
232,236,439437,1,0,0:0:0:0:
232,236,439522,1,0,0:0:0:0:
232,236,439608,1,8,0:0:0:0:
376,252,439780,1,0,0:0:0:0:
376,252,439865,1,0,0:0:0:0:
376,252,439951,5,4,0:0:0:0:
256,192,440037,12,0,442008,0:0:0:0:
344,200,447742,6,0,P|396:200|428:176,1,90,6|2,0:0|0:0,0:0:0:0:
460,76,448094,1,8,0:0:0:0:
248,152,448271,2,0,P|236:208|256:256,1,90,0|2,0:0|0:0,0:0:0:0:
332,304,448624,1,2,0:0:0:0:
340,96,448800,2,0,P|304:56|244:52,1,90,8|0,0:0|0:0,0:0:0:0:
164,76,449153,6,0,L|72:84,2,90,2|2|8,0:0|0:0|0:0,0:0:0:0:
248,152,449683,1,0,0:0:0:0:
340,220,449859,2,0,L|432:212,2,90,2|2|8,0:0|0:0|0:0,0:0:0:0:
248,152,450389,1,0,0:0:0:0:
160,212,450565,2,0,P|88:208|44:152,1,135,2|0,0:0|0:0,0:0:0:0:
40,112,450918,5,6,0:0:0:0:
156,76,451094,1,0,0:0:0:0:
248,152,451271,2,0,P|268:220|236:292,1,135,2|0,0:0|0:0,0:0:0:0:
200,308,451624,5,6,0:0:0:0:
160,212,451800,1,0,0:0:0:0:
248,152,451977,2,0,L|344:156,1,90,2|2,0:0|0:0,0:0:0:0:
473,240,452330,2,0,L|384:252,1,90,8|0,0:0|0:0,0:0:0:0:
308,328,452683,6,0,P|276:336|232:336,1,67.5000025749208,8|8,3:0|3:0,0:0:0:0:
164,324,452859,6,0,P|132:312|116:292,1,56.25,8|8,3:0|3:0,0:0:0:0:
72,228,453036,6,0,P|64:192|68:172,1,45,8|8,3:0|3:0,0:0:0:0:
68,104,453212,6,0,P|72:80|80:64,1,33.7500012874604,8|8,3:0|3:0,0:0:0:0:
144,24,453389,6,0,P|212:32|292:28,1,135.000005149842,6|8,0:0|0:0,0:0:0:0:
372,16,453918,1,0,0:0:0:0:
436,88,454094,2,0,P|448:132|432:204,1,101.250003862381,2|0,0:0|0:0,0:0:0:0:
440,186,454447,1,8,0:0:0:0:
344,176,454624,1,6,0:0:0:0:
304,260,454800,6,0,P|244:280|184:248,1,135.000005149842,0|8,0:0|0:0,0:0:0:0:
252,184,455330,1,0,0:0:0:0:
344,176,455506,2,0,P|392:220|396:272,1,101.250003862381,2|0,0:0|0:0,0:0:0:0:
398,253,455859,1,8,0:0:0:0:
356,336,456036,1,0,0:0:0:0:
216,324,456212,6,0,P|172:336|116:320,1,90,6|0,0:0|0:0,0:0:0:0:
308,228,456565,2,0,P|344:256|360:308,1,90,8|0,0:0|0:0,0:0:0:0:
168,196,456918,2,0,P|180:148|216:120,1,90,8|0,0:0|0:0,0:0:0:0:
216,324,457271,2,0,P|172:336|116:320,1,90,8|0,0:0|0:0,0:0:0:0:
332,124,457624,6,0,P|388:112|444:128,1,112.5,6|0,0:0|0:0,0:0:0:0:
224,248,457977,2,0,P|176:204|168:144,1,112.5,8|0,0:0|0:0,0:0:0:0:
376,284,458330,2,0,P|360:344|320:372,1,112.5,8|0,0:0|0:0,0:0:0:0:
332,124,458683,2,0,P|388:112|444:128,1,112.5,8|0,0:0|0:0,0:0:0:0:
376,284,459036,5,8,0:0:0:0:
212,328,459212,1,8,0:0:0:0:
160,168,459389,1,8,0:0:0:0:
332,124,459742,5,0,0:0:0:0:
376,284,460094,1,0,0:0:0:0:
212,328,460447,6,0,P|144:344|76:308,1,135.000005149842,6|2,0:0|0:0,0:0:0:0:
100,156,461153,2,0,P|168:140|236:176,2,135.000005149842,2|2|2,0:0|0:0|0:0,0:0:0:0:
156,264,462212,1,2,0:0:0:0:
288,236,462565,1,2,0:0:0:0:
244,364,462918,1,2,0:0:0:0:
156,264,463271,6,0,P|148:200|196:136,1,135.000005149842,2|2,0:0|0:0,0:0:0:0:
288,236,463977,1,2,0:0:0:0:
244,364,464330,1,2,0:0:0:0:
108,372,464683,2,0,P|48:332|44:256,1,135.000005149842,2|2,0:0|0:0,0:0:0:0:
108,160,465389,2,0,P|144:152|188:168,2,67.5000025749208,2|0|2,0:0|0:0|0:0,0:0:0:0:
192,288,466094,6,0,P|244:276|292:212,1,135.000005149842,6|2,0:0|0:0,0:0:0:0:
48,240,466800,2,0,P|32:300|80:376,1,135.000005149842,2|2,0:0|0:0,0:0:0:0:
156,148,467506,2,0,P|108:104|28:100,1,135.000005149842,2|2,0:0|0:0,0:0:0:0:
356,148,468212,2,0,P|404:104|484:100,1,135.000005149842,2|2,0:0|0:0,0:0:0:0:
472,232,468918,1,2,0:0:0:0:
316,328,469271,1,2,0:0:0:0:
380,164,469624,1,2,0:0:0:0:
424,336,469977,1,14,0:0:0:0:
288,224,470330,5,8,0:0:0:0:
224,292,470506,1,8,0:0:0:0:
124,320,470683,1,8,0:0:0:0:
32,268,470859,1,8,0:0:0:0:
8,156,471036,1,8,0:0:0:0:
64,48,471212,1,8,0:0:0:0:
192,24,471389,1,8,0:0:0:0:
300,104,471565,1,8,0:0:0:0:
300,104,472094,6,0,P|408:108|412:248,1,270
356,176,473506,1,0,0:0:0:0:
300,104,473859,6,0,P|272:136|268:184,1,90,6|2,0:0|0:0,0:0:0:0:
324,272,474211,1,8,0:0:0:0:
404,104,474388,1,0,0:0:0:0:
332,24,474564,2,0,P|284:16|240:44,1,90,2|2,0:0|0:0,0:0:0:0:
356,176,474917,2,0,P|404:192|448:180,1,90,8|0,0:0|0:0,0:0:0:0:
300,104,475270,2,0,P|264:160|316:260,1,180,2|8,0:0|0:0,0:0:0:0:
356,176,475800,1,0,0:0:0:0:
232,40,475976,6,0,L|112:52,1,101.250003862381,2|0,0:0|0:0,0:0:0:0:
64,76,476329,6,0,L|184:84,1,114.750002188683,8|0,0:0|0:0,0:0:0:0:
232,112,476682,6,0,L|92:128,1,135,6|0,0:0|0:0,0:0:0:0:
48,148,477035,6,0,L|152:160,1,90,8|0,0:0|0:0,0:0:0:0:
204,244,477388,2,0,L|304:260,1,90,2|2,0:0|0:0,0:0:0:0:
116,312,477741,2,0,L|24:324,1,90,8|0,0:0|0:0,0:0:0:0:
228,324,478094,6,0,L|416:356,1,180,2|8,0:0|0:0,0:0:0:0:
496,292,478623,1,0,0:0:0:0:
484,184,478800,2,0,P|432:196|404:232,1,90,2|2,0:0|0:0,0:0:0:0:
484,184,479153,2,0,P|488:104|436:56,1,135,8|0,0:0|0:0,0:0:0:0:
388,32,479506,6,0,B|344:36|344:36|304:76|256:40|256:40|200:36,1,180,6|8,0:0|0:0,0:0:0:0:
116,72,480035,1,0,0:0:0:0:
88,176,480211,2,0,P|104:224|144:252,1,90,2|2,0:0|0:0,0:0:0:0:
211,354,480564,2,0,P|261:347|295:312,1,90,8|0,0:0|0:0,0:0:0:0:
408,264,480917,2,0,P|409:213|381:173,1,90,6|0,0:0|0:0,0:0:0:0:
284,156,481270,1,8,0:0:0:0:
360,80,481447,1,0,0:0:0:0:
252,60,481623,2,0,P|176:36|88:96,1,180,2|8,0:0|0:0,0:0:0:0:
76,192,482153,1,0,0:0:0:0:
128,288,482329,6,0,P|204:312|292:252,1,180,6|8,0:0|0:0,0:0:0:0:
368,192,482859,2,0,P|412:168|464:176,1,90,0|2,0:0|0:0,0:0:0:0:
432,276,483211,1,2,0:0:0:0:
304,140,483388,2,0,P|384:88|472:92,1,180,8|6,0:0|0:0,0:0:0:0:
432,276,483917,5,8,0:0:0:0:
432,276,484094,1,8,0:0:0:0:
340,328,484270,1,0,0:0:0:0:
232,320,484447,5,8,3:0:0:0:
180,304,484535,1,8,3:0:0:0:
140,276,484623,5,8,3:0:0:0:
112,236,484711,1,8,3:0:0:0:
100,192,484800,5,8,3:0:0:0:
100,148,484888,1,8,3:0:0:0:
108,108,484976,5,8,3:0:0:0:
132,76,485064,1,8,3:0:0:0:
165,62,485153,6,0,P|209:54|257:66,1,90,6|2,0:0|0:0,0:0:0:0:
308,160,485506,2,0,P|264:168|216:152,1,90,8|0,0:0|0:0,0:0:0:0:
388,104,485859,2,0,P|408:152|396:208,1,90,2|2,0:0|0:0,0:0:0:0:
308,160,486211,1,8,0:0:0:0:
444,44,486388,1,0,0:0:0:0:
488,216,486564,6,0,L|496:316,1,90,2|2,0:0|0:0,0:0:0:0:
308,160,486917,2,0,L|320:64,1,90,8|0,0:0|0:0,0:0:0:0:
400,172,487270,2,0,L|388:308,1,135,2|0,0:0|0:0,0:0:0:0:
344,340,487623,2,0,P|260:360|208:320,1,135,8|0,0:0|0:0,0:0:0:0:
180,304,487976,6,0,P|120:280|48:304,1,135,6|0,0:0|0:0,0:0:0:0:
32,348,488329,1,8,0:0:0:0:
160,212,488506,1,0,0:0:0:0:
40,104,488682,2,0,P|8:140|0:192,1,90,2|2,0:0|0:0,0:0:0:0:
168,100,489035,2,0,P|160:48|124:16,1,90,8|0,0:0|0:0,0:0:0:0:
160,212,489388,6,0,P|240:204|292:120,1,180,2|8,0:0|0:0,0:0:0:0:
168,100,489917,1,2,0:0:0:0:
64,168,490094,2,0,P|56:248|132:308,1,180,2|8,0:0|0:0,0:0:0:0:
236,296,490623,2,0,L|300:304,1,45
356,320,490800,6,0,L|452:316,1,90,6|0,0:0|0:0,0:0:0:0:
360,168,491153,2,0,L|264:172,1,90,8|0,0:0|0:0,0:0:0:0:
360,344,491506,2,0,L|456:340,1,90,2|2,0:0|0:0,0:0:0:0:
356,144,491859,2,0,L|260:148,1,90,8|0,0:0|0:0,0:0:0:0:
184,240,492211,6,0,P|180:288|192:340,1,90,6|0,0:0|0:0,0:0:0:0:
112,112,492564,2,0,P|116:68|108:16,1,90,8|0,0:0|0:0,0:0:0:0:
110,242,492917,2,0,P|106:286|118:342,1,90,2|2,0:0|0:0,0:0:0:0:
187,110,493270,2,0,P|191:66|183:18,1,90,8|0,0:0|0:0,0:0:0:0:
112,112,493623,5,14,0:0:0:0:
112,112,493800,1,0,0:0:0:0:
172,288,493976,1,8,0:0:0:0:
172,288,494153,1,0,0:0:0:0:
236,112,494329,1,8,0:0:0:0:
236,112,494506,1,0,0:0:0:0:
76,220,494682,1,8,0:0:0:0:
76,220,494859,1,0,0:0:0:0:
276,216,495035,1,14,0:0:0:0:
276,216,495211,1,0,0:0:0:0:
176,188,495388,5,8,0:0:0:0:
176,188,495741,2,0,P|192:152|228:120,1,67.5000025749208,8|8,3:0|3:0,0:0:0:0:
284,96,495917,6,0,P|312:88|352:96,1,56.25,8|8,3:0|3:0,0:0:0:0:
416,112,496094,6,0,P|440:136|448:160,1,45,8|8,3:0|3:0,0:0:0:0:
472,220,496270,6,0,P|474:245|472:276,1,33.7500012874604,8|8,3:0|3:0,0:0:0:0:
460,332,496447,6,0,P|424:360|360:364,1,101.250003862381,6|0,0:0|0:0,0:0:0:0:
369,366,496800,1,8,0:0:0:0:
292,312,496976,1,0,0:0:0:0:
200,332,497153,2,0,L|120:344,1,67.5000025749208,2|2,0:0|0:0,0:0:0:0:
44,308,497506,1,8,0:0:0:0:
36,216,497682,2,0,P|8:164|40:80,1,135.000005149842,2|2,0:0|0:0,0:0:0:0:
129,225,498211,2,0,P|105:286|44:308,1,135.000005149842,8|2,0:0|0:0,0:0:0:0:
92,148,498741,2,0,P|140:140|172:152,1,67.5000025749208,2|8,0:0|0:0,0:0:0:0:
240,188,499094,1,0,0:0:0:0:
328,224,499270,6,0,P|408:220|440:164,1,135.000005149842,2|8,0:0|0:0,0:0:0:0:
352,136,499800,1,0,0:0:0:0:
328,224,499976,1,2,0:0:0:0:
304,316,500153,2,0,L|292:240,1,67.5000025749208,2|8,0:0|0:0,0:0:0:0:
268,160,500506,2,0,P|232:96|164:88,1,135.000005149842,2|2,0:0|0:0,0:0:0:0:
267,243,501035,2,0,P|300:242|328:224,1,67.5000025749208,8|0,0:0|0:0,0:0:0:0:
100,100,501388,2,0,P|56:148|56:216,1,135.000005149842,2|8,0:0|0:0,0:0:0:0:
112,292,501917,1,0,0:0:0:0:
204,264,502094,6,0,P|272:244|336:280,1,135.000005149842,6|8,0:0|0:0,0:0:0:0:
264,340,502623,1,0,0:0:0:0:
204,264,502800,2,0,L|200:188,1,67.5000025749208,2|2,0:0|0:0,0:0:0:0:
196,100,503153,1,8,0:0:0:0:
192,4,503329,2,0,L|160:160,1,135.000005149842,2|2,0:0|0:0,0:0:0:0:
144,228,503859,1,8,0:0:0:0:
80,296,504035,1,0,0:0:0:0:
48,208,504211,2,0,P|116:204|164:260,1,135.000005149842,2|10,0:0|0:0,0:0:0:0:
232,308,504741,1,0,0:0:0:0:
316,352,504917,6,0,P|380:332|404:264,1,135.000005149842,2|8,0:0|0:0,0:0:0:0:
312,260,505447,1,0,0:0:0:0:
232,308,505623,1,2,0:0:0:0:
164,244,505800,1,2,0:0:0:0:
88,300,505976,1,6,0:0:0:0:
256,140,506329,5,8,0:0:0:0:
256,40,506506,1,8,0:0:0:0:
316,236,506859,5,8,0:0:0:0:
396,316,507035,1,8,0:0:0:0:
196,236,507388,5,8,0:0:0:0:
116,316,507564,1,14,0:0:0:0:
256,192,507653,12,0,511976,0:0:0:0:
432,56,519608,6,0,P|440:96|440:140,1,79.2000024169922,4|0,0:0|0:0,0:0:0:0:
300,160,520030,2,0,P|292:120|292:76,1,79.2000024169922,0|8,1:0|0:0,0:0:0:0:
372,232,520453,2,0,P|328:256|220:224,1,158.400004833984,2|0,0:0|1:0,0:0:0:0:
164,172,521086,1,8,0:0:0:0:
164,172,521298,6,0,P|91:143|19:171,1,158.400004833984,2|0,0:0|1:0,0:0:0:0:
88,316,521931,2,0,P|96:268|88:236,1,79.2000024169922,8|2,0:0|0:0,0:0:0:0:
24,44,522354,1,8,0:0:0:0:
24,44,522460,1,0,0:0:0:0:
24,44,522565,2,0,L|104:56,1,79.2000024169922,0|0,1:0|0:0,0:0:0:0:
208,112,522988,6,0,L|340:96,1,118.800003625488,4|0,0:0|0:0,0:0:0:0:
352,92,523410,2,0,P|360:136|356:172,1,79.2000024169922,0|8,1:0|0:0,0:0:0:0:
412,328,523833,2,0,P|404:284|408:248,1,79.2000024169922,2|8,0:0|0:0,0:0:0:0:
468,164,524255,1,0,1:0:0:0:
296,264,524467,1,8,0:0:0:0:
296,264,524572,1,0,0:0:0:0:
296,264,524678,6,0,B|240:268|240:268|192:252|192:252|120:256,2,158.400004833984,2|0|2,0:0|1:0|0:0,0:0:0:0:
252,172,525734,2,0,P|256:128|252:92,2,79.2000024169922,8|0|0,0:0|1:0|0:0,0:0:0:0:
172,344,526368,6,0,L|24:356,1,118.800003625488,4|8,0:0|0:0,0:0:0:0:
28,356,526791,1,0,1:0:0:0:
40,244,527002,1,8,0:0:0:0:
40,244,527213,2,0,L|152:236,1,79.2000024169922,2|8,0:0|0:0,0:0:0:0:
184,168,527636,1,0,1:0:0:0:
160,72,527847,1,0,0:0:0:0:
260,96,528058,6,0,B|336:80|344:120|420:104,1,158.400004833984,2|0,0:0|1:0,0:0:0:0:
500,52,528692,1,0,0:0:0:0:
500,52,528798,1,0,0:0:0:0:
500,52,528903,1,2,0:0:0:0:
504,152,529115,2,0,L|512:232,1,79.2000024169922,8|0,0:0|1:0,0:0:0:0:
448,304,529537,1,0,0:0:0:0:
448,304,529748,6,0,P|372:268|296:292,1,158.400004833984,4|0,0:0|1:0,0:0:0:0:
216,336,530382,1,0,0:0:0:0:
120,304,530593,2,0,L|28:296,1,79.2000024169922,2|8,0:0|0:0,0:0:0:0:
8,160,531016,2,0,L|86:166,1,79.2000024169922,0|0,1:0|0:0,0:0:0:0:
200,104,531438,5,4,0:0:0:0:
200,104,531544,1,0,1:0:0:0:
200,104,531650,2,0,P|212:60|208:20,1,79.2000024169922,0|0,0:0|1:0,0:0:0:0:
268,192,532072,1,0,0:0:0:0:
268,192,532178,1,0,1:0:0:0:
268,192,532284,2,0,P|256:236|260:276,1,79.2000024169922,2|0,0:0|1:0,0:0:0:0:
340,340,532706,1,8,0:0:0:0:
368,336,532812,1,8,0:0:0:0:
396,332,532917,1,8,0:0:0:0:
424,328,533023,1,8,0:0:0:0:
452,324,533129,6,0,P|472:268|468:208,1,118.800003625488,4|0,0:0|0:0,0:0:0:0:
448,196,533551,2,0,L|367:186,1,79.2000024169922,0|0,1:0|0:0,0:0:0:0:
344,96,533974,2,0,L|512:116,1,158.400004833984,2|0,0:0|1:0,0:0:0:0:
500,116,534608,1,0,0:0:0:0:
284,180,534819,6,0,P|248:104|272:32,1,158.400004833984,2|0,0:0|1:0,0:0:0:0:
356,100,535453,1,8,0:0:0:0:
356,100,535664,2,0,L|184:116,1,158.400004833984,2|0,0:0|1:0,0:0:0:0:
200,116,536298,1,0,0:0:0:0:
0,204,536509,6,0,L|160:224,1,158.400004833984,4|0,0:0|1:0,0:0:0:0:
157,223,537143,1,0,0:0:0:0:
368,312,537354,2,0,L|196:328,1,158.400004833984,2|0,0:0|1:0,0:0:0:0:
210,326,537988,1,0,0:0:0:0:
210,326,538199,6,0,L|238:237,1,79.2000024169922,2|0,0:0|0:0,0:0:0:0:
336,212,538622,2,0,P|396:208|464:272,1,158.400004833984,0|2,1:0|0:0,0:0:0:0:
268,148,539255,2,0,P|256:100|260:64,2,79.2000024169922,8|0|0,0:0|1:0|0:0,0:0:0:0:
240,240,539889,6,0,B|184:236|184:236|136:248|136:248|80:244,1,158.400004833984,4|0,0:0|1:0,0:0:0:0:
20,176,540523,1,0,0:0:0:0:
0,292,540734,2,0,L|-4:372,1,79.2000024169922,2|8,0:0|0:0,0:0:0:0:
108,152,541157,2,0,L|100:72,1,79.2000024169922,0|0,1:0|0:0,0:0:0:0:
184,24,541579,6,0,P|228:16|308:84,2,158.400004833984,2|0|2,0:0|1:0|0:0,0:0:0:0:
216,112,542636,2,0,L|224:200,1,79.2000024169922,8|0,0:0|1:0,0:0:0:0:
176,288,543058,1,8,0:0:0:0:
176,288,543164,1,8,0:0:0:0:
176,288,543269,6,0,P|216:312|312:292,1,118.800003625488,4|8,0:0|0:0,0:0:0:0:
316,296,543692,2,0,P|360:288|408:300,1,79.2000024169922,0|0,1:0|0:0,0:0:0:0:
480,336,544115,2,0,P|476:292|484:256,1,79.2000024169922,2|0,0:0|0:0,0:0:0:0:
512,168,544537,2,0,P|468:176|420:164,1,79.2000024169922,0|0,1:0|0:0,0:0:0:0:
373,91,544960,1,2,0:0:0:0:
271,103,545171,6,0,L|187:92,1,79.2000024169922,8|0,0:0|1:0,0:0:0:0:
92,76,545593,1,8,0:0:0:0:
92,76,545699,1,8,0:0:0:0:
92,76,545805,2,0,L|84:124,3,39.6000012084961,0|0|0|0,1:0|1:0|1:0|1:0,0:0:0:0:
132,184,546227,2,0,L|124:232,3,39.6000012084961,0|0|0|0,1:0|1:0|1:0|1:0,0:0:0:0:
180,288,546650,6,0,P|224:312|324:288,1,158.400004833984,4|0,0:0|1:0,0:0:0:0:
376,204,547284,1,8,0:0:0:0:
376,204,547495,2,0,P|448:176|520:208,1,158.400004833984,2|0,0:0|1:0,0:0:0:0:
448,348,548129,1,0,0:0:0:0:
448,348,548234,1,0,1:0:0:0:
448,348,548340,6,0,L|444:264,1,79.2000024169922,2|0,0:0|0:0,0:0:0:0:
307,143,548762,2,0,L|304:64,1,79.2000024169922,0|0,1:0|0:0,0:0:0:0:
256,224,549185,2,0,P|212:240|108:192,1,158.400004833984,2|0,0:0|1:0,0:0:0:0:
32,136,549819,1,8,0:0:0:0:
24,248,550030,6,0,L|32:332,1,79.2000024169922,2|0,0:0|0:0,0:0:0:0:
127,258,550453,2,0,L|120:180,1,79.2000024169922,0|0,1:0|0:0,0:0:0:0:
208,328,550875,2,0,B|304:308|284:352|368:332,1,158.400004833984,2|0,0:0|1:0,0:0:0:0:
456,296,551509,1,0,0:0:0:0:
456,296,551615,1,0,0:0:0:0:
456,296,551720,6,0,P|460:252|456:216,1,79.2000024169922,2|0,0:0|0:0,0:0:0:0:
408,120,552143,2,0,P|404:80|408:41,1,79.2000024169922,0|8,1:0|0:0,0:0:0:0:
352,216,552565,2,0,B|320:240|320:240|252:260|208:200,1,158.400004833984,2|0,0:0|1:0,0:0:0:0:
180,116,553199,1,2,0:0:0:0:
56,316,553727,5,8,0:0:0:0:
56,316,553833,2,0,L|48:232,1,79.2000024169922,0|0,1:0|0:0,0:0:0:0:
140,192,554255,2,0,L|148:276,1,79.2000024169922,2|0,0:0|0:0,0:0:0:0:
228,316,554678,1,0,1:0:0:0:
256,328,554784,1,0,0:0:0:0:
288,328,554889,1,0,0:0:0:0:
320,320,554995,1,0,0:0:0:0:
348,300,555100,5,2,0:0:0:0:
372,280,555206,1,0,0:0:0:0:
400,268,555312,1,0,0:0:0:0:
432,268,555417,1,0,0:0:0:0:
464,276,555523,6,0,L|476:228,1,39.6000012084961,2|0,0:0|0:0,0:0:0:0:
448,156,555734,2,0,L|460:108,1,39.6000012084961,2|0,0:0|0:0,0:0:0:0:
428,40,555946,5,2,0:0:0:0:
428,40,556157,1,4,0:0:0:0:
248,96,562772,6,0,L|99:74,1,135.000005149841
112,88,563469,6,0,L|249:111,1,135.000005149842,4|0,0:0|0:0,0:0:0:0:
413,161,564050,1,0,0:0:0:0:
413,161,564167,2,0,P|423:236|400:296,1,135.000005149842,0|0,1:0|0:0,0:0:0:0:
262,333,564748,1,0,0:0:0:0:
262,333,564864,2,0,P|219:323|156:360,1,90.0000034332277
111,368,565213,2,0,P|65:374|28:348,1,90.0000034332277
84,302,565562,6,0,B|100:270|80:249|80:249|111:214|84:142,1,135.000005149842,0|0,1:0|0:0,0:0:0:0:
26,47,566143,1,0,0:0:0:0:
26,47,566260,2,0,P|100:23|165:50,1,135.000005149842,4|0,0:0|0:0,0:0:0:0:
153,185,566841,1,0,0:0:0:0:
153,185,566957,2,0,P|79:209|14:182,1,135.000005149842,0|0,1:0|0:0,0:0:0:0:
169,170,567538,5,0,0:0:0:0:
184,180,567655,1,0,0:0:0:0:
284,77,567887,1,0,0:0:0:0:
293,61,568003,1,0,0:0:0:0:
392,252,568353,2,0,P|354:301|264:276,1,135.000005149842,0|0,1:0|0:0,0:0:0:0:
304,145,568934,5,0,0:0:0:0:
304,145,569050,2,0,L|440:126,1,135.000005149842,4|0,0:0|0:0,0:0:0:0:
324,36,569631,1,0,0:0:0:0:
324,36,569748,2,0,P|256:31|196:69,1,135.000005149842,0|0,1:0|0:0,0:0:0:0:
99,167,570329,1,0,0:0:0:0:
99,167,570446,2,0,L|106:270,1,90.0000034332277
161,301,570794,2,0,P|116:330|69:317,1,90.0000034332277
161,301,571143,2,0,P|232:281|298:304,1,135.000005149842,0|0,1:0|0:0,0:0:0:0:
429,329,571724,5,0,0:0:0:0:
429,329,571841,2,0,L|445:170,1,135.000005149842,4|0,0:0|0:0,0:0:0:0:
384,62,572422,1,0,0:0:0:0:
384,62,572539,2,0,P|459:49|526:82,1,135.000005149842,0|0,1:0|0:0,0:0:0:0:
438,195,573120,5,0,0:0:0:0:
438,195,573236,2,0,L|341:219,1,90.0000034332277
336,287,573585,2,0,P|285:249|290:192,1,90.0000034332277
295,156,573934,1,4,0:0:0:0:
448,0,574282,5,0,0:0:0:0:
295,156,574515,1,0,0:0:0:0:
295,156,574632,2,0,P|240:192|144:168,1,135.000005149842,4|0,0:0|0:0,0:0:0:0:
0,320,575330,2,0,P|55:284|151:308,1,135.000005149842,0|0,1:0|0:0,0:0:0:0:
249,355,575910,1,0,0:0:0:0:
263,365,576027,1,0,0:0:0:0:
370,269,576259,1,0,0:0:0:0:
379,253,576375,1,0,0:0:0:0:
445,124,576608,5,0,0:0:0:0:
454,108,576725,2,0,L|293:93,1,135.000005149842,0|0,1:0|0:0,0:0:0:0:
96,57,577306,1,0,0:0:0:0:
96,57,577423,2,0,P|167:73|197:129,1,135.000005149842,4|0,0:0|0:0,0:0:0:0:
170,265,578003,1,0,0:0:0:0:
163,281,578120,1,0,1:0:0:0:
38,351,578352,1,0,0:0:0:0:
22,359,578469,1,0,0:0:0:0:
163,281,578701,5,0,0:0:0:0:
170,265,578818,2,0,P|213:243|275:248,1,90.0000034332277
321,268,579166,2,0,P|362:283|428:248,1,90.0000034332277
463,227,579516,2,0,L|486:75,1,135.000005149842,0|0,1:0|0:0,0:0:0:0:
322,112,580096,5,0,0:0:0:0:
322,112,580213,2,0,P|252:118|199:69,1,135.000005149842,4|0,0:0|0:0,0:0:0:0:
56,149,580794,1,0,0:0:0:0:
56,149,580911,2,0,P|126:143|179:192,1,135.000005149842,0|0,1:0|0:0,0:0:0:0:
214,319,581492,5,0,0:0:0:0:
208,336,581608,1,0,0:0:0:0:
317,241,581841,1,0,0:0:0:0:
311,258,581957,1,0,0:0:0:0:
425,170,582189,1,0,0:0:0:0:
422,187,582306,2,0,L|377:324,1,135.000005149842,0|0,1:0|0:0,0:0:0:0:
172,190,583004,6,0,P|128:154|45:169,2,135.000005149842,4|0|8,0:0|0:0|0:0,0:0:0:0:
256,192,584050,12,0,585445,0:0:0:0:
164,320,590892,6,0,P|244:356|316:308,2,180,4|8|0,0:0|0:0|0:0,0:0:0:0:
236,252,591689,1,0,0:0:0:0:
72,272,591849,2,0,P|64:316|72:368,1,90,8|0,0:0|0:0,0:0:0:0:
148,200,592168,2,0,P|84:172|16:184,1,135,4|0,0:0|0:0,0:0:0:0:
0,200,592487,1,8,0:0:0:0:
108,52,592647,2,0,L|200:40,1,90,0|2,0:0|0:0,0:0:0:0:
280,96,592966,1,0,0:0:0:0:
412,16,593126,2,0,P|440:76|424:144,1,135,8|0,0:0|0:0,0:0:0:0:
408,156,593445,5,6,0:0:0:0:
480,228,593604,1,0,0:0:0:0:
384,256,593764,2,0,L|396:348,1,90,8|0,0:0|0:0,0:0:0:0:
312,188,594083,1,4,0:0:0:0:
480,228,594243,1,0,0:0:0:0:
308,348,594402,2,0,P|264:356|216:348,1,90,8|0,0:0|0:0,0:0:0:0:
192,140,594721,6,0,L|172:276,1,135,6|0,0:0|0:0,0:0:0:0:
156,288,595040,1,8,0:0:0:0:
88,216,595200,2,0,P|44:208|-4:216,1,90,4|2,0:0|0:0,0:0:0:0:
44,328,595519,1,0,0:0:0:0:
212,204,595679,2,0,L|192:70,1,135,10|0,0:0|0:0,0:0:0:0:
204,52,595998,5,6,0:0:0:0:
84,112,596157,1,0,0:0:0:0:
288,152,596317,2,0,P|332:156|380:144,1,90,8|0,0:0|0:0,0:0:0:0:
452,44,596636,1,4,0:0:0:0:
452,44,596796,1,0,0:0:0:0:
464,224,596955,2,0,L|480:136,1,90,10|0,0:0|0:0,0:0:0:0:
360,256,597274,6,0,P|404:324|496:332,2,180,2|8|2,0:0|0:0|0:0,0:0:0:0:
292,340,598072,1,0,0:0:0:0:
128,280,598232,2,0,P|172:268|220:268,1,90,8|0,0:0|0:0,0:0:0:0:
408,336,598551,2,0,P|452:260|420:180,1,180,6|8,0:0|0:0,0:0:0:0:
316,152,599030,1,0,0:0:0:0:
484,121,599189,6,0,P|487:103|491:31,1,90,4|0,0:0|0:0,0:0:0:0:
316,152,599509,2,0,P|312:169|308:241,1,90,8|0,0:0|0:0,0:0:0:0:
380,340,599828,2,0,P|320:368|252:352,1,135,6|0,0:0|0:0,0:0:0:0:
228,336,600147,1,8,0:0:0:0:
416,240,600306,2,0,P|464:228|508:232,1,90,6|0,0:0|0:0,0:0:0:0:
472,332,600626,1,0,0:0:0:0:
316,152,600785,2,0,P|252:132|180:144,1,135,10|0,0:0|0:0,0:0:0:0:
185,141,601104,6,0,L|203:51,1,90,6|0,0:0|0:0,0:0:0:0:
92,276,601423,2,0,L|110:186,1,90,8|0,0:0|0:0,0:0:0:0:
56,112,601743,1,4,0:0:0:0:
56,112,601902,1,0,0:0:0:0:
188,232,602062,1,8,0:0:0:0:
12,240,602221,1,0,0:0:0:0:
180,348,602381,6,0,P|248:328|316:336,1,135,2|0,0:0|0:0,0:0:0:0:
336,348,602700,1,8,0:0:0:0:
387,234,602860,2,0,P|430:223|475:227,1,90,4|2,0:0|0:0,0:0:0:0:
440,328,603179,1,0,0:0:0:0:
284,256,603338,2,0,P|264:192|272:124,1,135,8|0,0:0|0:0,0:0:0:0:
288,92,603657,6,0,P|244:108|196:108,1,90,6|0,0:0|0:0,0:0:0:0:
384,140,603977,1,8,0:0:0:0:
440,48,604136,1,0,0:0:0:0:
472,236,604296,2,0,P|396:280|312:256,2,180,4|8|2,0:0|0:0|0:0,0:0:0:0:
508,132,605094,5,0,0:0:0:0:
440,48,605253,1,8,0:0:0:0:
388,180,605413,2,0,L|396:280,1,90,4|2,0:0|0:0,0:0:0:0:
476,340,605732,1,0,0:0:0:0:
280,368,605892,2,0,L|288:268,1,90,10|0,0:0|0:0,0:0:0:0:
208,144,606211,6,0,P|140:200|52:184,1,180,2|8,0:0|0:0,0:0:0:0:
112,92,606689,1,0,0:0:0:0:
198,291,606849,2,0,L|287:278,1,90,4|0,0:0|0:0,0:0:0:0:
476,340,607168,2,0,L|387:353,1,90,10|0,0:0|0:0,0:0:0:0:
404,240,607487,5,6,0:0:0:0:
372,356,607647,1,0,0:0:0:0:
332,216,607806,1,8,0:0:0:0:
356,360,607966,1,4,0:0:0:0:
388,164,608126,1,2,0:0:0:0:
388,164,608285,1,0,0:0:0:0:
244,316,608445,2,0,P|200:332|148:328,1,90,8|0,0:0|0:0,0:0:0:0:
56,176,608764,6,0,L|72:312,1,135,6|0,0:0|0:0,0:0:0:0:
56,324,609083,2,0,L|100:244,1,90,8|0,0:0|0:0,0:0:0:0:
132,72,609402,2,0,L|144:172,1,90,4|0,0:0|0:0,0:0:0:0:
188,244,609721,1,8,0:0:0:0:
56,176,609881,1,0,0:0:0:0:
248,108,610040,6,0,L|384:96,1,135,6|0,0:0|0:0,0:0:0:0:
404,84,610360,1,8,0:0:0:0:
336,196,610519,1,4,0:0:0:0:
356,12,610679,1,2,0:0:0:0:
484,144,610838,1,4,0:0:0:0:
484,144,610998,1,8,0:0:0:0:
256,264,611317,6,0,P|312:300|380:292,1,135.000005149842,4|0,0:0|0:0,0:0:0:0:
436,228,611796,1,4,0:0:0:0:
508,376,611955,2,0,L|440:368,1,67.5000025749208,8|0,0:0|0:0,0:0:0:0:
240,164,612434,5,4,0:0:0:0:
188,336,612594,1,0,0:0:0:0:
188,336,612753,1,4,0:0:0:0:
124,264,612913,1,4,0:0:0:0:
276,300,613072,2,0,P|284:264|284:232,1,67.5000025749208,0|8,0:0|0:0,0:0:0:0:
336,16,613392,2,0,P|312:96|340:176,1,168.750006437302
360,188,613870,6,0,L|432:180,1,67.5000025749208,4|0,0:0|0:0,0:0:0:0:
188,336,614349,1,4,0:0:0:0:
124,264,614509,2,0,P|72:260|24:280,1,101.250003862381,8|0,0:0|0:0,0:0:0:0:
12,296,614828,2,0,L|4:228,1,67.5000025749208,0|4,0:0|0:0,0:0:0:0:
148,64,615147,6,0,L|140:132,1,67.5000025749208,0|4,0:0|0:0,0:0:0:0:
72,180,615466,1,4,0:0:0:0:
228,148,615626,2,0,L|192:204,1,67.5000025749208,0|8,0:0|0:0,0:0:0:0:
72,180,615945,2,0,P|56:244|76:312,1,135.000005149842
188,336,616423,5,4,0:0:0:0:
188,336,616743,1,0,0:0:0:0:
256,272,616902,1,0,0:0:0:0:
372,360,617062,2,0,L|300:352,1,67.5000025749208,8|0,0:0|0:0,0:0:0:0:
512,224,617540,5,4,0:0:0:0:
464,312,617700,1,0,0:0:0:0:
464,312,617860,1,4,0:0:0:0:
444,152,618019,1,4,0:0:0:0:
400,236,618179,2,0,P|368:244|332:240,1,67.5000025749208,0|8,0:0|0:0,0:0:0:0:
132,192,618498,2,0,L|268:176,1,135.000005149842
324,100,618977,5,6,0:0:0:0:
324,100,619136,1,0,0:0:0:0:
256,272,619296,1,10,0:0:0:0:
124,176,619455,1,0,0:0:0:0:
192,24,619615,2,0,P|204:68|200:116,1,90,6|0,0:0|0:0,0:0:0:0:
52,228,619934,2,0,P|49:272|61:315,1,90,10|4,0:0|0:0,0:0:0:0:
144,368,620253,5,2,0:0:0:0:
144,368,620413,1,4,0:0:0:0:
264,256,620572,1,10,0:0:0:0:
124,176,620732,1,0,0:0:0:0:
280,88,620892,2,0,P|324:80|368:84,1,90,6|0,0:0|0:0,0:0:0:0:
364,264,621211,2,0,P|408:272|452:268,1,90,10|10,0:0|0:0,0:0:0:0:
512,188,621530,5,2,0:0:0:0:
436,360,621689,1,10,0:0:0:0:
504,176,622009,5,2,0:0:0:0:
424,356,622168,1,10,0:0:0:0:
496,164,622487,5,2,0:0:0:0:
412,352,622647,2,0,B|320:384|264:304|264:304|184:252|108:312,1,337.500012874604,10|2,0:0|0:0,0:0:0:0:
188,380,623604,1,2,0:0:0:0:
364,264,623764,1,2,0:0:0:0:
116,152,624083,5,6,0:0:0:0:
116,152,624243,1,4,0:0:0:0:
256,192,624322,12,0,625360,0:0:0:0:
116,320,631991,5,2,0:0:0:0:
212,296,632148,1,0,0:0:0:0:
256,208,632306,1,8,0:0:0:0:
192,132,632464,2,0,P|108:112|44:184,1,180,2|0,0:0|0:0,0:0:0:0:
32,268,632938,1,8,0:0:0:0:
132,204,633096,6,0,L|80:28,1,180,2|0,0:0|0:0,0:0:0:0:
80,31,633569,1,8,0:0:0:0:
192,132,633727,2,0,L|220:224,1,90,2|0,0:0|0:0,0:0:0:0:
260,308,634043,1,0,0:0:0:0:
344,360,634201,1,8,0:0:0:0:
440,336,634359,6,0,P|472:300|480:248,2,90
344,360,634833,1,8,0:0:0:0:
260,308,634991,2,0,P|168:268|88:312,1,180
176,368,635464,1,8,0:0:0:0:
172,184,635622,6,0,P|260:199|332:264,1,180
344,360,636096,1,8,0:0:0:0:
440,336,636254,1,2,0:0:0:0:
440,336,636569,1,2,0:0:0:0:
484,248,636727,1,8,0:0:0:0:
488,148,636885,1,0,0:0:0:0:
469,117,636964,1,0,0:0:0:0:
441,95,637043,5,2,0:0:0:0:
288,32,637201,1,0,0:0:0:0:
298,206,637359,1,8,0:0:0:0:
376,48,637517,2,0,P|298:30|216:96,1,180,2|0,0:0|0:0,0:0:0:0:
168,216,637991,1,8,0:0:0:0:
279,136,638148,6,0,P|218:83|115:103,1,180,2|0,0:0|0:0,0:0:0:0:
48,160,638622,1,8,0:0:0:0:
32,260,638780,1,2,0:0:0:0:
32,260,639096,1,2,0:0:0:0:
96,332,639254,1,8,0:0:0:0:
196,344,639412,1,4,0:0:0:0:
196,344,639569,6,0,P|272:304|292:216,1,180,2|8,0:0|0:0,0:0:0:0:
220,124,640043,1,0,0:0:0:0:
180,232,640201,1,2,0:0:0:0:
272,304,640359,1,0,0:0:0:0:
384,264,640517,2,0,P|412:228|424:184,1,90,8|0,0:0|0:0,0:0:0:0:
272,304,640833,6,0,P|332:368|432:364,1,180,2|8,0:0|0:0,0:0:0:0:
256,0,641622,1,0,0:0:0:0:
160,20,641780,1,8,0:0:0:0:
88,88,641938,1,4,0:0:0:0:
64,184,642096,6,0,P|92:264|180:304,1,180
416,223,642727,1,2,0:0:0:0:
512,116,642885,1,0,0:0:0:0:
405,20,643043,1,8,0:0:0:0:
309,126,643201,1,4,0:0:0:0:
256,192,643280,12,0,644622,0:0:0:0:
200,208,645412,5,0,0:0:0:0:
200,208,645569,1,0,0:0:0:0:
200,208,645727,1,0,0:0:0:0:
200,208,645885,6,0,P|132:188|104:112,1,144,2|8,0:0|0:0,0:0:0:0:
256,96,646359,2,0,P|323:115|352:178,1,144,2|0,0:0|0:0,0:0:0:0:
316,256,646833,1,8,0:0:0:0:
244,304,646991,1,0,0:0:0:0:
160,304,647148,5,2,0:0:0:0:
88,256,647306,1,0,0:0:0:0:
68,172,647464,1,8,0:0:0:0:
112,99,647622,2,0,L|256:96,1,144,2|0,0:0|0:0,0:0:0:0:
344,96,648096,1,8,0:0:0:0:
432,92,648254,6,0,P|464:80|496:44,2,72,0|2|0,0:0|0:0|0:0,0:0:0:0:
256,96,648727,1,8,0:0:0:0:
144,228,648885,2,0,P|204:268|276:260,1,144,2|0,0:0|0:0,0:0:0:0:
224,188,649359,1,8,0:0:0:0:
224,188,649517,6,0,L|184:332,1,144,2|0,0:0|0:0,0:0:0:0:
104,360,649991,1,8,0:0:0:0:
260,376,650148,1,0,0:0:0:0:
260,376,650306,2,0,P|296:376|340:344,2,72,2|0|8,0:0|0:0|0:0,0:0:0:0:
104,360,650780,1,0,0:0:0:0:
224,188,650938,6,0,P|260:180|308:188,1,72,2|0,0:0|0:0,0:0:0:0:
284,304,651254,1,8,0:0:0:0:
176,252,651412,2,0,P|144:204|176:124,1,144,2|0,0:0|0:0,0:0:0:0:
336,60,651885,1,8,0:0:0:0:
332,152,652043,6,0,P|264:124|244:56,1,144,2|0,0:0|0:0,0:0:0:0:
336,60,652517,1,8,0:0:0:0:
404,112,652675,2,0,P|408:181|360:232,1,144,2|0,0:0|0:0,0:0:0:0:
276,248,653148,1,8,0:0:0:0:
332,312,653306,1,0,0:0:0:0:
360,232,653464,5,2,0:0:0:0:
252,324,653622,1,0,0:0:0:0:
412,296,653780,1,8,0:0:0:0:
304,168,653938,2,0,P|236:172|188:232,1,144,2|0,0:0|0:0,0:0:0:0:
276,248,654412,1,8,0:0:0:0:
276,248,654569,6,0,L|204:120,1,144,2|0,0:0|0:0,0:0:0:0:
80,56,655043,2,0,L|116:132,1,72,8|0,0:0|0:0,0:0:0:0:
256,376,655517,1,2,0:0:0:0:
340,364,655675,1,8,0:0:0:0:
412,316,655833,1,8,0:0:0:0:
460,244,655991,6,0,P|468:212|460:172,1,72,2|0,0:0|0:0,0:0:0:0:
412,104,656306,1,8,0:0:0:0:
332,136,656464,2,0,P|260:136|208:80,1,144,2|0,0:0|0:0,0:0:0:0:
168,12,656938,2,0,P|136:40|128:80,1,72,8|0,0:0|0:0,0:0:0:0:
351,220,657254,6,0,P|405:173|412:104,1,144,2|8,0:0|0:0,0:0:0:0:
304,32,657727,1,2,0:0:0:0:
208,352,658043,1,2,0:0:0:0:
156,272,658201,1,8,0:0:0:0:
248,264,658359,1,0,0:0:0:0:
120,352,658517,5,2,0:0:0:0:
196,192,658675,1,0,0:0:0:0:
300,336,658833,1,8,0:0:0:0:
120,352,658991,2,0,B|52:304|80:236|80:236|112:216,1,144,2|0,0:0|0:0,0:0:0:0:
196,192,659464,1,8,0:0:0:0:
304,200,659622,6,0,B|360:188|380:136|380:136|368:112,1,108,10|0,0:0|0:0,0:0:0:0:
372,84,659938,2,0,B|331:43|276:55|276:55|263:78,1,108,10|0,0:0|0:0,0:0:0:0:
252,100,660254,2,0,B|195:111|156:72|156:72|157:45,1,108,10|0,0:0|0:0,0:0:0:0:
140,24,660569,2,0,B|83:12|44:51|44:51|45:78,1,108,10|0,0:0|0:0,0:0:0:0:
32,100,660885,6,0,B|20:160|73:169|73:169|44:210|60:244|88:268|128:276|164:248|173:199,1,288,10|0,0:0|0:0,0:0:0:0:
196,128,661675,1,8,0:0:0:0:
228,40,661833,2,0,B|248:24|248:24|296:16|344:68,1,108,2|0,0:0|0:0,0:0:0:0:
348,88,662148,6,0,B|375:120|423:112|423:112|443:96,1,108,2|0,0:0|0:0,0:0:0:0:
464,56,662464,2,0,P|488:124|468:208,1,144,8|0,0:0|0:0,0:0:0:0:
412,264,662938,1,8,0:0:0:0:
320,272,663096,2,0,P|251:253|200:203,1,144,2|0,0:0|0:0,0:0:0:0:
162,75,663569,5,4,0:0:0:0:
292,36,663727,1,8,0:0:0:0:
331,165,663885,1,8,0:0:0:0:
202,204,664043,1,8,0:0:0:0:
216,16,664201,5,8,0:0:0:0:
352,88,664359,1,8,0:0:0:0:
280,224,664517,1,8,0:0:0:0:
280,224,664596,1,0,0:0:0:0:
280,224,664675,1,0,0:0:0:0:
144,152,664833,5,2,0:0:0:0:
131,170,664912,1,0,0:0:0:0:
124,192,664991,1,0,0:0:0:0:
124,214,665069,1,0,0:0:0:0:
132,244,665148,5,8,0:0:0:0:
151,268,665227,1,0,0:0:0:0:
178,283,665306,1,0,0:0:0:0:
209,286,665385,1,0,0:0:0:0:
252,284,665464,5,2,0:0:0:0:
289,268,665543,1,0,0:0:0:0:
316,239,665622,1,0,0:0:0:0:
330,201,665701,1,0,0:0:0:0:
344,152,665780,5,8,0:0:0:0:
368,109,665859,1,0,0:0:0:0:
413,91,665938,1,0,0:0:0:0:
460,105,666017,1,0,0:0:0:0:
484,148,666096,6,0,B|504:168|508:188|508:188|488:204|488:204|520:260|440:292,1,180,4|8,0:0|0:0,0:0:0:0:
289,268,666569,2,0,P|248:240|232:200,1,90,2|0,0:0|0:0,0:0:0:0:
216,104,666885,1,0,0:0:0:0:
308,140,667043,1,8,0:0:0:0:
232,204,667201,1,0,0:0:0:0:
284,68,667359,5,2,0:0:0:0:
308,220,667517,1,0,0:0:0:0:
164,164,667675,1,8,0:0:0:0:
284,68,667833,2,0,P|348:76|372:180,1,180,2|0,0:0|0:0,0:0:0:0:
252,284,668306,1,8,0:0:0:0:
164,164,668464,6,0,P|111:154|65:167,2,90
256,200,668938,1,8,0:0:0:0:
348,220,669096,2,0,P|400:229|446:216,1,90,2|0,0:0|0:0,0:0:0:0:
484,136,669412,2,0,P|431:126|385:139,1,90,0|8,0:0|0:0,0:0:0:0:
256,200,669727,6,0,P|220:136|232:20,1,180,2|0,0:0|0:0,0:0:0:0:
372,76,670201,1,8,0:0:0:0:
372,76,670359,2,0,P|332:155|255:200,1,180,2|0,0:0|0:0,0:0:0:0:
156,196,670833,1,8,0:0:0:0:
60,220,670991,1,0,0:0:0:0:
60,220,671069,1,0,0:0:0:0:
59,219,671148,6,0,P|116:285|203:282,1,180,2|8,0:0|0:0,0:0:0:0:
288,156,671622,2,0,P|328:176|348:236,1,90,2|0,0:0|0:0,0:0:0:0:
312,336,671938,1,0,0:0:0:0:
204,282,672096,1,8,0:0:0:0:
348,216,672254,6,0,P|408:172|416:68,1,180,2|0,0:0|0:0,0:0:0:0:
208,24,672727,1,8,0:0:0:0:
208,24,672885,2,0,P|240:92|340:124,1,180,2|0,0:0|0:0,0:0:0:0:
400,32,673359,2,0,L|292:36,1,90,8|0,0:0|0:0,0:0:0:0:
160,108,673675,6,0,L|260:104,1,90,2|0,0:0|0:0,0:0:0:0:
400,176,673991,1,8,0:0:0:0:
400,176,674148,2,0,L|300:180,1,90,2|0,0:0|0:0,0:0:0:0:
168,268,674464,2,0,L|268:264,1,90,4|8,0:0|0:0,0:0:0:0:
408,288,674780,6,0,L|208:300,1,180,4|0,0:0|0:0,0:0:0:0:
72,308,675254,1,8,0:0:0:0:
72,308,675412,1,2,0:0:0:0:
440,76,675727,1,2,0:0:0:0:
348,40,675885,1,8,0:0:0:0:
252,64,676043,1,0,0:0:0:0:
184,136,676201,6,0,P|99:99|73:12,1,180,4|8,0:0|0:0,0:0:0:0:
252,64,676675,2,0,P|322:123|321:215,1,180,2|0,0:0|0:0,0:0:0:0:
260,284,677148,1,8,0:0:0:0:
172,240,677306,1,0,0:0:0:0:
232,160,677464,6,0,L|400:76,1,180,4|8,0:0|0:0,0:0:0:0:
484,36,677938,1,2,0:0:0:0:
484,36,678254,1,2,0:0:0:0:
496,136,678412,1,8,0:0:0:0:
440,216,678569,1,0,0:0:0:0:
348,256,678727,6,0,B|300:288|264:252|260:264|200:236|168:272,1,180,2|8,0:0|0:0,0:0:0:0:
227,380,679201,2,0,B|282:365|278:314|290:319|308:255|348:256,1,180,2|0,0:0|0:0,0:0:0:0:
440,216,679675,1,8,0:0:0:0:
496,136,679833,6,0,B|464:80|416:68|416:68|380:88,1,135,10|0,0:0|0:0,0:0:0:0:
360,120,680148,2,0,B|328:176|280:188|280:188|256:174,1,135,10|0,0:0|0:0,0:0:0:0:
232,132,680464,2,0,B|200:76|152:64|152:64|128:77,1,135,10|0,0:0|0:0,0:0:0:0:
92,112,680780,2,0,B|66:171|85:216|85:216|110:227,1,135,10|0,0:0|0:0,0:0:0:0:
160,240,681096,6,0,B|224:272|256:336|256:336|288:272|352:240,1,270,4|8,0:0|0:0,0:0:0:0:
508,132,681885,1,2,0:0:0:0:
508,132,682043,2,0,P|468:104|420:104,1,90,0|8,0:0|0:0,0:0:0:0:
232,132,682359,6,0,P|208:188|296:184,1,180,4|8,0:0|0:0,0:0:0:0:
312,164,682754,1,0,0:0:0:0:
316,133,682833,1,8,0:0:0:0:
310,102,682912,1,0,0:0:0:0:
292,76,682991,1,0,0:0:0:0:
266,58,683069,1,0,0:0:0:0:
236,52,683148,1,2,0:0:0:0:
204,56,683227,1,0,0:0:0:0:
176,72,683306,2,0,P|128:136|148:244,1,180,4|8,0:0|0:0,0:0:0:0:
308,288,683780,5,2,0:0:0:0:
308,288,683859,1,0,0:0:0:0:
308,288,683938,1,8,0:0:0:0:
376,360,684096,1,8,0:0:0:0:
280,376,684254,1,0,0:0:0:0:
280,376,684333,1,0,0:0:0:0:
280,376,684412,2,0,P|232:380|180:364,1,90,10|8,0:0|0:0,0:0:0:0:
120,304,684727,1,0,0:0:0:0:
120,304,684806,1,0,0:0:0:0:
120,304,684885,6,0,L|84:124,1,180,4|0,0:0|0:0,0:0:0:0:
4,68,685359,1,8,0:0:0:0:
4,68,685438,1,0,0:0:0:0:
4,68,685517,1,0,0:0:0:0:
132,40,685675,1,2,0:0:0:0:
244,96,685833,2,0,P|336:104|412:44,1,180,4|0,0:0|0:0,0:0:0:0:
343,191,686306,6,0,P|426:160|484:92,2,180,2|8|2,0:0|0:0|0:0,0:0:0:0:
340,20,687096,2,0,P|324:64|336:112,1,90,0|8,0:0|0:0,0:0:0:0:
436,248,687412,6,0,P|340:280|260:252,1,180,4|0,0:0|0:0,0:0:0:0:
260,112,687885,1,8,0:0:0:0:
224,96,687964,1,0,0:0:0:0:
184,90,688043,1,0,0:0:0:0:
144,95,688122,1,0,0:0:0:0:
107,111,688201,1,2,0:0:0:0:
100,248,688359,2,0,P|196:280|276:252,1,180,4|0,0:0|0:0,0:0:0:0:
260,156,688833,5,2,0:0:0:0:
260,156,688912,1,0,0:0:0:0:
260,156,688991,2,0,P|344:192|364:288,1,180,8|0,0:0|0:0,0:0:0:0:
284,328,689464,2,0,P|364:372|448:332,1,180,4|8,0:0|0:0,0:0:0:0:
476,192,689938,1,0,0:0:0:0:
412,56,690096,6,0,B|356:24|328:32|324:52|292:72|232:36,1,180,2|8,0:0|0:0,0:0:0:0:
132,8,690569,1,0,0:0:0:0:
132,8,690648,1,0,0:0:0:0:
132,8,690727,1,2,0:0:0:0:
96,120,690885,6,0,B|80:176|80:176|96:184|96:184|76:248,1,135.000005149842,4|0,0:0|0:0,0:0:0:0:
56,336,691359,1,2,0:0:0:0:
256,192,691438,12,0,693569,0:0:0:0:
256,56,693727,5,8,0:0:0:0:
256,56,693885,1,8,0:0:0:0:
256,328,696254,5,8,0:0:0:0:
256,328,696412,1,8,0:0:0:0:
256,56,698622,5,8,0:0:0:0:
348,92,698780,2,0,P|408:156|404:252,1,180,4|0,0:0|0:0,0:0:0:0:
332,312,699254,1,8,0:0:0:0:
232,324,699412,1,0,0:0:0:0:
148,272,699569,1,2,0:0:0:0:
148,272,699648,1,0,0:0:0:0:
148,272,699727,1,0,0:0:0:0:
208,196,699885,1,8,0:0:0:0:
304,216,700043,1,4,0:0:0:0:
304,216,700359,5,2,0:0:0:0:
384,160,700517,2,0,P|428:152|484:168,2,90,2|0|2,0:0|0:0|0:0,0:0:0:0:
208,196,700991,2,0,P|164:204|108:188,1,90,2|0,0:0|0:0,0:0:0:0:
24,92,701306,1,4,0:0:0:0:
256,192,701385,12,0,702727,0:0:0:0:
299,211,708673,6,0,P|374:223|445:142,1,180,0|8,0:0|0:0,0:0:0:0:
341,117,709205,1,0,0:0:0:0:
233,130,709383,2,0,P|198:168|198:217,1,90,0|0,0:0|0:0,0:0:0:0:
341,117,709738,2,0,P|305:42|206:31,1,180,8|0,0:0|0:0,0:0:0:0:
115,65,710270,1,0,0:0:0:0:
110,173,710448,2,0,P|146:248|245:259,1,180,8|0,0:0|0:0,0:0:0:0:
215,157,710980,1,0,0:0:0:0:
110,173,711158,2,0,P|75:199|69:257,1,90,8|0,0:0|0:0,0:0:0:0:
167,347,711513,6,0,P|246:363|331:305,1,180,6|8,0:0|0:0,0:0:0:0:
352,207,712045,1,0,0:0:0:0:
266,140,712223,2,0,P|237:187|251:238,1,90,0|0,0:0|0:0,0:0:0:0:
436,284,712578,1,8,0:0:0:0:
456,178,712755,1,0,0:0:0:0:
378,102,712933,6,0,P|332:91|283:109,1,90
290,355,713288,2,0,P|336:366|385:348,1,90,8|0,0:0|0:0,0:0:0:0:
213,182,713643,2,0,P|203:225|218:268,1,90
461,263,713998,2,0,P|471:220|456:177,1,90,4|0,0:0|0:0,0:0:0:0:
251,90,714353,6,0,P|180:86|110:173,1,180,4|8,0:0|0:0,0:0:0:0:
147,264,714886,1,0,0:0:0:0:
256,256,715063,2,0,P|242:208|203:177,1,90
203,351,715418,1,8,0:0:0:0:
309,351,715596,2,0,P|346:323|363:268,1,90
327,180,715951,1,0,0:0:0:0:
203,352,716128,1,8,0:0:0:0:
68,205,716306,2,0,P|54:121|117:40,1,180,4|0,0:0|0:0,0:0:0:0:
147,264,716838,2,0,P|103:298|66:301,1,90,8|0,0:0|0:0,0:0:0:0:
207,153,717193,6,0,P|268:206|270:303,1,180,4|8,0:0|0:0,0:0:0:0:
183,363,717726,2,0,P|130:372|86:350,1,90
207,153,718081,2,0,P|260:144|304:166,1,90,0|8,0:0|0:0,0:0:0:0:
363,238,718436,1,0,0:0:0:0:
183,363,718613,5,2,0:0:0:0:
114,155,718791,1,0,0:0:0:0:
114,155,718880,1,0,0:0:0:0:
114,155,718968,1,8,0:0:0:0:
374,125,719146,2,0,P|452:154|479:253,1,180,4|2,0:0|0:0,0:0:0:0:
266,171,719678,2,0,P|253:120|266:78,1,90,2|0,0:0|0:0,0:0:0:0:
363,238,720033,6,0,P|331:273|283:286,1,90,4|0,0:0|0:0,0:0:0:0:
374,124,720388,2,0,P|426:136|457:168,1,90,8|0,0:0|0:0,0:0:0:0:
482,264,720744,2,0,L|490:370,1,90
363,238,721099,2,0,L|377:93,1,135,8|0,0:0|0:0,0:0:0:0:
375,103,721454,5,0,0:0:0:0:
482,264,721631,1,0,0:0:0:0:
409,344,721809,2,0,P|322:352|254:275,1,180,8|0,0:0|0:0,0:0:0:0:
238,185,722341,1,0,0:0:0:0:
166,103,722519,2,0,P|101:95|41:134,1,135,8|0,0:0|0:0,0:0:0:0:
35,161,722874,5,0,0:0:0:0:
129,213,723051,1,0,0:0:0:0:
238,185,723229,2,0,P|276:140|276:98,1,90,8|0,0:0|0:0,0:0:0:0:
206,297,723584,2,0,P|247:304|298:288,1,90
129,213,723939,2,0,P|87:269|103:345,1,135,8|0,0:0|0:0,0:0:0:0:
115,353,724294,5,0,0:0:0:0:
206,297,724471,1,0,0:0:0:0:
306,348,724649,2,0,P|373:360|434:292,1,135,8|0,0:0|0:0,0:0:0:0:
456,256,725004,2,0,P|426:191|362:162,1,135
300,179,725359,2,0,P|254:230|263:310,1,135,4|0,0:0|0:0,0:0:0:0:
306,348,725714,5,4,0:0:0:0:
456,256,725891,1,0,0:0:0:0:
301,179,726069,2,0,P|253:166|208:183,1,90,8|0,0:0|0:0,0:0:0:0:
456,256,726424,2,0,P|477:215|465:160,1,90,8|0,0:0|0:0,0:0:0:0:
289,306,726779,2,0,P|312:357|347:377,1,90,8|0,0:0|0:0,0:0:0:0:
398,161,727134,2,0,P|375:110|340:90,1,90,8|0,0:0|0:0,0:0:0:0:
302,179,727489,1,8,0:0:0:0:
488,145,727667,6,0,P|452:56|365:7,1,180,4|0,0:0|0:0,0:0:0:0:
300,79,728199,2,0,P|256:90|205:79,1,90,8|0,0:0|0:0,0:0:0:0:
129,13,728554,2,0,P|100:59|104:103,1,90,4|0,0:0|0:0,0:0:0:0:
37,212,728909,2,0,P|63:260|103:279,1,90,8|0,0:0|0:0,0:0:0:0:
192,368,729264,2,0,P|247:370|283:344,1,90,4|0,0:0|0:0,0:0:0:0:
328,256,729619,1,8,0:0:0:0:
421,193,729797,2,0,P|352:138|256:165,1,180,0|2,0:0|0:0,0:0:0:0:
328,256,730329,1,2,0:0:0:0:
325,245,730862,5,2,0:0:0:0:
253,164,731039,1,0,0:0:0:0:
253,164,731128,1,0,0:0:0:0:
253,164,731217,1,0,0:0:0:0:
211,263,731394,2,0,P|225:311|269:344,1,90
253,164,731749,2,0,P|166:157|105:228,1,180,8|0,0:0|0:0,0:0:0:0:
116,328,732282,2,0,P|142:361|195:373,1,90,0|8,0:0|0:0,0:0:0:0:
325,245,732637,6,0,P|408:228|483:305,1,180,4|0,0:0|0:0,0:0:0:0:
382,338,733170,1,2,0:0:0:0:
325,245,733347,1,2,0:0:0:0:
325,245,733436,1,2,0:0:0:0:
325,245,733525,1,2,0:0:0:0:
399,167,733702,1,2,0:0:0:0:
496,214,733880,1,2,0:0:0:0:
483,320,734057,1,2,0:0:0:0:
325,245,734235,6,0,P|291:189|311:108,1,135.000005149842,0|8,0:0|0:0,0:0:0:0:
382,338,734945,2,0,P|319:357|254:320,1,135.000005149842,8|8,0:0|0:0,0:0:0:0:
206,236,735477,1,2,0:0:0:0:
206,236,735832,5,2,0:0:0:0:
231,67,736010,1,2,0:0:0:0:
231,67,736897,5,0,0:0:0:0:
231,67,736986,1,0,0:0:0:0:
231,67,737075,2,0,P|272:57|326:69,1,90,4|0,0:0|0:0,0:0:0:0:
274,164,737430,2,0,P|233:174|179:162,1,90,8|0,0:0|0:0,0:0:0:0:
231,67,737785,1,0,0:0:0:0:
314,240,737962,1,0,0:0:0:0:
121,228,738140,1,8,0:0:0:0:
231,67,738317,6,0,P|317:64|381:147,1,180,4|0,0:0|0:0,0:0:0:0:
314,240,738850,2,0,P|281:200|274:153,1,90,8|0,0:0|0:0,0:0:0:0:
421,237,739205,1,0,0:0:0:0:
369,332,739383,1,0,0:0:0:0:
261,335,739560,2,0,P|215:294|212:208,1,135,8|0,0:0|0:0,0:0:0:0:
232,155,739915,2,0,P|307:116|393:160,1,180,0|8,0:0|0:0,0:0:0:0:
315,239,740448,1,0,0:0:0:0:
212,69,740625,1,0,0:0:0:0:
410,59,740803,1,0,0:0:0:0:
410,59,740980,1,8,0:0:0:0:
315,239,741158,6,0,P|237:276|143:233,1,180,4|0,0:0|0:0,0:0:0:0:
410,59,741690,2,0,P|455:73|490:121,1,90,8|0,0:0|0:0,0:0:0:0:
233,152,742045,2,0,P|211:117|214:66,1,90,8|0,0:0|0:0,0:0:0:0:
316,239,742400,1,8,0:0:0:0:
196,265,742578,1,0,0:0:0:0:
196,265,742667,1,0,0:0:0:0:
196,265,742755,6,0,P|143:241|123:202,1,90,4|0,0:0|0:0,0:0:0:0:
316,239,743110,2,0,P|315:315|231:378,1,180,8|0,0:0|0:0,0:0:0:0:
233,152,743643,1,0,0:0:0:0:
431,250,743820,1,8,0:0:0:0:
196,265,743998,2,0,P|128:213|121:113,1,180,4|0,0:0|0:0,0:0:0:0:
198,52,744530,2,0,P|244:49|293:56,1,90,8|0,0:0|0:0,0:0:0:0:
423,157,744886,2,0,P|377:160|328:153,1,90
199,52,745241,1,8,0:0:0:0:
199,52,745596,5,4,0:0:0:0:
312,126,745773,1,0,0:0:0:0:
187,177,745951,1,0,0:0:0:0:
266,68,746128,5,8,0:0:0:0:
323,190,746306,1,0,0:0:0:0:
187,177,746483,1,0,0:0:0:0:
312,126,746661,5,8,0:0:0:0:
300,260,746838,1,0,0:0:0:0:
187,177,747016,1,0,0:0:0:0:
323,191,747193,5,4,0:0:0:0:
243,300,747371,1,0,0:0:0:0:
187,177,747548,1,0,0:0:0:0:
300,260,747726,5,2,0:0:0:0:
89,307,748081,1,2,0:0:0:0:
155,102,748436,5,4,0:0:0:0:
207,352,748791,1,8,0:0:0:0:
65,189,749146,1,8,0:0:0:0:
276,148,749501,1,2,0:0:0:0:
276,148,749678,1,4,0:0:0:0:
256,192,749767,12,0,751631,0:0:0:0:
328,236,757341,6,0,P|340:192|328:136,1,90,2|0,0:0|0:0,0:0:0:0:
178,148,757686,2,0,P|172:192|184:236,1,90,8|0,0:0|0:0,0:0:0:0:
236,96,758031,6,0,P|196:72|144:76,1,90,2|0,0:0|0:0,0:0:0:0:
60,124,758376,1,8,0:0:0:0:
36,228,758548,1,0,0:0:0:0:
96,316,758720,2,0,P|184:328|256:280,1,180,2|8,0:0|0:0,0:0:0:0:
416,316,759238,6,0,P|328:328|256:280,1,180,2|0,0:0|0:0,0:0:0:0:
256,48,759755,2,0,P|300:36|364:56,1,90,8|0,0:0|0:0,0:0:0:0:
256,160,760100,2,0,P|212:172|148:152,1,90,2|0,0:0|0:0,0:0:0:0:
256,24,760445,2,0,P|300:12|364:32,1,90,8|0,0:0|0:0,0:0:0:0:
256,144,760789,6,0,P|212:156|148:136,1,90,2|0,0:0|0:0,0:0:0:0:
56,68,761134,1,8,0:0:0:0:
4,204,761307,1,0,0:0:0:0:
116,296,761479,1,2,0:0:0:0:
256,328,761652,2,0,P|304:320|348:292,1,90,0|8,0:0|0:0,0:0:0:0:
432,160,761996,6,0,P|340:164|268:224,1,180,2|0,0:0|0:0,0:0:0:0:
256,328,762514,2,0,P|204:304|184:272,1,90,8|0,0:0|0:0,0:0:0:0:
180,180,762858,2,0,L|168:80,1,90,2|0,0:0|0:0,0:0:0:0:
72,36,763203,2,0,L|82:125,1,90,8|0,0:0|0:0,0:0:0:0:
100,340,763548,6,0,P|148:344|196:324,1,90,4|0,0:0|0:0,0:0:0:0:
256,244,763893,1,8,0:0:0:0:
316,156,764065,2,0,P|358:141|402:146,2,90,0|2|0,0:0|0:0|0:0,0:0:0:0:
256,244,764583,2,0,P|224:208|212:152,1,90,8|0,0:0|0:0,0:0:0:0:
192,28,764927,6,0,P|178:70|148:103,1,90,2|0,0:0|0:0,0:0:0:0:
32,252,765272,2,0,P|45:209|75:176,1,90,8|0,0:0|0:0,0:0:0:0:
224,220,765617,2,0,P|181:206|148:176,1,90,2|0,0:0|0:0,0:0:0:0:
0,60,765962,2,0,P|42:73|75:103,1,90,8|0,0:0|0:0,0:0:0:0:
32,252,766307,6,0,P|88:320|184:312,1,180,4|8,0:0|0:0,0:0:0:0:
256,248,766824,1,0,0:0:0:0:
320,160,766996,2,0,P|406:158|461:225,1,180,2|8,0:0|0:0,0:0:0:0:
360,260,767514,6,0,L|436:88,1,180,2|0,0:0|0:0,0:0:0:0:
352,24,768031,1,8,0:0:0:0:
244,40,768203,1,0,0:0:0:0:
160,108,768376,2,0,P|108:104|68:72,1,90,2|0,0:0|0:0,0:0:0:0:
32,180,768720,2,0,L|23:269,1,90,8|0,0:0|0:0,0:0:0:0:
112,372,769065,6,0,L|120:282,1,90,4|0,0:0|0:0,0:0:0:0:
144,176,769410,1,8,0:0:0:0:
228,244,769583,1,0,0:0:0:0:
332,272,769755,2,0,P|376:248|404:212,1,90,2|0,0:0|0:0,0:0:0:0:
404,64,770100,2,0,P|360:88|332:124,1,90,8|0,0:0|0:0,0:0:0:0:
332,272,770445,5,2,0:0:0:0:
256,348,770617,1,0,0:0:0:0:
148,364,770789,2,0,L|60:340,1,90,8|0,0:0|0:0,0:0:0:0:
88,144,771134,2,0,L|20:228,1,90,2|0,0:0|0:0,0:0:0:0:
232,248,771479,2,0,L|216:160,1,90,8|0,0:0|0:0,0:0:0:0:
432,240,771824,6,0,P|456:224|448:152,1,90,2|0,0:0|0:0,0:0:0:0:
368,72,772169,2,0,P|344:88|368:160,1,90,8|0,0:0|0:0,0:0:0:0:
432,240,772514,1,2,0:0:0:0:
304,268,772686,1,0,0:0:0:0:
344,144,772858,1,8,0:0:0:0:
376,324,773031,6,0,P|324:356|220:308,1,180,4|0,0:0|0:0,0:0:0:0:
196,144,773548,1,8,0:0:0:0:
196,144,773893,1,2,0:0:0:0:
256,40,774065,1,0,0:0:0:0:
223,24,774152,1,0,0:0:0:0:
187,20,774238,1,8,0:0:0:0:
152,26,774324,1,0,0:0:0:0:
120,42,774410,1,0,0:0:0:0:
95,67,774496,1,0,0:0:0:0:
76,100,774583,6,0,L|64:200,1,90,4|0,0:0|0:0,0:0:0:0:
44,340,774927,1,8,0:0:0:0:
192,296,775100,1,0,0:0:0:0:
196,144,775272,1,2,0:0:0:0:
196,144,775445,1,0,0:0:0:0:
300,32,775617,2,0,P|344:24|396:40,1,90,8|0,0:0|0:0,0:0:0:0:
472,160,775962,6,0,P|428:168|376:152,1,90,2|0,0:0|0:0,0:0:0:0:
300,32,776307,1,8,0:0:0:0:
300,32,776479,1,0,0:0:0:0:
196,144,776652,2,0,P|104:144|40:84,1,180,2|8,0:0|0:0,0:0:0:0:
300,32,777341,6,0,P|392:32|456:92,1,180,4|8,0:0|0:0,0:0:0:0:
448,196,777858,1,0,0:0:0:0:
372,272,778031,1,2,0:0:0:0:
264,288,778203,1,0,0:0:0:0:
164,248,778376,1,8,0:0:0:0:
124,148,778548,1,0,0:0:0:0:
216,76,778720,6,0,L|332:64,1,90,4|0,0:0|0:0,0:0:0:0:
452,136,779065,2,0,L|362:145,1,90,8|0,0:0|0:0,0:0:0:0:
200,168,779410,1,2,0:0:0:0:
179,197,779496,1,0,0:0:0:0:
172,232,779583,1,0,0:0:0:0:
179,267,779669,1,0,0:0:0:0:
199,296,779755,1,8,0:0:0:0:
230,314,779841,1,0,0:0:0:0:
265,319,779927,1,0,0:0:0:0:
300,310,780014,1,0,0:0:0:0:
328,284,780100,5,4,0:0:0:0:
408,132,780272,2,0,B|364:85|335:95|324:101|284:116|238:59,1,180,4|0,0:0|0:0,0:0:0:0:
124,96,780789,2,0,B|130:154|92:172|80:176|52:189|54:253,1,180,4|0,0:0|0:0,0:0:0:0:
136,352,781307,2,0,B|176:376|240:340|240:340|252:360|252:360|312:344,1,180,4|0,0:0|0:0,0:0:0:0:
400,280,781824,6,0,P|420:240|416:188,1,90,8|0,0:0|0:0,0:0:0:0:
352,112,782169,1,8,0:0:0:0:
256,64,782341,1,0,0:0:0:0:
160,112,782514,1,2,0:0:0:0:
160,112,782858,5,2,0:0:0:0:
56,292,783031,2,0,B|100:306|154:257|154:257|170:274|170:274|225:245,1,180,2|0,0:0|0:0,0:0:0:0:
248,376,783548,2,0,B|294:373|327:307|327:307|348:317|348:317|389:270,1,180,2|0,0:0|0:0,0:0:0:0:
408,172,784065,1,2,0:0:0:0:
256,192,784152,12,0,787858,0:0:0:0:
