osu file format v10

[General]
AudioFilename: op.mp3
AudioLeadIn: 1885
PreviewTime: 61530
Countdown: 0
SampleSet: Soft
StackLeniency: 0.7
Mode: 0
LetterboxInBreaks: 0

[Editor]
DistanceSpacing: 1.25
BeatDivisor: 4
GridSize: 4

[Metadata]
Title:Snow wish (Short Ver.)
TitleUnicode:Snow wish (Short Ver.)
Artist:Duca
ArtistUnicode:Duca
Creator:those
Version:Duelist
Source:Duelist x Engage
Tags:praline duelist engage vn visual novel opening hentai eroge fiya suzully mmzz taiko futsuu
BeatmapID:177362
BeatmapSetID:55537

[Difficulty]
HPDrainRate:7
CircleSize:4
OverallDifficulty:7
ApproachRate:8
SliderMultiplier:1.8
SliderTickRate:2

[Events]
//Background and Video events
Video,-25,"op.flv"
0,0,"s.png"
//Break Periods
//Storyboard Layer 0 (Background)
//Storyboard Layer 1 (Fail)
//Storyboard Layer 2 (Pass)
//Storyboard Layer 3 (Foreground)
//Storyboard Sound Samples
//Background Colour Transformations
3,100,163,162,255

[TimingPoints]
115,377.358490566038,4,2,1,30,1,0
115,-133.333333333333,4,2,1,30,0,0
8416,-200,4,2,1,30,0,0
9171,-133.333333333333,4,2,1,30,0,0
9926,-133.333333333333,4,2,2,30,0,0
10020,-133.333333333333,4,2,1,30,0,0
11435,-200,4,2,1,30,0,0
12379,-200,4,2,1,32,0,0
12567,-200,4,2,1,35,0,0
12756,-200,4,2,1,38,0,0
12945,-200,4,2,1,40,0,0
13133,-200,4,2,1,42,0,0
13322,-200,4,1,1,45,0,0
13699,-100,4,2,1,60,0,0
16058,-100,4,2,1,45,0,0
16152,-100,4,2,1,60,0,0
19077,-100,4,2,1,45,0,0
19171,-100,4,2,1,60,0,0
22096,-100,4,2,1,45,0,0
22190,-100,4,2,1,60,0,0
24077,-100,4,2,2,60,0,0
24171,-100,4,2,1,60,0,0
25775,-100,4,2,1,50,0,0
27096,-133.333333333333,4,2,1,50,0,0
27662,-100,4,2,1,50,0,0
28416,-100,4,2,2,50,0,0
28511,-100,4,2,1,50,0,0
30115,-133.333333333333,4,2,1,50,0,0
30681,-100,4,2,1,50,0,0
31435,-100,4,2,2,50,0,0
31530,-100,4,2,1,50,0,0
32567,-100,4,2,2,50,0,0
32662,-100,4,2,1,50,0,0
34454,-100,4,2,2,50,0,0
34548,-100,4,2,1,50,0,0
37473,-100,4,2,2,50,0,0
37567,-100,4,2,1,50,0,0
39171,-133.333333333333,4,2,1,50,0,0
39737,-100,4,2,1,50,0,0
40492,-100,4,2,2,50,0,0
40586,-100,4,2,1,50,0,0
42190,-133.333333333333,4,2,1,50,0,0
42756,-100,4,2,1,50,0,0
43511,-100,4,2,2,50,0,0
43605,-100,4,2,1,50,0,0
44454,-133.333333333333,4,2,1,50,0,0
44643,-133.333333333333,4,2,2,50,0,0
44737,-133.333333333333,4,2,1,50,0,0
45020,-100,4,2,1,50,0,0
45964,-133.333333333333,4,2,1,50,0,0
46152,-133.333333333333,4,2,2,50,0,0
46247,-133.333333333333,4,2,1,50,0,0
46530,-100,4,2,1,50,0,0
48039,-100,4,2,2,50,0,0
48228,-133.333333333333,4,2,2,50,0,0
48322,-133.333333333333,4,2,1,50,0,0
48794,-100,4,2,1,50,0,0
49171,-133.333333333333,4,2,2,50,0,0
49548,-133.333333333333,4,2,1,50,0,0
49926,-133.333333333333,4,2,2,40,0,0
50020,-133.333333333333,4,2,1,40,0,0
50681,-133.333333333333,4,2,2,40,0,0
50775,-133.333333333333,4,2,1,40,0,0
52190,-133.333333333333,4,2,2,40,0,0
52284,-133.333333333333,4,2,1,40,0,0
52756,-133.333333333333,4,2,1,5,0,0
52850,-133.333333333333,4,2,1,40,0,0
53699,-133.333333333333,4,2,2,40,0,0
53794,-133.333333333333,4,2,1,40,0,0
55209,-133.333333333333,4,2,2,40,0,0
55303,-133.333333333333,4,2,1,40,0,0
55586,-133.333333333333,4,2,2,40,0,0
55681,-133.333333333333,4,2,1,40,0,0
55964,-100,4,2,1,50,0,0
56341,-100,4,2,2,50,0,0
56435,-100,4,2,1,50,0,0
57096,-100,4,2,2,50,0,0
57190,-100,4,2,1,50,0,0
57850,-100,4,2,2,50,0,0
57945,-100,4,2,1,50,0,0
58605,-100,4,2,2,50,0,0
58699,-100,4,2,1,50,0,0
62001,-100,4,2,2,60,0,1
62096,-100,4,2,1,60,0,1
66530,-100,4,2,2,60,0,1
66624,-100,4,2,1,60,0,1
67662,-100,4,1,1,48,0,1
67756,-100,4,2,1,60,0,1
73888,-100,4,2,1,60,0,0
74077,-100,4,2,2,60,0,1
74171,-100,4,2,1,60,0,1
78605,-100,4,2,2,60,0,1
78699,-100,4,2,1,60,0,1
83133,-100,4,2,2,50,0,1
83228,-100,4,2,1,60,0,1
83888,-100,4,2,2,50,0,1
83982,-100,4,2,1,60,0,1
84643,-100,4,2,2,50,0,1
84737,-100,4,2,1,60,0,1
85398,-100,4,2,1,70,0,1
85586,-100,4,2,1,70,0,0
85681,-100,4,2,1,60,0,0
86152,-100,4,2,1,60,0,1
86247,-100,4,2,1,50,0,0
91530,-100,4,2,1,45,0,0
91624,-100,4,2,1,50,0,0
94548,-100,4,2,1,45,0,0
94643,-100,4,2,1,50,0,0
99548,-100,4,1,0,50,0,0

[Colours]
Combo1 : 255,255,255
Combo2 : 44,58,245
Combo3 : 234,182,111
Combo4 : 161,158,203
Combo5 : 245,244,165

[HitObjects]
493,336,115,1,4,0:0:0
430,280,492,2,0,B|423:212|431:141,1,134.999995976687,0|2,0:0|0:0,0:0:0
338,188,1247,1,0,0:0:0
246,231,1624,2,0,B|258:262|245:296,1,67.4999979883433,2|0,0:0|0:0,0:0:0
168,262,2001,2,0,B|156:231|169:197,1,67.4999979883433
80,232,2379,2,0,B|92:263|79:297,1,67.4999979883433,2|0,0:0|0:0,0:0:0
2,263,2756,2,0,B|-10:232|3:198,1,67.4999979883433
80,136,3133,5,4,0:0:0
149,87,3511,2,0,B|215:113|280:87,1,134.999995976687,0|2,0:0|0:0,0:0:0
378,114,4265,1,0,0:0:0
476,142,4643,2,0,B|479:180|503:203,1,67.4999979883433,2|0,0:0|0:0,0:0:0
420,220,5020,2,0,B|419:287,1,67.4999979883433
341,254,5398,2,0,B|329:290|300:306,1,67.4999979883433,2|0,0:0|0:0,0:0:0
244,243,5775,2,0,B|175:242,1,67.4999979883433
191,159,6152,6,0,B|125:133|60:159,1,134.999995976687,4|0,0:0|0:0,0:0:0
67,76,6907,1,2,0:0:0
52,243,7284,1,0,0:0:0
103,331,7662,2,0,B|139:334|174:331,1,67.4999979883433,2|0,0:0|0:0,0:0:0
219,262,8039,2,0,B|183:259|148:262,1,67.4999979883433
267,319,8416,2,0,B|312:323|356:319,1,90,2|0,0:0|0:0,0:0:0
434,253,9171,22,0,B|415:188|415:188|434:125,1,134.999995976687,4|0,0:0|0:0,0:0:0
495,65,9737,2,0,B|429:91|364:65,1,134.999995976687,0|0,0:0|0:0,0:0:0
280,78,10303,1,0,0:0:0
143,177,10681,2,0,B|107:180|72:177,1,67.4999979883433,2|0,0:0|0:0,0:0:0
32,250,11058,2,0,B|68:247|103:250,1,67.4999979883433
202,328,11435,2,0,B|157:332|113:328,1,90,2|0,0:0|0:0,0:0:0
256,192,12190,12,0,13322,0:0:0
158,134,13699,6,0,B|122:163|114:209,1,90,4|0,0:0|0:0,0:0:0
205,212,14077,1,8,0:0:0
113,58,14265,2,0,B|41:118|24:210,1,180,0|0,0:0|0:0,0:0:0
69,288,14831,1,8,0:0:0
114,366,15020,2,0,B|202:334|290:367,1,180,0|0,0:0|0:0,0:0:0
451,286,15586,2,0,B|406:301|362:285,1,90,8|0,0:0|0:0,0:0:0
203,201,15964,1,0,0:0:0
203,201,16058,1,8,0:0:0
203,201,16152,2,0,B|159:195|115:197,2,90,0|8|0,0:0|0:0|0:0,0:0:0
285,164,16718,6,0,B|329:170|373:168,1,90,2|0,0:0|0:0,0:0:0
425,92,17096,1,8,0:0:0
386,267,17284,2,0,B|297:285|208:289,1,180,0|0,0:0|0:0,0:0:0
143,352,17850,1,8,0:0:0
230,376,18039,2,0,B|154:320|132:229,1,180,0|0,0:0|0:0,0:0:0
191,133,18605,2,0,B|229:160|240:206,1,90,8|0,0:0|0:0,0:0:0
60,200,18982,1,0,0:0:0
60,200,19077,1,8,0:0:0
60,200,19171,1,0,0:0:0
311,157,19360,2,0,B|317:201|314:246,1,90,8|0,0:0|0:0,0:0:0
395,286,19737,6,0,B|389:242|392:197,1,90,4|0,0:0|0:0,0:0:0
440,119,20115,1,8,0:0:0
263,90,20303,2,0,B|250:178|256:268,1,180,0|0,0:0|0:0,0:0:0
187,327,20869,1,8,0:0:0
117,384,21058,2,0,B|85:295|4:248,1,180,0|0,0:0|0:0,0:0:0
111,210,21624,2,0,B|115:118,1,90,8|0,0:0|0:0,0:0:0
215,171,22001,1,0,0:0:0
215,171,22096,1,8,0:0:0
215,171,22190,2,0,B|242:133|288:122,2,90,0|8|0,0:0|0:0|0:0,0:0:0
296,211,22756,5,2,0:0:0
450,300,22945,1,0,0:0:0
451,121,23133,1,8,0:0:0
361,276,23322,1,0,0:0:0
361,276,23416,1,0,0:0:0
361,276,23511,1,0,0:0:0
474,210,23699,1,0,0:0:0
361,145,23888,1,8,0:0:0
450,300,24077,6,0,B|368:346|275:329,1,180,4|0,0:0|0:0,0:0:0
191,257,24643,2,0,B|231:233|278:242,1,90,8|0,0:0|0:0,0:0:0
130,345,25020,2,0,B|89:321|73:277,1,90,8|10,0:0|0:0,0:0:0
83,97,25398,1,0,0:0:0
144,166,25586,1,0,0:0:0
250,20,25775,6,0,B|290:44|337:35,1,90,4|0,0:0|0:0,0:0:0
421,110,26152,1,0,0:0:0
421,110,26341,2,0,B|429:157|474:176,1,90,0|2,0:0|0:0,0:0:0
366,204,26718,2,0,B|378:292,1,90
271,258,27096,2,0,B|254:325|195:364,1,134.999995976687,0|0,0:0|0:0,0:0:0
134,271,27662,2,0,B|125:228|136:180,1,90
237,133,28039,2,0,B|246:176|235:224,1,90,2|0,0:0|0:0,0:0:0
55,226,28416,1,8,0:0:0
58,135,28605,1,0,0:0:0
135,181,28794,6,0,B|180:186|226:181,1,90,0|0,0:0|0:0,0:0:0
306,220,29171,1,0,0:0:0
306,220,29360,2,0,B|396:206,1,90,0|2,0:0|0:0,0:0:0
433,124,29737,2,0,B|343:138,1,90
271,304,30115,2,0,B|218:349|147:347,1,134.999995976687,0|0,0:0|0:0,0:0:0
80,287,30681,2,0,B|114:256|161:258,1,90,0|0,0:0|0:0,0:0:0
159,168,31058,1,2,0:0:0
156,77,31247,1,0,0:0:0
79,123,31435,1,8,0:0:0
350,124,31813,6,0,B|366:167|350:210,1,90,4|0,0:0|0:0,0:0:0
270,168,32190,1,0,0:0:0
426,80,32379,2,0,B|458:167|427:256,1,180,0|0,0:0|0:0,0:0:0
346,296,32945,1,0,0:0:0
259,276,33133,1,0,0:0:0
172,300,33322,2,0,B|128:295|80:300,1,90
128,197,33699,1,0,0:0:0
215,177,33888,1,0,0:0:0
302,201,34077,2,0,B|346:196|394:201,1,90,2|0,0:0|0:0,0:0:0
352,95,34454,1,8,0:0:0
265,75,34643,1,0,0:0:0
178,99,34831,6,0,B|176:144|148:181,1,90,0|0,0:0|0:0,0:0:0
57,194,35209,2,0,B|59:149|87:112,1,90
264,148,35586,2,0,B|308:153|356:148,1,90,2|0,0:0|0:0,0:0:0
406,222,35964,2,0,B|362:217|314:222,1,90,0|0,0:0|0:0,0:0:0
256,289,36341,5,0,0:0:0
301,365,36530,1,0,0:0:0
346,288,36718,1,0,0:0:0
166,287,36907,1,0,0:0:0
211,365,37096,1,2,0:0:0
301,210,37284,1,0,0:0:0
211,210,37473,1,8,0:0:0
256,289,37662,1,0,0:0:0
346,288,37850,6,0,B|387:265|431:267,1,90,4|0,0:0|0:0,0:0:0
467,352,38228,1,0,0:0:0
453,173,38416,2,0,B|432:133|438:85,1,90,0|2,0:0|0:0,0:0:0
356,124,38794,2,0,B|296:57,1,90
245,131,39171,2,0,B|173:122|113:151,1,135.000005149842,0|0,0:0|0:0,0:0:0
123,331,39737,2,0,B|119:283|98:242,1,90
28,301,40114,1,2,0:0:0
203,260,40303,1,0,0:0:0
379,298,40492,2,0,B|423:312|467:292,1,90,8|0,0:0|0:0,0:0:0
454,202,40869,6,0,B|458:154|479:113,1,90
388,111,41247,1,0,0:0:0
302,140,41435,2,0,B|298:188|277:229,1,90,0|2,0:0|0:0,0:0:0
273,317,41813,1,0,0:0:0
353,276,42001,1,0,0:0:0
203,176,42190,2,0,B|208:106|238:47,1,135.000005149842
137,97,42756,2,0,B|92:104|48:97,1,90
18,229,43133,2,0,B|63:222|107:229,1,90,2|0,0:0|0:0,0:0:0
216,263,43511,2,0,B|308:261,1,90,8|0,0:0|0:0,0:0:0
395,246,43888,5,4,0:0:0
395,246,43982,1,0,0:0:0
395,246,44077,1,0,0:0:0
364,330,44265,1,0,0:0:0
247,192,44454,2,0,B|113:194,1,135.000005149842
151,113,45020,1,0,0:0:0
214,282,45209,1,0,0:0:0
379,210,45398,2,0,B|374:165|379:120,1,90
463,152,45775,1,0,0:0:0
287,116,45964,2,0,B|217:121|168:173,1,134.999995976687,0|0,0:0|0:0,0:0:0
163,262,46530,2,0,B|208:259|240:225,1,90,0|0,0:0|0:0,0:0:0
63,200,46907,5,0,0:0:0
63,200,47001,1,0,0:0:0
63,200,47096,1,0,0:0:0
302,289,47284,2,0,B|347:286|391:291,1,90
407,202,47662,1,2,0:0:0
281,76,47850,1,0,0:0:0
233,248,48039,1,8,0:0:0
361,122,48228,6,0,B|387:85|368:18|329:8,1,135.000005149842,8|0,0:0|0:0,0:0:0
222,47,48794,1,0,0:0:0
222,47,48888,1,0,0:0:0
116,87,49077,1,0,0:0:0
116,87,49171,2,0,B|113:123|116:158,1,67.4999979883433,8|0,0:0|0:0,0:0:0
204,205,49548,2,0,B|207:169|204:134,1,67.4999979883433
122,246,49926,6,0,B|95:282|114:349|153:359,1,135.000005149842,4|0,0:0|0:0,0:0:0
252,335,50492,1,0,0:0:0
350,310,50681,2,0,B|343:275|356:243,1,67.5000025749208,8|0,0:0|0:0,0:0:0
399,152,51058,1,0,0:0:0
299,139,51247,2,0,B|263:136|228:139,1,67.4999979883433,0|0,0:0|0:0,0:0:0
132,159,51624,2,0,B|96:162|64:159,1,67.4999979883433
120,354,52190,1,8,0:0:0
299,259,52567,2,0,B|348:246|397:259,1,101.250003862381
439,291,52945,6,0,B|467:234|467:234|439:170,1,135.000005149842
347,125,53511,1,0,0:0:0
256,169,53699,2,0,B|236:197|239:231,1,67.5000025749208,8|0,0:0|0:0,0:0:0
341,228,54077,1,0,0:0:0
178,109,54265,2,0,B|137:165|143:236,1,135.000005149842,0|0,0:0|0:0,0:0:0
21,353,54831,2,0,B|41:325|38:289,1,67.5000025749208,0|0,0:0|0:0,0:0:0
122,348,55209,2,0,B|176:305,1,67.5000025749208,8|0,0:0|0:0,0:0:0
267,348,55586,2,0,B|300:335|332:348,1,67.5000025749208,8|0,0:0|0:0,0:0:0
420,324,55964,6,0,B|452:288|457:245,1,90
368,228,56341,1,8,0:0:0
368,228,56530,2,0,B|363:183|368:138,1,90,0|0,0:0|0:0,0:0:0
280,157,56907,1,0,0:0:0
455,119,57096,1,8,0:0:0
280,67,57284,2,0,B|237:52|192:58,1,90
102,76,57662,1,0,0:0:0
22,116,57850,2,0,B|-2:157|6:204,1,90,8|0,0:0|0:0,0:0:0
34,24,58228,5,0,0:0:0
93,155,58416,1,0,0:0:0
213,235,58605,2,0,B|258:248|302:236,1,90,8|0,0:0|0:0,0:0:0
439,192,58982,1,4,0:0:0
256,192,59077,12,2,60303,0:0:0
166,321,60681,5,2,0:0:0
345,321,60869,1,2,0:0:0
256,48,61247,2,0,B|224:136|288:136|256:224,1,180,4|0,0:0|0:0,0:0:0
44,299,62001,6,0,B|32:257|44:209,1,90,4|0,0:0|0:0,0:0:0
149,167,62379,2,0,B|161:209|149:257,1,90,8|0,0:0|0:0,0:0:0
134,368,62756,2,0,B|178:376|223:365|223:365|243:322|296:318,1,180,0|8,0:0|0:0,0:0:0
394,264,63322,1,0,0:0:0
394,264,63416,1,0,0:0:0
394,264,63511,2,0,B|424:232|471:218,1,90,2|0,0:0|0:0,0:0:0
464,332,63888,1,8,0:0:0
477,106,64077,2,0,B|483:16,1,90
387,141,64454,2,0,B|393:51,2,90,0|8|0,0:0|0:0|0:0,0:0:0
321,232,65020,6,0,B|291:264|244:278,1,90,2|0,0:0|0:0,0:0:0
120,180,65398,2,0,B|161:167|209:178,1,90,8|0,0:0|0:0,0:0:0
87,278,65775,2,0,B|40:264|10:232|10:232|30:192|20:144,1,180,0|8,0:0|0:0,0:0:0
216,33,66341,2,0,B|263:47|293:79|293:79|273:119|283:167,1,180,0|0,0:0|0:0,0:0:0
390,132,66907,1,8,0:0:0
486,191,67096,2,0,B|526:255|486:319,1,135
486,318,67473,2,0,B|307:340,1,180
83,319,68039,54,4,B|43:255|83:191,1,135
82,192,68416,2,0,B|171:181,1,90,8|0,0:0|0:0,0:0:0
277,223,68794,1,0,0:0:0
277,223,68888,1,0,0:0:0
277,223,68982,1,0,0:0:0
382,265,69171,2,0,B|430:272|470:256,1,90,8|0,0:0|0:0,0:0:0
505,102,69548,22,0,B|433:91|373:115,1,135,2|0,0:0|0:0,0:0:0
372,115,69926,2,0,B|347:201,1,90,8|0,0:0|0:0,0:0:0
282,294,70303,1,0,0:0:0
282,294,70398,1,0,0:0:0
282,294,70492,1,0,0:0:0
146,214,70681,2,0,B|126:258|131:301,1,90,8|0,0:0|0:0,0:0:0
246,194,71058,6,0,B|274:127|266:62,1,135,2|0,0:0|0:0,0:0:0
266,62,71435,2,0,B|222:48|177:51,1,90,8|0,0:0|0:0,0:0:0
106,193,71813,1,2,0:0:0
186,271,72001,1,0,0:0:0
285,218,72190,2,0,B|325:234|373:226,1,90,8|0,0:0|0:0,0:0:0
475,274,72567,1,2,0:0:0
475,274,72662,1,0,0:0:0
475,274,72756,1,0,0:0:0
437,121,72945,1,8,0:0:0
336,72,73133,2,0,B|289:62|247:72,1,90,0|2,0:0|0:0,0:0:0
108,148,73511,5,8,0:0:0
113,169,73605,1,8,0:0:0
118,190,73699,1,10,0:0:0
123,211,73794,1,0,0:0:0
128,232,73888,1,8,0:0:0
133,253,73982,1,0,0:0:0
138,274,74077,6,0,B|183:284|228:275,1,90,4|0,0:0|0:0,0:0:0
301,190,74454,2,0,B|256:180|211:189,1,90,8|0,0:0|0:0,0:0:0
362,237,74831,2,0,B|407:247|452:238,1,90,0|0,0:0|0:0,0:0:0
509,141,75209,1,8,0:0:0
392,334,75398,2,0,B|347:324|302:333,1,90,0|2,0:0|0:0,0:0:0
77,338,75775,1,0,0:0:0
181,294,75964,1,8,0:0:0
285,250,76152,2,0,B|284:204|248:172,1,90,0|0,0:0|0:0,0:0:0
351,127,76530,2,0,B|340:38,2,90,0|8|0,0:0|0:0|0:0,0:0:0
366,239,77096,21,2,0:0:0
470,281,77284,1,0,0:0:0
454,169,77473,1,8,0:0:0
438,57,77662,1,0,0:0:0
351,127,77850,2,0,B|306:133|260:128,1,90
103,114,78228,1,8,0:0:0
103,114,78416,2,0,B|62:192|62:192|107:244|112:316,1,225
112,316,78982,2,0,B|157:310|203:315,1,90,8|0,0:0|0:0,0:0:0
360,302,79360,2,0,B|408:308|444:281,1,90
459,123,79737,2,0,B|411:117|375:144,1,90,8|0,0:0|0:0,0:0:0
240,229,80114,6,0,B|167:238|113:197,1,135,4|0,0:0|0:0,0:0:0
112,196,80492,2,0,B|130:101,1,90,8|0,0:0|0:0,0:0:0
46,31,80869,1,0,0:0:0
21,141,81058,1,0,0:0:0
128,107,81247,2,0,B|173:96|218:100,1,90,8|0,0:0|0:0,0:0:0
368,148,81624,2,0,B|268:156,1,90,2|0,0:0|0:0,0:0:0
190,225,82001,1,8,0:0:0
83,188,82190,1,0,0:0:0
17,277,82379,1,0,0:0:0
79,369,82567,1,0,0:0:0
187,338,82756,2,0,B|287:330,1,90,8|0,0:0|0:0,0:0:0
389,339,83133,37,4,0:0:0
389,339,83228,1,0,0:0:0
389,339,83322,1,0,0:0:0
468,259,83511,2,0,B|477:215|472:168,1,90,8|0,0:0|0:0,0:0:0
390,73,83888,5,4,0:0:0
390,73,83982,1,0,0:0:0
390,73,84077,1,0,0:0:0
269,111,84265,2,0,B|260:155|265:202,1,90,8|0,0:0|0:0,0:0:0
148,284,84643,5,4,0:0:0
148,284,84737,1,0,0:0:0
148,284,84831,1,0,0:0:0
22,217,85020,2,0,B|31:173|26:126,1,90,8|0,0:0|0:0,0:0:0
168,57,85398,5,10,0:0:0
318,104,85586,1,8,0:0:0
112,279,86152,6,0,B|95:235|111:192,1,90,6|0,0:0|0:0,0:0:0
191,234,86530,1,8,0:0:0
35,322,86718,2,0,B|2:234|33:145,1,180,0|0,0:0|0:0,0:0:0
111,101,87284,1,8,0:0:0
190,56,87473,2,0,B|280:81|367:56,1,180
440,110,88039,2,0,B|434:156|455:196,1,90,8|0,0:0|0:0,0:0:0
368,176,88416,2,0,B|368:268,1,90
285,230,88794,2,0,B|267:272|229:296,1,90,8|0,0:0|0:0,0:0:0
62,222,89171,6,0,B|151:217,1,90,2|0,0:0|0:0,0:0:0
115,299,89548,1,8,0:0:0
83,122,89737,2,0,B|172:118|272:121,1,180
338,70,90303,1,8,0:0:0
257,31,90492,2,0,B|294:115|378:158,1,180,0|0,0:0|0:0,0:0:0
316,223,91058,2,0,B|290:262|314:307,1,90,8|0,0:0|0:0,0:0:0
477,229,91435,1,0,0:0:0
477,229,91530,1,8,0:0:0
477,229,91624,1,0,0:0:0
222,251,91813,2,0,B|228:296|223:340,1,90,8|0,0:0|0:0,0:0:0
67,250,92190,6,0,B|61:205|66:161,1,90,4|0,0:0|0:0,0:0:0
128,95,92567,1,8,0:0:0
189,29,92756,1,0,0:0:0
189,29,92850,1,0,0:0:0
189,29,92945,2,0,B|234:23|278:28,1,90,0|0,0:0|0:0,0:0:0
390,105,93322,2,8,B|345:110|300:104,1,90,8|0,0:0|0:0,0:0:0
133,172,93699,2,0,B|175:190|222:175,1,90
361,291,94077,2,0,B|319:273|272:288,1,90,8|0,0:0|0:0,0:0:0
336,194,94454,1,0,0:0:0
336,194,94548,1,8,0:0:0
336,194,94643,2,0,B|424:183,2,90,0|8|0,0:0|0:0|0:0,0:0:0
225,213,95209,5,4,0:0:0
160,305,95398,1,0,0:0:0
98,214,95586,2,0,B|87:125,1,90,8|0,0:0|0:0,0:0:0
167,44,95964,1,0,0:0:0
248,121,96152,1,0,0:0:0
316,31,96341,1,8,0:0:0
398,108,96530,2,0,B|445:187|433:281,1,180
277,303,97096,2,0,B|232:305|188:304,1,90,8|0,0:0|0:0,0:0:0
60,211,97473,2,0,B|104:189|150:210,1,90,0|0,0:0|0:0,0:0:0
260,212,97850,1,8,0:0:0
345,345,98039,1,0,0:0:0
419,204,98228,6,0,B|422:159|464:127,1,90,8|8,0:0|0:0,0:0:0
327,132,98605,1,0,0:0:0
327,132,98699,1,0,0:0:0
327,132,98794,2,0,B|334:44,1,90,8|8,0:0|0:0,0:0:0
208,91,99171,1,0,0:0:0
208,91,99265,1,0,0:0:0
208,91,99360,2,0,B|174:58|126:62,1,90,8|4,0:0|0:0,0:0:0
