osu file format v14

[General]
AudioFilename: Shiawase no Basho.mp3
AudioLeadIn: 0
PreviewTime: 73215
Countdown: 0
SampleSet: Soft
StackLeniency: 0.7
Mode: 0
LetterboxInBreaks: 0
EpilepsyWarning: 1
WidescreenStoryboard: 1

[Editor]
Bookmarks: 871,3066,3797,5261,6724,8188,9651,12578,24191
DistanceSpacing: 1
BeatDivisor: 4
GridSize: 4
TimelineZoom: 1.5

[Metadata]
Title:Shiawase no Basho short ver.
TitleUnicode:しあわせの場所 short ver.
Artist:Duca
ArtistUnicode:Duca
Creator:Oyatsu
Version:Shiawase
Source:星織ユメミライ
Tags:Hoshi Ori Yume Mirai tone work's ending visual novel eroge vocal collection kantokun 10nya -_t_e_n_n_y_a_-
BeatmapID:695638
BeatmapSetID:248061

[Difficulty]
HPDrainRate:7
CircleSize:4.1
OverallDifficulty:8
ApproachRate:8.8
SliderMultiplier:1.67
SliderTickRate:1

[Events]
//Background and Video events
0,0,"BG.jpg",0,0
//Break Periods
//Storyboard Layer 0 (Background)
//Storyboard Layer 1 (Fail)
//Storyboard Layer 2 (Pass)
//Storyboard Layer 3 (Foreground)
Sprite,Foreground,Centre,"SB/BW.png",320,240 F,0,-135,871,1 C,0,0,12578,0,0,0 S,0,0,74041,0.642516 F,0,871,74041,1 C,0,12578,24285,0,0,0,255,255,255 F,0,74041,75505,1,0 S,0,74041,75505,0.642516,0.6920646 F,0,75505,85749,0 S,0,85748,,0.642516 F,0,85749,,1
Sprite,Foreground,Centre,"SB/Text/O.png",320,240 F,0,7273,7639,1 V,0,7273,7639,1,0.1,1,1 M,0,7273,9285,417,320,437,320 F,0,7639,8919,1 F,0,8919,9285,1,0
Sprite,Foreground,Centre,"SB/Text/ya.png",320,240 F,0,7456,7822,1 V,0,7456,7822,1,0.1,1,1 M,0,7456,9285,448,321,466,321 F,0,7822,8919,1 F,0,8919,9285,1,0
Sprite,Foreground,Centre,"SB/Text/tsu.png",320,240 F,0,7639,8005,1 V,0,7639,8005,1,0.1,1,1 M,0,7639,9285,487,322,503,322 F,0,8005,8919,1 F,0,8919,9285,1,0
Sprite,Foreground,Centre,"SB/cir.png",320,240 M,0,119316,,412,266 F,0,119316,119407,0,1 S,0,119316,120870,0.2154839,1.016516 F,0,119407,120870,1,0
//Storyboard Sound Samples

[TimingPoints]
871,365.853658536585,4,2,1,20,1,0
24285,-117.647058823529,4,2,1,30,0,0
26480,-117.647058823529,4,2,2,30,0,0
26572,-117.647058823529,4,2,1,30,0,0
35078,-117.647058823529,4,2,1,20,0,0
35261,-117.647058823529,4,2,1,22,0,0
35444,-117.647058823529,4,2,1,24,0,0
35627,-117.647058823529,4,2,1,28,0,0
35810,-117.647058823529,4,2,1,30,0,0
38188,-117.647058823529,4,2,2,30,0,0
38279,-117.647058823529,4,2,1,30,0,0
47700,-117.647058823529,4,2,1,40,0,0
65261,-117.647058823529,4,2,1,50,0,0
71114,-117.647058823529,4,2,2,60,0,0
72578,-117.647058823529,4,2,1,50,0,0
74041,-100,4,2,2,70,0,1
84651,-100,4,2,2,70,0,0
85749,-100,4,2,2,70,0,1
91602,-100,4,2,2,50,0,1
91694,-100,4,2,2,70,0,1
95992,-100,4,2,2,50,0,1
96084,-100,4,2,2,70,0,1
97364,-100,4,2,2,70,0,0
97456,-100,4,2,2,70,0,1
97547,-100,4,2,2,60,0,0
100017,-100,4,2,1,50,0,0
100383,-100,4,2,2,60,0,0
109163,-100,4,2,2,50,0,0
109255,-100,4,2,2,60,0,0
117944,-100,4,2,2,70,0,0
118675,-100,4,2,2,50,0,0
119407,-200,4,2,1,20,0,0
119499,-200,4,2,1,5,0,0

[Colours]
Combo1 : 249,89,89
Combo2 : 234,165,21
Combo3 : 70,153,255

[HitObjects]
176,80,24285,6,0,P|136:80|96:76,1,70.9750013537407,4|0,1:2|0:0,0:0:0:0:
216,200,24651,2,0,P|252:180|284:168,1,70.9750013537407,0|0,1:0|0:0,0:0:0:0:
384,80,25017,2,0,P|416:132|400:224,1,141.950002707481,0|0,0:0|0:0,0:0:0:0:
296,296,25566,1,0,0:0:0:0:
444,244,25749,6,0,L|368:240,1,70.9750013537407,2|0,0:0|0:0,0:0:0:0:
310,116,26114,2,0,P|302:72|312:33,1,70.9750013537407
145,203,26480,2,0,L|215:199,1,70.9750013537407,8|0,0:0|0:0,0:0:0:0:
96,296,26846,1,2,0:0:0:0:
108,280,27212,6,0,P|104:208|100:124,1,141.950002707481,0|0,1:0|1:0,0:0:0:0:
172,44,27761,1,0,0:0:0:0:
240,140,27944,2,0,P|244:180|246:229,1,70.9750013537407,0|0,0:0|0:0,0:0:0:0:
360,332,28310,2,0,P|361:296|365:261,1,70.9750013537407,0|0,0:0|0:0,0:0:0:0:
476,168,28675,6,0,B|423:175|372:176|372:176|316:152,1,141.950002707481,2|0,0:0|0:0,0:0:0:0:
337,161,29224,1,0,0:0:0:0:
404,24,29407,2,0,P|424:68|424:104,1,70.9750013537407,8|0,0:0|0:0,0:0:0:0:
260,40,29773,1,2,0:0:0:0:
284,56,30139,6,0,L|200:48,1,70.9750013537407,0|0,1:0|0:0,0:0:0:0:
76,84,30505,2,0,P|60:124|60:168,1,70.9750013537407,0|0,1:0|0:0,0:0:0:0:
164,288,30870,1,0,0:0:0:0:
164,288,31053,2,0,L|164:216,1,70.9750013537407,0|0,0:0|0:0,0:0:0:0:
240,332,31419,6,0,P|168:336|84:344,1,141.950002707481,2|0,0:0|0:0,0:0:0:0:
296,186,31968,2,0,P|304:221|300:256,1,70.9750013537407
232,64,32334,2,0,L|320:68,1,70.9750013537407,8|0,0:0|0:0,0:0:0:0:
228,224,32700,1,2,0:0:0:0:
384,112,33066,5,0,1:0:0:0:
216,232,33431,1,0,1:0:0:0:
252,340,33614,1,0,0:0:0:0:
336,264,33797,2,0,P|332:222|324:172,1,70.9750013537407,0|0,0:0|0:0,0:0:0:0:
416,336,34163,6,0,P|429:268|448:184,1,141.950002707481,2|2,1:2|0:0,0:0:0:0:
424,80,34712,2,0,L|508:92,1,70.9750013537407,0|0,0:0|0:0,0:0:0:0:
352,140,35078,1,2,0:0:0:0:
264,116,35261,1,2,0:0:0:0:
288,28,35444,1,2,0:0:0:0:
292,200,35627,1,2,0:0:0:0:
184,80,35810,1,2,0:0:0:0:
320,96,35992,6,0,B|324:198|324:198|312:224|308:260,1,141.950002707481,4|0,1:2|1:0,0:0:0:0:
312,344,36541,1,0,0:0:0:0:
458,256,36724,2,0,P|422:248|381:244,1,70.9750013537407,0|0,0:0|0:0,0:0:0:0:
232,284,37090,2,0,P|196:292|155:296,1,70.9750013537407,0|0,0:0|0:0,0:0:0:0:
64,352,37456,6,0,P|40:280|60:200,2,141.950002707481,2|0|8,0:0|0:0|0:0,0:0:0:0:
160,240,38370,1,0,0:0:0:0:
256,352,38553,2,0,P|260:312|264:260,1,70.9750013537407,2|0,0:0|0:0,0:0:0:0:
224,152,38919,6,0,P|260:176|372:156,1,141.950002707481,0|0,1:0|1:0,0:0:0:0:
300,72,39468,1,0,0:0:0:0:
448,132,39651,2,0,P|444:176|440:224,1,70.9750013537407,0|0,0:0|0:0,0:0:0:0:
464,328,40017,2,0,P|424:320|380:316,1,70.9750013537407,0|0,0:0|0:0,0:0:0:0:
284,236,40383,6,0,P|276:312|276:384,1,141.950002707481,2|0,0:0|0:0,0:0:0:0:
300,208,40931,1,0,0:0:0:0:
168,312,41114,2,0,L|244:308,1,70.9750013537407,8|0,0:0|0:0,0:0:0:0:
184,176,41480,1,2,0:0:0:0:
184,176,41846,6,0,B|137:157|88:189|30:164,1,141.950002707481,0|0,1:0|1:0,0:0:0:0:
100,100,42395,2,0,P|128:140|100:244,1,141.950002707481,0|0,0:0|0:0,0:0:0:0:
60,344,42944,2,0,P|104:336|152:336,1,70.9750013537407,0|0,0:0|0:0,0:0:0:0:
256,336,43310,6,0,P|261:261|267:186,1,141.950002707481,2|0,0:0|0:0,0:0:0:0:
308,64,43858,2,0,P|267:54|216:48,1,70.9750013537407,0|8,0:0|0:0,0:0:0:0:
296,180,44224,1,0,0:0:0:0:
400,120,44407,1,2,0:0:0:0:
400,120,44773,6,0,L|480:124,1,70.9750013537407,0|0,1:0|0:0,0:0:0:0:
496,240,45139,2,0,L|425:236,1,70.9750013537407,0|0,1:0|0:0,0:0:0:0:
320,296,45505,1,0,0:0:0:0:
208,280,45688,1,0,0:0:0:0:
236,168,45870,1,0,0:0:0:0:
328,344,46053,6,0,B|320:300|320:300|336:200,1,141.950002707481,2|0,0:0|0:0,0:0:0:0:
392,64,46602,2,0,L|312:68,1,70.9750013537407,2|0,0:0|0:0,0:0:0:0:
184,104,46968,2,0,L|100:96,2,70.9750013537407,8|0|2,0:0|0:0|0:0,0:0:0:0:
160,212,47700,6,0,P|172:248|172:304,1,70.9750013537407,4|0,1:2|1:0,0:0:0:0:
52,352,48066,2,0,L|56:264,1,70.9750013537407,0|0,0:0|0:0,0:0:0:0:
64,180,48431,1,0,0:0:0:0:
148,296,48614,1,0,0:0:0:0:
256,200,48797,2,0,P|252:252|248:292,1,70.9750013537407,0|0,1:0|0:0,0:0:0:0:
376,344,49163,6,0,B|378:281|384:232|384:232|408:192,1,141.950002707481,2|0,0:0|0:0,0:0:0:0:
399,206,49712,1,0,0:0:0:0:
484,328,49895,2,0,L|486:286|488:244,1,70.9750013537407,8|0,0:0|0:0,0:0:0:0:
420,104,50261,2,0,P|464:112|512:116,1,70.9750013537407,2|0,0:0|0:0,0:0:0:0:
328,40,50627,5,0,1:0:0:0:
328,40,50810,2,0,P|260:56|232:144,1,141.950002707481,0|0,1:0|0:0,0:0:0:0:
168,196,51358,2,0,L|172:292,1,70.9750013537407,0|0,0:0|0:0,0:0:0:0:
317,190,51724,2,0,L|314:119,1,70.9750013537407,0|0,1:0|0:0,0:0:0:0:
247,292,52090,6,0,B|188:294|139:299|139:299|104:320,2,141.950002707481,2|0|8,0:0|0:0|0:0,0:0:0:0:
336,336,53005,1,0,0:0:0:0:
408,268,53188,2,0,P|448:264|496:244,1,70.9750013537407,2|0,0:0|0:0,0:0:0:0:
436,140,53553,5,0,1:0:0:0:
436,140,53736,2,0,L|440:64,1,70.9750013537407,0|0,1:0|0:0,0:0:0:0:
336,164,54102,2,0,P|292:140|204:168,1,141.950002707481,0|0,0:0|0:0,0:0:0:0:
236,308,54651,2,0,P|264:280|272:236,1,70.9750013537407,0|0,1:0|0:0,0:0:0:0:
136,64,55017,6,0,B|144:108|144:108|132:136|128:168|128:168|136:216,1,141.950002707481,2|0,0:0|1:0,0:0:0:0:
104,312,55566,1,0,0:0:0:0:
212,168,55749,2,0,L|296:172,2,70.9750013537407,8|0|2,0:0|0:0|0:0,0:0:0:0:
256,304,56297,1,0,0:0:0:0:
360,236,56480,6,0,P|376:204|376:160,1,70.9750013537407,0|0,1:0|1:0,0:0:0:0:
256,304,56846,1,0,0:0:0:0:
140,216,57029,2,0,P|128:180|132:140,1,70.9750013537407,0|0,0:0|0:0,0:0:0:0:
208,48,57395,1,0,0:0:0:0:
264,152,57578,2,0,L|256:236,1,70.9750013537407,0|0,1:0|0:0,0:0:0:0:
256,248,57852,1,0,0:0:0:0:
256,248,57944,1,2,0:0:0:0:
412,68,58310,6,0,L|404:152,1,70.9750013537407,0|0,0:0|0:0,0:0:0:0:
392,232,58675,1,8,0:0:0:0:
484,200,58858,1,0,0:0:0:0:
336,328,59041,1,2,0:0:0:0:
348,316,59407,6,0,L|272:308,1,70.9750013537407,4|0,1:2|1:0,0:0:0:0:
176,212,59773,2,0,L|246:204,1,70.9750013537407,0|0,0:0|0:0,0:0:0:0:
108,128,60139,2,0,P|120:88|112:48,1,70.9750013537407,0|0,0:0|0:0,0:0:0:0:
32,260,60505,2,0,P|60:288|104:296,1,70.9750013537407,0|0,1:0|0:0,0:0:0:0:
224,264,60870,6,0,P|188:224|88:224,2,141.950002707481,2|0|8,0:0|1:0|0:0,0:0:0:0:
284,344,61785,1,0,0:0:0:0:
352,272,61968,2,0,L|356:188,1,70.9750013537407,2|0,0:0|0:0,0:0:0:0:
280,128,62334,5,0,1:0:0:0:
432,168,62517,2,0,P|364:164|272:156,1,141.950002707481,0|0,1:0|0:0,0:0:0:0:
176,184,63066,2,0,P|168:144|184:100,1,70.9750013537407,0|0,0:0|0:0,0:0:0:0:
281,268,63431,2,0,P|320:269|357:272,1,70.9750013537407,0|0,1:0|0:0,0:0:0:0:
444,328,63797,5,2,0:0:0:0:
224,336,64163,1,0,0:0:0:0:
324,168,64529,1,8,0:0:0:0:
368,272,64712,1,0,0:0:0:0:
192,232,64895,1,2,0:0:0:0:
180,248,65261,6,0,B|184:192|176:144|176:144|188:104,1,141.950002707481,4|2,1:2|0:0,0:0:0:0:
260,32,65810,1,0,0:0:0:0:
88,172,65992,2,0,P|94:209|88:254,1,70.9750013537407,8|0,0:1|0:0,0:0:0:0:
48,68,66358,2,0,L|128:72,1,70.9750013537407,0|0,1:0|1:0,0:0:0:0:
260,176,66724,5,2,0:0:0:0:
192,104,66907,1,0,1:0:0:0:
192,104,67090,1,0,1:0:0:0:
328,72,67273,1,0,0:0:0:0:
356,228,67456,2,0,P|316:224|272:224,1,70.9750013537407,8|0,0:1|0:0,0:0:0:0:
408,324,67822,2,0,P|448:328|492:328,1,70.9750013537407,2|0,0:0|0:0,0:0:0:0:
256,304,68188,6,0,L|248:380,2,70.9750013537407,2|0|0,1:2|0:0|0:0,0:0:0:0:
244,168,68736,1,0,1:0:0:0:
148,288,68919,2,0,P|130:255|130:217,1,70.9750013537407,8|0,0:1|0:0,0:0:0:0:
256,152,69285,1,0,1:0:0:0:
360,220,69468,6,0,P|376:188|372:132,1,70.9750013537407,2|0,1:2|0:0,0:0:0:0:
328,40,69834,2,0,L|248:48,1,70.9750013537407,2|0,1:2|0:0,0:0:0:0:
124,112,70200,2,0,L|116:28,1,70.9750013537407,2|0,1:2|0:0,0:0:0:0:
40,216,70566,1,0,1:0:0:0:
132,144,70749,1,2,0:0:0:0:
196,256,70931,2,0,L|156:252,1,35.4875006768704,0|0,0:0|0:0,0:0:0:0:
256,320,71114,5,8,1:2:0:0:
320,132,71297,1,0,1:0:0:0:
320,132,71663,5,0,1:0:0:0:
488,280,72029,5,8,1:2:0:0:
332,112,72212,1,0,1:0:0:0:
392,344,72578,5,6,0:0:0:0:
376,324,73492,5,2,0:0:0:0:
376,324,73675,2,0,B|358:326|339:322|339:322|318:316|299:314|299:314|279:313|248:316,1,106.462502030611,2|0,0:0|0:0,0:0:0:0:
156,340,74041,6,0,P|140:296|144:232,1,83.5,4|0,0:0|0:0,0:0:0:0:
144,112,74407,2,0,L|48:104,1,83.5,8|0,0:0|0:0,0:0:0:0:
232,220,74773,1,0,0:0:0:0:
312,140,74956,2,0,P|324:96|316:48,1,83.5,2|8,0:0|0:0,0:0:0:0:
460,144,75322,6,0,P|432:192|416:316,1,167,2|2,0:0|0:0,0:0:0:0:
276,336,75870,2,0,P|280:284|276:240,1,83.5,8|0,0:0|0:0,0:0:0:0:
296,104,76236,2,0,P|236:120|184:120,1,83.5,0|2,1:0|0:0,0:0:0:0:
64,240,76602,1,8,0:0:0:0:
64,240,76968,6,0,P|152:235|244:230,1,167,2|8,1:2|0:0,0:0:0:0:
360,264,77517,1,0,1:0:0:0:
360,264,77608,1,0,0:0:0:0:
360,264,77700,2,0,P|372:308|356:368,1,83.5,0|2,1:0|0:0,0:0:0:0:
260,312,78066,1,8,0:0:0:0:
324,168,78249,6,0,L|424:172,1,83.5,2|0,0:0|0:0,0:0:0:0:
264,48,78614,1,2,0:0:0:0:
264,48,78797,2,0,L|180:51,1,83.5,8|0,0:0|0:0,0:0:0:0:
92,168,79163,1,0,1:0:0:0:
192,168,79346,1,2,0:0:0:0:
68,64,79529,1,8,0:0:0:0:
20,232,79712,1,0,1:0:0:0:
100,332,79895,6,0,P|143:327|204:320,1,83.5,2|0,1:2|0:0,0:0:0:0:
292,224,80261,2,0,P|300:176|288:124,1,83.5,8|0,0:0|0:0,0:0:0:0:
276,348,80627,1,0,0:0:0:0:
440,244,80810,1,2,0:0:0:0:
216,176,80992,1,8,0:0:0:0:
456,162,81175,6,0,P|450:203|439:243,1,83.5,2|0,0:0|1:0,0:0:0:0:
312,208,81541,1,2,0:0:0:0:
357,364,81724,2,0,P|305:356|257:340,1,83.5,8|0,0:0|1:0,0:0:0:0:
253,336,81999,1,0,0:0:0:0:
253,336,82090,1,0,1:0:0:0:
80,304,82273,1,2,0:0:0:0:
176,228,82456,2,0,L|184:144,1,83.5,8|0,0:0|0:0,0:0:0:0:
280,72,82822,5,0,1:0:0:0:
96,120,83005,1,2,0:0:0:0:
184,44,83188,1,8,0:0:0:0:
256,180,83370,1,2,0:0:0:0:
156,28,83553,1,8,0:0:0:0:
104,248,83736,1,2,0:0:0:0:
183,144,83919,1,2,0:0:0:0:
300,296,84102,6,0,B|259:284|259:284|214:259,1,83.5,8|0,0:0|0:0,0:0:0:0:
336,148,84468,1,2,0:0:0:0:
420,256,84651,2,0,B|425:301|425:301|416:360,1,83.5,8|0,1:2|0:0,0:0:0:0:
260,204,85017,1,0,1:0:0:0:
408,228,85200,1,2,0:0:0:0:
320,56,85383,1,8,0:0:0:50:soft-hitfinish.wav
336,40,85749,6,0,B|240:44|240:44|192:64,1,125.25,4|0,0:0|0:0,0:0:0:0:
136,96,86114,2,0,L|144:188,1,83.5,8|0,0:0|0:0,0:0:0:0:
232,308,86480,1,0,0:0:0:0:
72,244,86663,1,2,0:0:0:0:
128,348,86846,1,8,0:0:0:0:
260,204,87029,6,0,P|248:243|250:295,1,83.5,2|0,0:0|1:0,0:0:0:0:
340,344,87395,1,2,0:0:0:0:
460,216,87578,2,0,L|372:208,1,83.5,8|0,0:0|0:0,0:0:0:0:
300,56,87944,2,0,L|383:63,1,83.5,0|2,1:0|0:0,0:0:0:0:
356,232,88310,1,8,0:0:0:0:
460,128,88492,1,0,0:0:0:0:
200,64,88675,6,0,P|172:132|168:236,1,167,2|8,1:2|0:0,0:0:0:0:
236,336,89224,1,0,1:0:0:0:
236,336,89316,1,0,0:0:0:0:
236,336,89407,2,0,P|192:332|140:324,1,83.5,2|2,0:0|0:0,0:0:0:0:
212,200,89773,1,8,0:0:0:0:
52,248,89956,6,0,P|42:289|40:352,1,83.5,2|0,0:0|0:0,0:0:0:0:
128,168,90322,1,2,0:0:0:0:
288,260,90505,2,0,P|297:218|300:156,1,83.5,8|0,0:0|0:0,0:0:0:0:
408,264,90870,1,0,1:0:0:0:
352,36,91053,1,2,0:0:0:0:
228,108,91236,1,8,1:2:0:0:
220,116,91419,1,8,0:0:0:0:
500,160,91602,6,0,P|416:184|340:124,1,167,4|8,0:0|0:0,0:0:0:0:
352,144,92151,1,0,0:0:0:0:
448,4,92334,2,0,P|444:56|432:104,1,83.5,0|2,1:0|0:0,0:0:0:0:
304,344,92700,2,0,P|291:293|288:243,1,83.5,8|2,0:0|1:2,0:0:0:0:
208,104,93066,6,0,L|291:112,1,83.5,0|2,1:0|0:0,0:0:0:0:
480,272,93431,2,0,L|396:280,1,83.5,8|0,0:0|0:0,0:0:0:0:
208,188,93797,1,0,1:0:0:0:
296,256,93980,1,0,0:0:0:0:
156,344,94163,2,0,P|140:304|144:256,1,83.5,2|0,0:0|0:0,0:0:0:0:
56,152,94529,6,0,L|140:144|232:136,1,167,0|8,1:0|0:0,0:0:0:0:
384,128,95078,1,0,1:0:0:0:
384,128,95169,1,0,0:0:0:0:
384,128,95261,2,0,P|398:85|388:40,1,83.5,2|2,0:0|0:0,0:0:0:0:
240,96,95627,2,0,L|232:192,1,83.5,8|8,0:0|0:0,0:0:0:0:
336,328,95992,5,4,0:0:0:0:
400,208,96175,1,8,0:0:0:0:
480,288,96358,1,8,0:0:0:0:
312,164,96541,1,8,0:0:0:0:
368,304,96724,1,2,0:0:0:0:
328,300,96816,1,0,0:0:0:0:
288,296,96907,1,0,0:0:0:0:
248,292,96999,1,0,0:0:0:0:
208,288,97090,6,0,P|188:300|144:304,1,41.75,8|0,0:0|0:0,0:0:0:0:
102,179,97273,2,0,P|78:175|42:150,1,41.75,8|0,0:0|0:0,0:0:0:0:
176,80,97456,6,0,P|228:44|336:76,1,167,4|8,0:0|0:0,0:0:0:0:
324,64,98005,1,0,1:0:0:0:
400,168,98188,2,0,P|440:176|496:176,1,83.5,2|2,0:0|0:0,0:0:0:0:
352,324,98553,1,8,0:0:0:0:
264,216,98736,6,0,L|260:120,1,83.5,2|0,1:2|0:0,0:0:0:0:
140,260,99102,1,2,0:0:0:0:
140,260,99194,1,0,0:0:0:0:
140,260,99285,2,0,L|144:352,1,83.5,8|0,0:0|0:0,0:0:0:0:
72,176,99651,1,0,1:0:0:0:
264,216,99834,1,2,0:0:0:0:
176,80,100017,1,2,0:0:0:0:
176,80,100108,1,2,0:0:0:0:
176,80,100200,1,2,0:0:0:0:
176,80,100291,1,2,0:0:0:0:
176,80,100383,6,0,P|224:84|276:88,1,83.5,2|0,0:0|0:0,0:0:0:0:
452,60,100749,1,8,0:0:0:0:
344,112,100931,1,0,0:0:0:0:
444,172,101114,2,0,P|456:216|440:284,1,83.5,0|2,0:0|0:0,0:0:0:0:
272,196,101480,1,8,0:0:0:0:
368,324,101663,6,0,B|311:323|248:335|248:335|268:317|276:288,1,167,2|2,0:0|0:0,0:0:0:0:
172,224,102212,2,0,P|180:168|168:128,1,83.5,8|0,0:0|0:0,0:0:0:0:
76,320,102578,2,0,L|172:328,1,83.5,0|0,1:0|0:0,0:0:0:0:
88,180,102944,1,8,0:0:0:0:
260,88,103127,2,0,L|216:72,1,41.75,0|0,1:0|0:0,0:0:0:0:
328,140,103310,6,0,B|304:232|304:232|312:284,1,125.25,2|0,1:2|0:0,0:0:0:0:
344,336,103675,1,8,0:0:0:0:
440,264,103858,1,0,1:0:0:0:
440,264,103950,1,0,0:0:0:0:
440,264,104041,2,0,L|448:176,1,83.5,2|2,0:0|0:0,0:0:0:0:
420,48,104407,1,8,0:0:0:0:
260,88,104590,1,2,0:0:0:0:
360,208,104773,5,0,0:0:0:0:
352,104,104956,1,2,0:0:0:0:
192,160,105139,2,0,P|142:155|93:142,1,83.5,8|0,0:0|0:0,0:0:0:0:
192,272,105505,2,0,P|200:312|199:371,1,83.5,0|2,1:0|0:0,0:0:0:0:
280,224,105870,1,8,0:0:0:0:
288,208,106236,5,2,1:2:0:0:
104,316,106419,1,2,0:0:0:0:
120,148,106602,1,8,0:0:0:0:
188,236,106785,1,2,0:0:0:0:
340,124,106968,1,8,0:0:0:0:
212,84,107151,1,2,0:0:0:0:
256,336,107334,1,8,0:0:0:0:
104,239,107517,6,0,L|188:236,1,83.5,8|0,0:0|1:0,0:0:0:0:
328,280,107883,1,2,0:0:0:0:
424,160,108066,2,0,P|432:212|416:264,1,83.5,8|0,1:2|0:0,0:0:0:0:
392,344,108431,1,0,1:0:0:0:
272,196,108614,1,0,1:0:0:0:
272,196,108706,1,0,0:0:0:0:
272,196,108797,2,0,L|276:112,1,83.5,8|0,0:0|0:0,0:0:0:0:
192,40,109163,6,0,B|172:76|172:76|128:68|80:72|80:72|56:104,1,167,4|8,0:0|0:0,0:0:0:0:
132,236,109712,2,0,P|144:196|136:148,1,83.5,0|0,0:0|0:0,0:0:0:0:
20,260,110078,2,0,P|8:300|16:348,1,83.5,2|8,0:0|0:0,0:0:0:0:
152,324,110444,6,0,L|240:320,1,83.5,2|0,1:2|0:0,0:0:0:0:
240,188,110810,1,2,0:0:0:0:
368,308,110992,2,0,P|355:266|364:212,1,83.5,8|0,0:0|0:0,0:0:0:0:
332,64,111358,2,0,P|375:61|432:88,1,83.5,0|2,1:0|0:0,0:0:0:0:
468,208,111724,1,8,0:0:0:0:
364,144,111907,1,0,0:0:0:0:
200,264,112090,6,0,P|160:216|192:120,1,167,2|8,1:2|0:0,0:0:0:0:
187,123,112639,1,0,0:0:0:0:
312,220,112822,2,0,L|308:320,1,83.5,0|2,0:0|0:0,0:0:0:0:
100,336,113188,2,0,L|103:252,1,83.5,8|2,0:0|0:0,0:0:0:0:
40,112,113553,6,0,P|84:124|148:124,1,83.5,0|2,0:0|0:0,0:0:0:0:
312,220,113919,2,0,P|270:223|230:234,1,83.5,8|0,1:2|0:0,0:0:0:0:
228,96,114285,2,0,P|232:48|236:-4,1,83.5,0|2,1:0|0:0,0:0:0:0:
336,136,114651,1,8,0:0:0:0:
420,56,114834,2,0,L|380:40,1,41.75,0|0,1:0|0:0,0:0:0:0:
496,96,115017,6,0,P|468:176|468:244,1,125.25,2|0,0:0|0:0,0:0:0:0:
452,292,115383,2,0,P|392:284|352:280,1,83.5,8|0,0:0|0:0,0:0:0:0:
228,332,115749,2,0,P|208:292|208:244,1,83.5,0|2,1:0|0:0,0:0:0:0:
321,102,116114,2,0,P|316:146|312:200,1,83.5,8|2,0:0|0:0,0:0:0:0:
332,320,116480,5,0,1:0:0:0:
208,164,116663,1,2,0:0:0:0:
152,280,116846,2,0,P|104:276|52:272,1,83.5,8|0,0:0|0:0,0:0:0:0:
32,108,117212,2,0,P|80:112|132:116,1,83.5,0|2,1:0|0:0,0:0:0:0:
244,72,117578,1,8,0:0:0:0:
252,56,117944,5,4,0:0:0:0:
292,312,118127,1,0,0:0:0:0:
372,56,118310,1,8,0:0:0:0:
460,248,118492,1,8,0:0:0:0:
220,176,118675,5,8,0:0:0:0:
220,176,118767,1,8,0:0:0:0:
220,176,118858,2,0,L|224:224,1,41.75,8|0,0:0|0:0,0:0:0:0:
96,336,119041,2,0,L|99:294,1,41.75,8|0,0:0|0:0,0:0:0:0:
225,306,119224,1,0,1:0:0:0:
347,200,119407,6,0,B|319:240|327:288|343:340|343:340|311:320|261:324|261:324|240:320|225:306,1,271.375,4|0,0:0|0:0,0:0:0:0:
