osu file format v14

[General]
AudioFilename: Shiawase no Basho.mp3
AudioLeadIn: 0
PreviewTime: 73215
Countdown: 0
SampleSet: Soft
StackLeniency: 0.7
Mode: 0
LetterboxInBreaks: 0
EpilepsyWarning: 1
WidescreenStoryboard: 1

[Editor]
Bookmarks: 24191
DistanceSpacing: 1.4
BeatDivisor: 4
GridSize: 4
TimelineZoom: 1.5

[Metadata]
Title:Shiawase no Basho short ver.
TitleUnicode:しあわせの場所 short ver.
Artist:Duca
ArtistUnicode:Duca
Creator:Oyatsu
Version:Hard
Source:星織ユメミライ
Tags:Hoshi Ori Yume Mirai tone work's ending visual novel eroge vocal collection kantokun 10nya -_t_e_n_n_y_a_-
BeatmapID:589451
BeatmapSetID:248061

[Difficulty]
HPDrainRate:6
CircleSize:4
OverallDifficulty:6
ApproachRate:7.5
SliderMultiplier:1.5
SliderTickRate:1

[Events]
//Background and Video events
0,0,"BG.jpg",0,0
//Break Periods
//Storyboard Layer 0 (Background)
//Storyboard Layer 1 (Fail)
//Storyboard Layer 2 (Pass)
//Storyboard Layer 3 (Foreground)
Sprite,Foreground,Centre,"SB/BW.png",320,240 F,0,-135,871,1 C,0,0,12578,0,0,0 S,0,0,74041,0.642516 F,0,871,74041,1 C,0,12578,24285,0,0,0,255,255,255 F,0,74041,75505,1,0 S,0,74041,75505,0.642516,0.6920646
Sprite,Foreground,Centre,"SB/Text/O.png",320,240 F,0,7273,7639,1 V,0,7273,7639,1,0.1,1,1 M,0,7273,9285,417,320,437,320 F,0,7639,8919,1 F,0,8919,9285,1,0
Sprite,Foreground,Centre,"SB/Text/ya.png",320,240 F,0,7456,7822,1 V,0,7456,7822,1,0.1,1,1 M,0,7456,9285,448,321,466,321 F,0,7822,8919,1 F,0,8919,9285,1,0
Sprite,Foreground,Centre,"SB/Text/tsu.png",320,240 F,0,7639,8005,1 V,0,7639,8005,1,0.1,1,1 M,0,7639,9285,487,322,503,322 F,0,8005,8919,1 F,0,8919,9285,1,0
Sprite,Foreground,Centre,"SB/cir.png",320,240 M,0,119316,,327,177 F,0,119316,119407,0,1 S,0,119316,120870,0.2154839,1.016516 F,0,119407,120870,1,0
//Storyboard Sound Samples

[TimingPoints]
871,365.853658536585,4,2,1,20,1,0
24285,-117.647058823529,4,2,1,30,0,0
26480,-117.647058823529,4,2,2,30,0,0
26572,-117.647058823529,4,2,1,30,0,0
35078,-117.647058823529,4,2,1,20,0,0
35261,-117.647058823529,4,2,1,22,0,0
35444,-117.647058823529,4,2,1,24,0,0
35627,-117.647058823529,4,2,1,28,0,0
35810,-117.647058823529,4,2,1,30,0,0
38188,-117.647058823529,4,2,2,30,0,0
38279,-117.647058823529,4,2,1,30,0,0
47700,-117.647058823529,4,2,1,40,0,0
65261,-117.647058823529,4,2,1,50,0,0
71114,-117.647058823529,4,2,2,60,0,0
72578,-117.647058823529,4,2,1,50,0,0
74041,-100,4,2,2,70,0,1
84651,-100,4,2,2,70,0,0
85749,-100,4,2,2,70,0,1
91602,-100,4,2,2,50,0,1
91694,-100,4,2,2,70,0,1
95992,-100,4,2,2,50,0,1
96084,-100,4,2,2,70,0,1
97364,-100,4,2,2,70,0,0
97456,-100,4,2,2,70,0,1
97547,-100,4,2,2,60,0,0
100017,-100,4,2,1,50,0,0
100383,-100,4,2,2,60,0,0
109163,-100,4,2,2,50,0,0
109255,-100,4,2,2,60,0,0
117944,-100,4,2,2,70,0,0
118675,-100,4,2,2,50,0,0
119407,-200,4,2,1,20,0,0
119499,-200,4,2,1,5,0,0

[Colours]
Combo1 : 249,89,89
Combo2 : 234,165,21
Combo3 : 70,153,255

[HitObjects]
476,104,24285,6,0,P|436:72|344:76,1,127.50000243187,4|0,1:2|1:0,0:0:0:0:
276,44,24834,1,0,0:0:0:0:
236,124,25017,2,0,P|188:128|156:124,1,63.7500012159348,0|0,0:0|0:0,0:0:0:0:
84,124,25383,2,0,L|72:200,1,63.7500012159348,0|0,0:0|0:0,0:0:0:0:
56,276,25749,6,0,P|92:304|176:292,1,127.50000243187,2|0,0:0|0:0,0:0:0:0:
236,236,26297,1,0,0:0:0:0:
304,296,26480,2,0,L|380:304,1,63.7500012159348,8|0,0:0|0:0,0:0:0:0:
456,208,26846,1,2,0:0:0:0:
456,208,27212,6,0,P|492:256|488:336,1,127.50000243187,0|0,1:0|1:0,0:0:0:0:
372,236,27761,1,0,0:0:0:0:
372,236,27944,2,0,P|368:192|376:156,1,63.7500012159348,0|0,0:0|0:0,0:0:0:0:
396,88,28310,2,0,L|308:72,1,63.7500012159348
176,144,28675,6,0,P|216:168|300:144,2,127.50000243187,2|0|8,0:0|0:0|0:0,0:0:0:0:
240,84,29590,1,0,0:0:0:0:
156,56,29773,2,0,L|72:64,1,63.7500012159348,2|0,0:0|0:0,0:0:0:0:
76,148,30139,6,0,P|80:200|72:296,1,127.50000243187,0|0,1:0|1:0,0:0:0:0:
136,340,30688,1,0,0:0:0:0:
200,276,30870,2,0,P|200:240|204:196,1,63.7500012159348,0|0,0:0|0:0,0:0:0:0:
244,132,31236,2,0,P|288:136|332:144,1,63.7500012159348
356,64,31602,6,0,P|388:112|376:200,1,127.50000243187,2|0,0:0|0:0,0:0:0:0:
320,244,32151,1,0,0:0:0:0:
360,324,32334,2,0,L|444:320,2,63.7500012159348,8|0|2,0:0|0:0|0:0,0:0:0:0:
180,324,33066,6,0,P|168:264|192:192,1,127.50000243187,0|0,1:0|1:0,0:0:0:0:
244,132,33614,1,0,0:0:0:0:
332,128,33797,2,0,B|376:120|376:120|480:136,1,127.50000243187,0|0,0:0|1:0,0:0:0:0:
420,308,34529,6,0,P|372:344|300:332,1,127.50000243187,2|0,0:0|0:0,0:0:0:0:
256,264,35078,1,2,0:0:0:0:
122,239,35261,1,2,0:0:0:0:
238,183,35444,1,2,0:0:0:0:
179,305,35627,1,2,0:0:0:0:
162,164,35810,1,2,0:0:0:0:
328,212,35992,6,0,P|330:176|326:144,1,63.7500012159348,4|0,1:2|0:0,0:0:0:0:
440,208,36358,2,0,P|438:244|442:276,1,63.7500012159348,0|0,1:0|0:0,0:0:0:0:
492,344,36724,2,0,P|444:312|356:332,1,127.50000243187,0|0,0:0|0:0,0:0:0:0:
296,356,37273,1,0,0:0:0:0:
220,312,37456,6,0,L|216:248,1,63.7500012159348,2|0,0:0|0:0,0:0:0:0:
100,160,37822,2,0,L|96:224,1,63.7500012159348,0|0,0:0|0:0,0:0:0:0:
208,156,38188,1,8,0:0:0:0:
208,156,38553,2,0,P|252:156|288:148,1,63.7500012159348,2|0,0:0|0:0,0:0:0:0:
348,44,38919,6,0,P|272:44|232:88,2,127.50000243187,0|0|0,1:0|1:0|0:0,0:0:0:0:
428,84,39834,1,0,0:0:0:0:
392,164,40017,2,0,L|388:236,1,63.7500012159348,0|0,0:0|0:0,0:0:0:0:
424,312,40383,6,0,B|376:324|336:304|336:304|288:324,1,127.50000243187,2|0,0:0|0:0,0:0:0:0:
124,344,41114,2,0,L|120:272,1,63.7500012159348,8|0,0:0|0:0,0:0:0:0:
28,188,41480,2,0,P|60:184|100:168,1,63.7500012159348,2|0,0:0|0:0,0:0:0:0:
136,96,41846,6,0,P|200:88|260:136,1,127.50000243187,0|0,1:0|1:0,0:0:0:0:
324,176,42395,1,0,0:0:0:0:
268,244,42578,2,0,P|268:276|272:308,1,63.7500012159348,0|0,0:0|0:0,0:0:0:0:
416,276,42944,2,0,L|352:272,1,63.7500012159348,0|0,0:0|0:0,0:0:0:0:
480,340,43310,6,0,P|504:284|496:208,1,127.50000243187,2|0,0:0|0:0,0:0:0:0:
452,144,43858,1,0,0:0:0:0:
364,132,44041,2,0,L|368:56,1,63.7500012159348,8|0,0:0|0:0,0:0:0:0:
260,24,44407,2,0,L|256:87,1,63.7500012159348,2|0,0:0|0:0,0:0:0:0:
248,200,44773,6,0,P|192:216|128:188,1,127.50000243187,0|0,1:0|1:0,0:0:0:0:
72,120,45322,2,0,L|68:48,2,63.7500012159348,0|0|0,0:0|0:0|0:0,0:0:0:0:
200,132,45870,1,0,0:0:0:0:
64,272,46053,6,0,B|108:268|108:268|152:276|152:276|208:272,1,127.50000243187,2|0,0:0|0:0,0:0:0:0:
312,340,46602,2,0,L|248:344,1,63.7500012159348,2|0,0:0|0:0,0:0:0:0:
344,244,46968,1,8,0:0:0:0:
344,244,47334,2,0,L|416:248,1,63.7500012159348,2|0,0:0|0:0,0:0:0:0:
496,264,47700,5,4,1:2:0:0:
464,152,47883,2,0,L|312:140,1,127.50000243187,0|0,1:0|0:0,0:0:0:0:
248,132,48431,2,0,P|244:96|244:56,1,63.7500012159348,0|0,0:0|0:0,0:0:0:0:
132,128,48797,2,0,P|136:164|136:204,1,63.7500012159348,0|0,1:0|0:0,0:0:0:0:
52,216,49163,6,0,P|36:284|60:336,1,127.50000243187,2|0,0:0|0:0,0:0:0:0:
148,352,49712,1,0,0:0:0:0:
212,248,49895,2,0,L|140:256,1,63.7500012159348,8|0,0:0|0:0,0:0:0:0:
296,308,50261,1,2,0:0:0:0:
296,308,50627,5,0,1:0:0:0:
364,252,50810,1,0,1:0:0:0:
440,296,50992,2,0,L|436:364,1,63.7500012159348,0|0,0:0|0:0,0:0:0:0:
496,216,51358,2,0,L|484:152,1,63.7500012159348,0|0,0:0|0:0,0:0:0:0:
376,76,51724,2,0,P|412:76|460:64,1,63.7500012159348,0|0,1:0|0:0,0:0:0:0:
304,20,52090,6,0,P|256:64|256:136,1,127.50000243187,2|0,0:0|0:0,0:0:0:0:
284,300,52822,1,8,0:0:0:0:
200,328,53005,1,0,0:0:0:0:
136,264,53188,2,0,P|132:224|132:192,1,63.7500012159348,2|0,0:0|0:0,0:0:0:0:
56,152,53553,5,0,1:0:0:0:
56,152,53736,2,0,P|104:160|176:112,1,127.50000243187,0|0,1:0|0:0,0:0:0:0:
212,40,54285,2,0,L|284:48,1,63.7500012159348,0|0,0:0|0:0,0:0:0:0:
364,140,54651,2,0,L|292:152,1,63.7500012159348,0|0,1:0|0:0,0:0:0:0:
416,80,55017,6,0,P|400:144|420:216,1,127.50000243187,2|0,0:0|1:0,0:0:0:0:
468,272,55566,1,0,0:0:0:0:
396,324,55749,2,0,P|360:332|316:332,1,63.7500012159348,8|0,0:0|0:0,0:0:0:0:
260,280,56114,2,0,L|256:212,1,63.7500012159348,2|0,0:0|0:0,0:0:0:0:
248,128,56480,5,0,1:0:0:0:
160,240,56663,2,0,P|100:208|88:140,1,127.50000243187,0|0,1:0|0:0,0:0:0:0:
164,32,57212,2,0,P|168:72|160:108,1,63.7500012159348
248,128,57578,1,0,1:0:0:0:
328,92,57761,5,0,0:0:0:0:
328,92,57852,1,0,0:0:0:0:
328,92,57944,2,0,P|388:80|456:128,1,127.50000243187,2|0,0:0|0:0,0:0:0:0:
492,184,58492,1,0,0:0:0:0:
416,228,58675,2,0,P|372:236|332:236,1,63.7500012159348,8|0,0:0|0:0,0:0:0:0:
264,256,59041,2,0,L|260:332,1,63.7500012159348,2|0,0:0|0:0,0:0:0:0:
172,328,59407,5,4,1:2:0:0:
172,328,59590,2,0,L|184:192,1,127.50000243187,0|0,1:0|0:0,0:0:0:0:
236,96,60139,2,0,P|180:124|100:100,1,127.50000243187,0|0,0:0|1:0,0:0:0:0:
36,72,60688,1,0,0:0:0:0:
28,160,60870,6,0,L|28:240,1,63.7500012159348,2|0,0:0|0:0,0:0:0:0:
108,336,61236,2,0,L|120:260,1,63.7500012159348,0|0,1:0|0:0,0:0:0:0:
144,188,61602,2,0,P|204:180|268:232,1,127.50000243187,8|2,0:0|0:0,0:0:0:0:
300,296,62151,1,0,0:0:0:0:
376,248,62334,5,0,1:0:0:0:
376,248,62517,2,0,L|512:244,1,127.50000243187,0|0,1:0|0:0,0:0:0:0:
440,152,63066,2,0,P|437:115|437:80,1,63.7500012159348,0|0,0:0|0:0,0:0:0:0:
300,104,63431,2,0,P|303:141|303:176,1,63.7500012159348,0|0,1:0|0:0,0:0:0:0:
256,244,63797,6,0,P|224:264|120:244,1,127.50000243187,2|0,0:0|0:0,0:0:0:0:
108,80,64529,2,0,L|36:88,2,63.7500012159348,8|0|2,0:0|0:0|0:0,0:0:0:0:
108,80,65261,6,0,P|120:136|104:216,1,127.50000243187,4|2,1:2|0:0,0:0:0:0:
60,280,65810,1,0,0:0:0:0:
136,328,65992,2,0,P|172:344|216:356,1,63.7500012159348,8|0,0:1|0:0,0:0:0:0:
316,240,66358,2,0,P|300:272|290:309,1,63.7500012159348,0|0,1:0|1:0,0:0:0:0:
204,252,66724,6,0,P|196:208|184:168,1,63.7500012159348,2|0,0:0|1:0,0:0:0:0:
192,72,67090,1,0,1:0:0:0:
192,72,67456,2,0,P|236:96|324:84,1,127.50000243187,8|2,0:1|0:0,0:0:0:0:
396,56,68005,1,0,0:0:0:0:
440,136,68188,6,0,P|484:136|528:148,1,63.7500012159348,2|0,1:2|0:0,0:0:0:0:
468,220,68553,1,0,0:0:0:0:
396,276,68736,2,0,P|340:268|304:208,1,127.50000243187,0|0,1:0|0:0,0:0:0:0:
320,124,69285,1,0,1:0:0:0:
240,84,69468,6,0,L|148:92,1,63.7500012159348,2|0,1:2|0:0,0:0:0:0:
60,176,69834,2,0,L|136:192,1,63.7500012159348,2|0,1:2|0:0,0:0:0:0:
247,263,70200,2,0,L|171:279,1,63.7500012159348,2|0,1:2|0:0,0:0:0:0:
100,308,70566,1,0,1:0:0:0:
100,308,70749,1,2,0:0:0:0:
100,308,71114,5,8,1:2:0:0:
168,184,71297,1,0,1:0:0:0:
168,184,71663,2,0,L|164:52,1,127.50000243187,0|8,1:0|1:2,0:0:0:0:
164,56,72212,1,0,1:0:0:0:
328,96,72578,5,6,0:0:0:0:
328,96,74041,6,0,B|368:104|412:92|412:92|436:120|432:164,1,150,4|8,0:0|0:0,0:0:0:0:
480,228,74590,1,0,0:0:0:0:
424,296,74773,2,0,L|336:288,1,75,0|2,0:0|0:0,0:0:0:0:
260,280,75139,1,8,0:0:0:0:
184,232,75322,6,0,P|200:172|180:84,1,150,2|2,0:0|0:0,0:0:0:0:
29,121,75870,2,0,L|104:132,1,75,8|0,0:0|0:0,0:0:0:0:
184,232,76236,2,0,L|109:242,1,75,0|2,1:0|0:0,0:0:0:0:
20,264,76602,1,8,0:0:0:0:
216,336,76968,6,0,P|276:296|352:312,1,150,2|8,1:2|0:0,0:0:0:0:
436,292,77517,1,0,0:0:0:0:
436,292,77608,1,0,0:0:0:0:
436,292,77700,2,0,P|432:252|436:208,1,75,0|2,1:0|0:0,0:0:0:0:
476,136,78066,1,8,0:0:0:0:
396,96,78249,6,0,L|224:88,1,150,2|2,0:0|0:0,0:0:0:0:
156,80,78797,2,0,P|148:36|148:0,1,75,8|0,0:0|0:0,0:0:0:0:
200,160,79163,2,0,P|200:200|188:252,1,75,0|2,1:0|0:0,0:0:0:0:
96,336,79529,2,0,L|176:332,1,75,8|0,0:0|0:0,0:0:0:0:
256,304,79895,6,0,B|292:312|324:300|324:300|364:324|412:316,1,150,2|8,1:2|0:0,0:0:0:0:
398,167,80444,2,0,P|386:207|382:255,1,75,0|0,0:0|0:0,0:0:0:0:
256,304,80810,2,0,P|251:266|240:231,1,75,2|8,0:0|0:0,0:0:0:0:
156,200,81175,6,0,P|120:136|140:56,1,150,2|2,0:0|0:0,0:0:0:0:
212,16,81724,1,8,0:0:0:0:
280,76,81907,1,0,1:0:0:0:
356,28,82090,2,0,L|448:44,1,75,0|2,1:0|0:0,0:0:0:0:
492,132,82456,2,0,L|408:160,1,75,8|0,0:0|0:0,0:0:0:0:
380,236,82822,6,0,B|328:224|328:224|272:248|272:304,1,150,0|8,1:0|0:0,0:0:0:0:
200,348,83370,1,2,0:0:0:0:
134,242,83553,1,8,0:0:0:0:
60,344,83736,2,0,P|16:340|-28:324,1,75,2|2,0:0|0:0,0:0:0:0:
135,242,84102,2,0,P|103:182|129:92,1,150,8|2,0:0|0:0,0:0:0:0:
246,130,84651,6,0,P|248:88|240:44,1,75,8|0,1:2|0:0,0:0:0:0:
332,176,85017,2,0,P|330:218|338:262,1,75,0|2,1:0|0:0,0:0:0:0:
420,328,85383,1,8,0:0:0:0:
420,328,85749,6,0,L|264:340,1,150,4|8,0:0|0:0,0:0:0:0:
270,339,86297,1,0,0:0:0:0:
180,328,86480,2,0,P|176:276|180:232,1,75,0|2,0:0|0:0,0:0:0:0:
224,176,86846,1,8,0:0:0:0:
148,128,87029,6,0,L|56:124,1,75,2|0,0:0|1:0,0:0:0:0:
60,36,87395,1,2,0:0:0:0:
60,36,87578,2,0,L|224:44,1,150,8|0,0:0|1:0,0:0:0:0:
276,104,88127,1,2,0:0:0:0:
356,64,88310,2,0,P|400:60|444:64,1,75,8|0,0:0|0:0,0:0:0:0:
480,140,88675,6,0,P|508:184|484:296,1,150,2|8,1:2|0:0,0:0:0:0:
388,332,89224,1,0,1:0:0:0:
388,332,89316,1,0,0:0:0:0:
388,332,89407,2,0,L|392:248,1,75,2|2,0:0|0:0,0:0:0:0:
396,168,89773,1,8,0:0:0:0:
320,120,89956,6,0,P|256:148|180:116,1,150,2|2,0:0|0:0,0:0:0:0:
252,60,90505,2,0,P|256:112|248:164,1,75,8|0,0:0|0:0,0:0:0:0:
252,240,90870,2,0,P|208:232|164:232,1,75,0|2,1:0|0:0,0:0:0:0:
76,352,91236,2,0,P|116:352|164:340,1,75,8|8,1:2|0:0,0:0:0:0:
304,308,91602,6,0,P|332:256|300:168,1,150,4|8,0:0|0:0,0:0:0:0:
284,84,92151,2,0,L|368:88,2,75,0|0|2,0:0|1:0|0:0,0:0:0:0:
204,40,92700,1,8,0:0:0:0:
128,88,92883,6,0,B|124:148|112:192|112:192|128:240,1,150,2|2,1:2|0:0,0:0:0:0:
164,316,93431,2,0,P|200:323|238:325,1,75,8|0,0:0|0:0,0:0:0:0:
292,252,93797,1,0,1:0:0:0:
368,304,93980,1,0,0:0:0:0:
440,252,94163,2,0,P|444:200|440:164,1,75,2|0,0:0|0:0,0:0:0:0:
508,116,94529,6,0,P|436:88|364:128,1,150,0|8,1:0|0:0,0:0:0:0:
284,96,95078,1,0,0:0:0:0:
244,176,95261,2,0,P|256:208|252:260,1,75,2|2,0:0|0:0,0:0:0:0:
192,312,95627,1,8,0:0:0:0:
192,312,95810,1,8,0:0:0:0:
112,272,95992,6,0,P|75:273|38:276,2,75,4|8|8,0:0|0:0|0:0,0:0:0:0:
93,152,96541,2,0,P|112:84|88:0,1,150,8|0,0:0|0:0,0:0:0:0:
248,32,97090,2,0,P|244:80|252:128,1,75,8|8,0:0|0:0,0:0:0:0:
288,188,97456,6,0,L|452:176,1,150,4|8,0:0|0:0,0:0:0:0:
476,260,98005,1,0,1:0:0:0:
476,260,98188,2,0,P|468:304|472:348,1,75,2|2,0:0|0:0,0:0:0:0:
384,360,98553,1,8,0:0:0:0:
316,304,98736,6,0,B|272:296|272:296|212:304|212:304|164:292,1,150,2|2,0:0|0:0,0:0:0:0:
88,252,99285,2,0,P|84:208|88:156,1,75,8|0,0:0|0:0,0:0:0:0:
196,68,99651,2,0,P|200:112|196:164,1,75,0|2,1:0|0:0,0:0:0:0:
88,252,100017,1,2,0:0:0:0:
88,252,100383,6,0,P|148:232|244:280,1,150,2|8,0:0|0:0,0:0:0:0:
296,320,100931,1,0,1:0:0:0:
296,320,101114,2,0,P|332:320|380:304,1,75,2|2,0:0|0:0,0:0:0:0:
316,236,101480,1,8,0:0:0:0:
444,352,101663,6,0,P|460:284|428:200,1,150,2|2,0:0|0:0,0:0:0:0:
356,168,102212,2,0,L|360:84,1,75,8|0,0:0|0:0,0:0:0:0:
268,88,102578,2,0,P|229:101|175:100,2,75,0|0|8,1:0|0:0|0:0,0:0:0:0:
212,20,103127,1,0,1:0:0:0:
124,40,103310,6,0,P|80:88|84:184,1,150,2|8,1:2|0:0,0:0:0:0:
160,204,103858,1,0,1:0:0:0:
160,204,104041,2,0,L|248:192,1,75,2|2,0:0|0:0,0:0:0:0:
324,176,104407,1,8,0:0:0:0:
380,284,104590,6,0,P|304:308|244:272,1,150,2|2,0:0|0:0,0:0:0:0:
160,300,105139,2,0,L|72:288,1,75,8|0,0:0|0:0,0:0:0:0:
16,232,105505,1,0,1:0:0:0:
16,232,105688,1,2,0:0:0:0:
72,164,105870,2,0,P|76:120|72:84,1,75,8|0,0:0|0:0,0:0:0:0:
204,44,106236,6,0,P|184:124|208:200,1,150,2|8,1:2|0:0,0:0:0:0:
364,112,106968,1,8,0:0:0:0:
444,72,107151,1,2,0:0:0:0:
508,136,107334,1,8,0:0:0:0:
344,120,107517,6,0,L|336:208,1,75,8|0,0:0|1:0,0:0:0:0:
328,284,107883,1,2,0:0:0:0:
400,332,108066,2,0,P|444:340|492:336,1,75,8|0,1:2|0:0,0:0:0:0:
328,284,108431,2,0,P|280:288|236:300,1,75,0|0,1:0|1:0,0:0:0:0:
253,294,108706,1,0,0:0:0:0:
253,294,108797,1,8,0:0:0:0:
40,292,109163,6,0,B|16:236|48:192|48:192|112:180,1,150,4|8,0:0|0:0,0:0:0:0:
60,100,109712,2,0,P|112:96|152:88,1,75,0|0,0:0|0:0,0:0:0:0:
224,112,110078,1,2,0:0:0:0:
276,40,110261,1,8,0:0:0:0:
352,88,110444,6,0,P|384:136|364:244,1,150,2|2,1:2|0:0,0:0:0:0:
300,268,110992,2,0,P|292:224|300:176,1,75,8|0,0:0|0:0,0:0:0:0:
180,248,111358,2,0,P|188:292|180:340,1,75,0|2,1:0|0:0,0:0:0:0:
104,360,111724,1,8,0:0:0:0:
96,272,111907,1,0,0:0:0:0:
96,272,112090,6,0,P|112:188|188:160,1,150,2|8,1:2|0:0,0:0:0:0:
240,108,112639,1,0,0:0:0:0:
304,168,112822,2,0,P|344:180|400:184,1,75,0|2,0:0|0:0,0:0:0:0:
432,112,113188,1,8,0:0:0:0:
488,248,113370,6,0,P|420:276|324:272,1,150,2|2,0:0|0:0,0:0:0:0:
260,248,113919,2,0,P|204:244|156:248,1,75,8|0,1:2|0:0,0:0:0:0:
88,340,114285,2,0,P|144:344|192:340,1,75,0|2,1:0|0:0,0:0:0:0:
260,248,114651,2,0,L|256:164,1,75,8|0,0:0|1:0,0:0:0:0:
188,116,115017,6,0,P|236:144|336:116,1,150,2|8,0:0|0:0,0:0:0:0:
404,80,115566,1,0,0:0:0:0:
480,124,115749,2,0,L|484:168|492:212,1,75,0|2,1:0|0:0,0:0:0:0:
396,324,116114,2,0,L|401:293|405:249,1,75,8|2,0:0|0:0,0:0:0:0:
296,312,116480,6,0,B|256:336|256:336|208:312|144:332,1,150,0|8,1:0|0:0,0:0:0:0:
64,316,117029,1,0,0:0:0:0:
48,228,117212,2,0,L|52:152,1,75,0|2,1:0|0:0,0:0:0:0:
188,88,117578,2,0,L|184:162,1,75,8|0,0:0|0:0,0:0:0:0:
256,216,117944,6,0,P|308:208|372:228,1,112.5,4|0,0:0|0:0,0:0:0:0:
408,236,118310,2,0,P|416:196|412:152,1,75,8|8,0:0|0:0,0:0:0:0:
348,72,118675,1,8,0:0:0:0:
348,72,118767,1,8,0:0:0:0:
348,72,118858,2,0,L|348:16,4,37.5,8|0|8|0|0,0:0|0:0|0:0|0:0|1:0,0:0:0:0:
264,108,119407,6,0,B|292:172|248:236|248:236|274:257|311:260|311:260|326:276|331:298,1,243.75,4|0,0:0|0:0,0:0:0:0:
