osu file format v12

[General]
AudioFilename: duca Sakurairo no Omoi.mp3
AudioLeadIn: 0
PreviewTime: 16416
Countdown: 0
SampleSet: Soft
StackLeniency: 0.7
Mode: 0
LetterboxInBreaks: 1
WidescreenStoryboard: 0

[Editor]
DistanceSpacing: 1
BeatDivisor: 4
GridSize: 8

[Metadata]
Title:Sakurairo no Omoi
TitleUnicode:桜色の想い
Artist:Duca
ArtistUnicode:Duca
Creator:mana vayne
Version:Hard
Source:桜舞う乙女のロンド
Tags:opening eroge Ensemble
BeatmapID:338815
BeatmapSetID:135191

[Difficulty]
HPDrainRate:5
CircleSize:4
OverallDifficulty:6
ApproachRate:7
SliderMultiplier:1.8
SliderTickRate:1

[Events]
//Background and Video events
0,0,"asdfq.jpg",0,0
//Break Periods
//Storyboard Layer 0 (Background)
//Storyboard Layer 1 (Fail)
//Storyboard Layer 2 (Pass)
//Storyboard Layer 3 (Foreground)
//Storyboard Sound Samples
//Background Colour Transformations
3,100,163,162,255

[TimingPoints]
1261,444.444444444444,4,2,0,60,1,0
4372,-100,4,2,0,60,0,0
13705,-100,4,2,0,60,0,0
13927,-100,4,2,0,60,0,0
14372,-100,4,2,0,65,0,0
14594,-100,4,2,0,65,0,0
15038,-100,4,2,0,68,0,0
15260,-100,4,2,0,68,0,0
15705,-100,4,3,0,70,0,0
15927,-100,4,3,0,70,0,0
16372,-100,4,2,0,70,0,0
16816,-100,4,3,0,60,0,0
17038,-100,4,2,0,60,0,0
22149,-100,4,2,0,45,0,0
36372,-100,4,2,0,60,0,0
44372,-100,4,2,0,60,0,0
45038,-100,4,2,0,40,0,0
66149,-100,4,2,0,25,0,0
67038,-100,4,2,0,60,0,1
79483,-100,4,3,0,60,0,1
79749,-100,4,3,0,60,0,1
79927,-100,4,3,0,60,0,1
80149,-100,4,3,0,60,0,1
80372,-100,4,3,0,60,0,1
80594,-100,4,3,0,60,0,1
80816,-100,4,3,0,60,0,1
81260,-100,4,2,0,60,0,1
88816,-100,4,2,0,45,0,1
89705,-100,4,2,0,60,0,1
95483,-100,4,3,0,50,0,0
103260,-100,4,2,0,20,0,0

[HitObjects]
64,64,1261,2,0,P|64:160|120:256,1,180
360,224,2149,2,0,P|328:160|232:104,2,180
308,298,3260,1,0,0:0:0:0:
217,290,3483,2,0,P|185:250|177:194,2,90
312,136,4372,6,0,P|352:168|368:216,2,90
64,72,5705,2,0,P|112:48|168:48,1,90
232,72,6149,1,0,0:0:0:0:
208,160,6372,1,0,0:0:0:0:
297,134,6594,2,0,P|369:166|409:262,1,180
128,213,7483,6,0,P|168:292|247:334,1,180
376,176,8372,1,0,0:0:0:0:
160,80,8816,1,0,0:0:0:0:
256,192,9260,12,0,11038,0:0:0:0:
344,240,11483,6,0,P|408:176|424:80,1,180
176,40,12372,2,0,P|128:104|120:208,1,180
136,328,13038,1,0,0:0:0:0:
256,304,13260,1,0,0:0:0:0:
328,216,13483,1,0,0:0:0:0:
225,62,13705,5,4,0:0:0:0:
225,62,13928,1,4,0:0:0:0:
32,136,14372,1,4,0:0:0:0:
32,136,14594,1,4,0:0:0:0:
288,256,15039,1,4,0:0:0:0:
288,256,15261,1,4,0:0:0:0:
48,352,15705,5,4,0:0:0:0:
48,352,15928,1,4,0:0:0:0:
200,224,16372,6,0,P|216:136|296:80,1,180
400,128,17039,1,0,0:0:0:0:
344,240,17261,1,0,0:0:0:0:
96,60,17705,6,0,L|96:240,1,180
186,239,18372,1,0,0:0:0:0:
158,324,18594,2,0,B|227:339|259:267|324:267,1,180,8|0,0:0|0:0,0:0:0:0:
324,267,19483,1,0,0:0:0:0:
171,118,19928,6,0,B|241:70|273:150|345:134,1,180,0|0,0:0|0:0,0:0:0:0:
325,267,20594,1,0,0:0:0:0:
178,267,20817,2,0,P|110:209|79:125,1,180
280,312,21705,1,0,0:0:0:0:
280,312,22150,5,8,0:0:0:0:
336,328,22372,1,2,0:0:0:0:
368,272,22594,1,0,0:0:0:0:
400,88,23039,1,0,0:0:0:0:
264,32,23483,1,0,0:0:0:0:
168,144,23928,1,8,0:0:0:0:
192,152,24149,1,0,0:0:0:0:
224,168,24372,6,0,P|280:240|272:328,2,180
40,176,25705,1,8,0:0:0:0:
40,176,26149,2,0,P|40:80|96:24,1,180
264,80,27038,1,0,0:0:0:0:
192,248,27483,5,8,0:0:0:0:
192,248,27927,2,0,P|112:184|96:88,1,180
288,64,28816,1,0,0:0:0:0:
248,184,29260,1,8,0:0:0:0:
432,184,29705,2,0,P|368:192|296:288,2,180
288,72,31038,1,8,0:0:0:0:
144,48,31483,6,0,P|104:144|104:232,1,180
184,336,32372,1,0,0:0:0:0:
264,216,32816,1,0,0:0:0:0:
296,216,33038,1,0,0:0:0:0:
336,216,33260,2,0,P|384:136|368:48,1,180
336,32,33927,1,0,0:0:0:0:
207,97,34149,1,0,0:0:0:0:
288,272,34594,1,8,0:0:0:0:
288,272,35038,6,0,P|208:320|120:304,1,180
96,288,35705,1,0,0:0:0:0:
32,152,35927,1,0,0:0:0:0:
288,128,36372,5,0,0:0:0:0:
437,310,36816,2,0,P|465:225|464:136,2,180
257,195,38149,5,0,0:0:0:0:
64,183,38594,2,0,P|24:263|38:351,2,180
256,188,39927,1,8,0:0:0:0:
440,200,40372,2,0,P|464:144|432:32,2,180
256,188,41705,5,8,0:0:0:0:
271,346,42149,2,0,P|335:322|447:354,2,180
264,136,43483,1,8,0:0:0:0:
56,304,44372,1,8,0:0:0:0:
56,304,44816,1,0,0:0:0:0:
56,176,45038,5,2,0:0:0:0:
56,144,45149,1,2,0:0:0:0:
56,112,45260,2,0,L|87:73,3,45
127,62,45705,1,0,0:0:0:0:
206,103,45927,1,0,0:0:0:0:
206,104,46149,2,0,P|262:144|286:248,1,180,8|0,0:0|0:0,0:0:0:0:
480,208,47038,1,8,0:0:0:0:
342,87,47483,6,0,P|261:56|184:95,1,180,0|8,0:0|0:0,0:0:0:0:
88,248,48372,2,0,P|166:287|248:255,1,180,0|8,0:0|0:0,0:0:0:0:
376,128,49260,2,0,P|294:95|216:134,1,180,0|8,0:0|0:0,0:0:0:0:
40,340,50149,6,0,L|64:152,1,180,0|8,0:0|0:0,0:0:0:0:
263,5,51038,2,0,L|240:184,1,180,0|8,0:0|0:0,0:0:0:0:
464,360,51927,2,0,L|424:184,1,180,0|8,0:0|0:0,0:0:0:0:
256,112,52816,6,0,P|144:112|80:152,1,180,0|8,0:0|0:0,0:0:0:0:
232,256,53705,2,0,P|311:295|400:289,1,180,0|8,0:0|0:0,0:0:0:0:
88,288,54594,1,0,0:0:0:0:
168,168,55038,6,0,P|264:112|336:112,1,180
186,323,55927,2,0,P|274:318|336:256,1,180,8|0,0:0|0:0,0:0:0:0:
80,232,56816,5,8,0:0:0:0:
152,64,57260,1,0,0:0:0:0:
320,136,57705,1,8,0:0:0:0:
224,288,58149,1,0,0:0:0:0:
400,296,58594,5,8,0:0:0:0:
248,208,59038,1,0,0:0:0:0:
88,296,59483,1,8,0:0:0:0:
248,208,59927,6,0,P|248:88|280:32,2,180,0|8|0,0:0|0:0|0:0,0:0:0:0:
48,224,61260,1,8,0:0:0:0:
216,288,61705,1,0,0:0:0:0:
136,88,62149,2,0,P|192:48|312:48,2,180,8|0|8,0:0|0:0|0:0,0:0:0:0:
208,256,63483,6,0,P|296:288|400:240,2,180,0|8|0,0:0|0:0|0:0,0:0:0:0:
232,168,64594,1,0,0:0:0:0:
287,46,64816,1,8,0:0:0:0:
127,51,65038,1,0,0:0:0:0:
148,166,65260,6,0,L|167:306,1,135
56,160,65927,1,2,0:0:0:0:
56,160,66372,6,2,L|56:224,6,45
256,192,67483,6,0,P|256:72|304:40,1,180
477,197,68372,2,0,P|483:109|440:31,1,180,8|0,0:0|0:0,0:0:0:0:
376,248,69260,2,0,P|320:264|232:368,1,180,8|0,0:0|0:0,0:0:0:0:
55,97,70149,6,0,P|76:183|144:240,1,180,8|0,0:0|0:0,0:0:0:0:
56,96,71038,1,8,0:0:0:0:
200,96,71483,2,0,L|380:96,1,180,0|8,0:0|0:0,0:0:0:0:
408,240,72372,5,0,0:0:0:0:
408,240,72816,2,0,L|240:136,1,180,8|0,0:0|0:0,0:0:0:0:
104,323,73705,2,0,L|112:144,1,180,8|0,0:0|0:0,0:0:0:0:
248,336,74594,6,0,P|320:280|344:184,2,180
136,248,75927,1,0,0:0:0:0:
136,248,76372,2,0,P|120:136|152:72,1,180
288,80,77260,1,8,0:0:0:0:
288,80,77705,2,0,P|352:176|336:272,1,180
256,344,78594,1,0,0:0:0:0:
256,344,79038,1,4,0:0:0:0:
88,280,79483,5,0,0:0:0:0:
195,213,79705,1,0,0:0:0:0:
57,256,79927,1,0,0:0:0:0:
212,251,80149,1,0,0:0:0:0:
84,139,80372,1,0,0:0:0:0:
174,148,80594,1,0,0:0:0:0:
136,66,80816,1,0,0:0:0:0:
323,243,81260,6,0,P|379:323|491:339,1,180,4|0,0:0|0:0,0:0:0:0:
471,165,82149,1,0,0:0:0:0:
317,70,82594,2,0,P|233:44|154:83,2,180,0|0|0,0:0|0:0|0:0,0:0:0:0:
242,234,83927,1,4,0:0:0:0:
69,182,84372,5,4,0:0:0:0:
69,182,84816,2,0,P|157:254|189:326,1,180,0|8,0:0|0:0,0:0:0:0:
333,209,85705,1,0,0:0:0:0:
333,209,86149,2,0,P|413:121|413:49,1,180,0|8,0:0|0:0,0:0:0:0:
264,162,87038,2,0,P|180:192|118:256,1,180,0|8,0:0|0:0,0:0:0:0:
154,61,87927,1,4,0:0:0:0:
302,210,88372,5,0,0:0:0:0:
136,280,88816,2,2,P|95:312|55:318,2,90
230,126,89705,2,0,P|134:86|54:134,1,180,0|0,0:0|0:0,0:0:0:0:
71,116,90594,1,8,0:0:0:0:
236,326,91038,2,0,P|148:317|82:259,1,180,8|4,0:0|0:0,0:0:0:0:
344,224,91927,1,0,0:0:0:0:
188,52,92372,6,0,P|227:73|256:112,2,90
344,224,93260,1,0,0:0:0:0:
344,224,93705,2,0,P|312:280|264:296,2,90
48,296,94594,2,0,P|56:192|112:112,1,180
360,48,95483,6,4,B|464:144|448:304|312:344,1,360
144,320,96816,2,0,B|56:248|24:160|32:136,1,180
365,106,97705,2,0,P|288:62|200:64,2,180
200,176,99038,1,0,0:0:0:0:
200,176,99483,2,0,P|104:176|16:248,2,180
368,104,100816,6,0,L|368:255,2,135
256,192,101705,12,0,103260,0:0:0:0:
