osu file format v9

[General]
AudioFilename: Duca - Revolution.mp3
AudioLeadIn: 1985
PreviewTime: 79969
Countdown: 1
SampleSet: Normal
StackLeniency: 0.7
Mode: 1
LetterboxInBreaks: 1

[Editor]
DistanceSpacing: 0.4
BeatDivisor: 2
GridSize: 8

[Metadata]
Title:Revolution
Artist:Duca
Creator:KRZY
Version:lepidon! - Taiko Oni
Source:Koiiro Soramoyou
Tags:Lunet L_i_a lepidopodus studio ryokucha

[Difficulty]
HPDrainRate:5
CircleSize:5
OverallDifficulty:6
ApproachRate:5
SliderMultiplier:1.4
SliderTickRate:1

[Events]
//Background and Video events
0,0,"BG5.jpg"
Video,0,"Koiiro Soramoyou 2nd Opening.flv"
//Break Periods
//Storyboard Layer 0 (Background)
//Storyboard Layer 1 (Fail)
//Storyboard Layer 2 (Pass)
//Storyboard Layer 3 (Foreground)
//Storyboard Sound Samples
//Background Colour Transformations
3,100,255,255,255

[TimingPoints]
115,500,4,1,0,55,1,0
18115,413.793103448276,4,1,0,55,1,0
18115,-120.481927710843,4,1,0,55,0,0
19356,-100,4,1,0,55,0,0
37977,-100,4,1,0,40,0,0
51218,-100,4,1,0,45,0,0
81011,-100,4,1,0,55,0,1
107494,-100,4,1,0,55,0,0
109149,-100,4,1,0,55,0,1
112459,-100,4,1,0,55,0,0
129011,-100,4,1,0,55,0,1
132321,-100,4,1,0,55,0,0

[HitObjects]
304,184,2115,1,8
334,312,4115,1,8
406,100,6115,1,8
288,290,8115,1,8
76,215,10115,5,8
143,233,10865,1,8
282,229,12115,1,8
365,227,12865,1,8
344,365,14115,1,8
308,258,15115,1,8
297,369,16115,1,8
282,314,16615,1,8
268,259,17115,1,8
254,204,17615,1,8
308,188,18115,1,8
287,198,19770,1,4
364,158,20390,5,0
377,153,20494,1,0
389,158,20597,1,8
408,177,20804,1,8
398,203,21011,1,0
381,225,21218,1,0
360,242,21425,5,0
392,264,21735,1,0
400,256,21839,1,8
291,235,22046,1,0
310,215,22252,1,8
334,201,22459,1,0
346,195,22563,1,8
372,185,22770,1,0
385,181,22873,1,8
360,176,23080,1,0
328,176,23287,1,0
352,168,23494,1,8
368,192,23701,1,0
384,176,23908,1,0
408,168,24114,1,0
424,168,24218,1,8
408,144,24425,1,8
416,160,24528,1,0
416,192,24735,1,0
360,208,24942,1,0
360,232,25149,1,8
384,248,25356,1,0
384,264,25459,1,0
400,256,25563,1,8
392,232,25770,1,0
384,224,25873,1,8
376,200,26080,1,8
376,184,26183,1,0
368,160,26390,1,4
384,120,26701,1,8
400,128,26804,1,0
400,152,27011,1,8
424,168,27218,1,4
416,192,27425,1,0
400,216,27632,1,8
376,232,27839,1,8
368,240,27942,1,8
376,248,28046,5,0
352,240,28252,1,0
328,232,28459,1,8
320,208,28666,1,0
328,184,28873,1,8
352,168,29080,1,0
368,168,29183,1,8
392,160,29390,1,8
400,168,29494,1,0
376,168,29701,1,0
352,176,29908,1,0
368,200,30114,1,8
392,216,30321,1,0
400,224,30425,1,0
416,224,30528,1,0
408,200,30735,1,0
416,184,30839,1,8
424,160,31046,1,8
440,168,31149,1,0
376,168,31356,1,0
352,176,31563,1,0
368,200,31770,1,8
392,216,31977,1,0
400,224,32080,1,0
416,224,32183,1,8
408,200,32390,1,0
416,184,32494,1,8
424,160,32701,1,8
440,168,32804,1,0
416,176,33011,1,0
392,184,33218,1,0
376,192,33321,1,0
368,208,33425,1,8
344,208,33632,1,0
328,208,33735,1,0
312,208,33839,1,0
312,192,33942,1,8
424,160,34149,1,8
352,152,34356,1,8
368,152,34459,1,0
384,128,34666,5,8
384,152,34873,1,8
400,176,35080,1,0
416,200,35287,1,0
416,216,35390,1,8
400,240,35597,1,8
408,256,35701,1,0
384,264,35908,1,0
360,248,36115,1,8
336,232,36321,1,4
296,216,36632,1,4
256,208,36942,1,4
280,200,37149,1,12
168,176,37977,5,0
296,328,39425,1,0
304,304,39632,1,0
136,160,41287,1,0
216,160,41908,1,0
224,208,42115,1,0
320,272,42942,1,0
360,280,43252,1,0
400,280,43563,1,0
400,280,43770,1,0
416,224,44183,1,8
336,216,44597,5,0
304,296,45218,1,0
296,320,45425,1,0
352,224,46252,1,0
344,264,46563,1,0
304,280,46873,1,0
280,280,47080,1,0
200,200,47908,1,0
280,224,48528,1,0
296,232,48632,1,0
312,240,48735,1,0
384,288,49356,1,0
392,304,49459,1,0
392,304,49563,1,0
352,312,49873,1,0
312,296,50183,1,0
288,280,50390,1,0
304,224,50804,1,12
257,192,51218,5,0
284,189,51425,1,0
311,183,51632,1,8
338,181,51839,1,0
363,169,52046,1,8
389,177,52252,1,0
402,173,52356,1,8
423,190,52563,1,8
434,197,52666,1,0
406,191,52873,1,0
378,192,53080,1,0
390,167,53287,1,8
434,197,53494,1,0
449,173,53701,1,8
402,173,53908,1,0
449,173,54011,1,8
432,150,54218,1,8
436,163,54321,1,0
427,189,54528,1,0
410,211,54735,1,0
397,205,54839,1,8
369,197,55046,1,0
357,188,55149,1,8
348,161,55356,1,0
350,133,55563,1,0
363,134,55666,1,8
390,136,55873,1,8
402,141,55977,1,0
377,155,56183,1,0
366,181,56390,1,0
360,193,56494,1,0
373,197,56597,1,8
398,208,56804,1,0
420,191,57011,1,8
391,191,57218,1,0
392,218,57425,1,8
375,164,57839,5,0
402,160,58046,1,0
428,167,58252,1,8
446,188,58459,1,0
428,167,58666,1,8
402,160,58873,1,0
408,147,58977,1,8
426,168,59183,1,0
423,181,59287,1,8
400,196,59494,1,0
375,209,59701,1,0
349,196,59908,1,8
326,179,60115,1,0
298,176,60321,1,0
273,162,60528,1,0
284,154,60632,1,8
311,149,60839,1,8
324,152,60942,1,0
342,173,61149,1,0
359,194,61356,1,0
372,189,61459,1,8
399,181,61666,1,8
409,190,61770,1,0
436,183,61977,1,0
439,155,62183,1,8
438,140,62287,1,0
411,148,62494,1,8
408,161,62597,1,0
387,180,62804,1,0
362,193,63011,1,0
338,177,63218,1,8
322,153,63425,1,0
347,140,63632,1,8
374,146,63839,1,0
385,153,63942,1,8
401,175,64149,1,8
398,188,64252,1,0
374,203,64459,5,8
349,217,64666,1,8
349,236,64873,1,0
376,240,65080,1,8
357,218,65287,1,8
346,208,65390,1,8
333,201,65494,1,8
320,194,65597,1,8
401,175,65701,1,0
401,175,65804,1,0
401,175,65908,1,0
373,169,66115,5,0
345,167,66321,1,0
372,168,66528,1,8
341,214,66942,1,0
326,237,67149,1,0
318,248,67252,1,0
329,239,67356,1,8
373,169,67563,1,0
400,166,67770,1,8
427,167,67977,1,0
424,194,68183,1,8
400,166,68597,1,0
387,191,68804,1,0
387,204,68908,1,8
385,218,69011,1,8
386,245,69218,1,0
358,238,69425,1,0
316,232,69632,1,0
306,222,69839,1,8
250,219,70252,1,0
273,234,70459,1,0
283,242,70563,1,0
295,236,70666,1,8
298,208,70873,1,0
324,198,71080,1,8
348,211,71287,1,0
358,220,71390,1,0
369,211,71494,1,8
379,236,71701,1,0
384,248,71804,1,0
384,234,71908,1,8
384,219,72011,1,8
396,212,72115,1,0
413,189,72321,1,8
397,165,72528,1,0
423,165,72735,5,4
396,174,72942,1,0
382,178,73046,1,8
356,189,73252,1,8
365,199,73356,1,0
347,220,73563,1,0
327,240,73770,1,0
397,165,73977,1,12
376,217,74390,1,4
386,243,74597,1,0
398,236,74701,1,8
422,223,74908,1,8
417,236,75011,1,0
395,254,75218,1,0
383,262,75321,1,0
371,269,75425,1,0
336,53,75632,1,12
344,108,76046,1,4
328,131,76252,1,0
336,142,76356,1,8
356,160,76563,1,8
363,171,76666,1,0
332,219,76873,1,4
340,245,77080,1,0
351,252,77183,1,8
375,239,77390,1,0
382,227,77494,1,8
365,112,77701,1,4
367,139,77908,1,0
366,153,78011,1,0
375,163,78115,1,8
395,182,78321,1,0
398,209,78528,1,8
421,193,78735,1,0
407,194,78839,1,0
401,212,78942,1,8
385,235,79149,1,8
350,201,79356,5,12
318,228,79666,1,12
278,242,79977,1,12
270,214,80183,1,8
268,200,80287,1,8
281,196,80390,1,0
294,191,80494,1,0
307,189,80597,1,8
320,187,80701,1,8
334,186,80804,1,8
184,272,81011,5,0
208,264,81218,1,0
195,256,81321,1,0
240,248,81425,1,8
264,240,81632,1,0
280,232,81735,1,8
264,208,81942,1,0
352,176,82046,1,8
376,184,82252,1,0
368,208,82459,1,8
376,184,82666,1,8
336,184,82873,1,0
334,197,82977,1,0
352,176,83080,1,8
376,176,83287,1,0
392,176,83390,1,8
416,192,83597,1,8
416,208,83701,1,0
440,224,83908,1,8
424,248,84115,1,0
400,240,84321,1,0
376,232,84528,1,0
368,208,84735,1,8
360,184,84942,1,0
376,176,85046,1,0
392,168,85149,1,8
408,168,85252,1,0
424,160,85356,1,8
400,160,85563,1,0
400,184,85770,1,8
384,208,85977,1,0
360,224,86183,1,0
352,232,86287,1,0
360,248,86390,1,8
336,232,86597,1,0
328,224,86701,1,8
304,208,86908,1,8
312,200,87011,1,0
400,184,87218,1,12
408,128,87632,5,0
424,152,87839,1,0
432,176,88046,1,8
416,192,88252,1,0
408,208,88356,1,8
384,224,88563,1,8
368,216,88666,1,0
352,216,88770,1,0
336,208,88873,1,8
320,184,89080,1,0
312,160,89287,1,8
336,152,89494,1,0
360,160,89701,1,8
400,168,89908,1,0
416,168,90011,1,8
416,192,90218,1,8
424,200,90321,1,8
424,216,90425,1,0
432,208,90528,1,8
400,168,90735,1,0
376,168,90942,1,8
352,176,91149,1,0
336,184,91252,1,0
336,200,91356,1,8
352,184,91563,1,0
360,168,91666,1,0
376,168,91770,1,8
392,168,91873,1,0
408,168,91977,1,8
424,192,92183,1,8
376,224,92597,1,0
360,232,92701,1,0
376,168,92804,1,8
400,160,93011,1,0
416,160,93115,1,0
432,168,93218,1,8
432,192,93425,1,0
432,208,93528,1,0
440,192,93632,1,8
448,176,93735,1,8
440,168,93839,1,0
432,160,93942,1,0
424,152,94046,1,8
184,272,94252,5,0
208,264,94459,1,0
224,256,94563,1,0
240,248,94666,1,8
264,240,94873,1,0
280,232,94977,1,8
264,208,95183,1,0
352,176,95287,1,8
376,184,95494,1,0
368,208,95701,1,8
376,184,95908,1,8
352,184,96115,1,0
336,184,96218,1,0
352,176,96321,1,8
376,176,96528,1,0
392,176,96632,1,8
416,192,96839,1,8
416,208,96942,1,0
440,224,97149,1,8
424,248,97356,1,0
400,240,97563,1,0
384,240,97666,1,0
376,232,97770,1,0
368,208,97977,1,8
360,184,98183,1,0
376,176,98287,1,0
392,168,98390,1,8
408,168,98494,1,0
424,160,98597,1,8
400,160,98804,1,0
400,184,99011,1,8
384,208,99218,1,0
360,224,99425,1,0
352,232,99528,1,0
360,248,99632,1,8
336,232,99839,1,0
328,224,99942,1,8
304,208,100149,1,8
312,200,100252,1,0
400,184,100459,1,12
408,128,100873,5,0
424,152,101080,1,0
432,176,101287,1,8
416,192,101494,1,0
408,208,101597,1,8
384,224,101804,1,8
368,216,101908,1,0
352,216,102011,1,0
336,208,102115,1,8
320,184,102321,1,0
312,160,102528,1,8
322,156,102735,1,0
360,160,102942,1,8
400,168,103149,1,0
416,168,103252,1,8
416,192,103459,1,8
424,200,103563,1,8
424,216,103666,1,0
432,208,103770,1,8
400,168,103977,1,0
376,168,104183,1,8
352,176,104390,1,0
336,184,104494,1,0
336,200,104597,1,8
352,184,104804,1,0
360,168,104908,1,0
376,168,105011,1,8
392,168,105115,1,0
408,168,105218,1,8
424,192,105425,1,8
396,185,105632,1,0
280,232,105839,1,0
264,240,105942,1,0
248,248,106046,1,8
224,232,106252,1,0
208,224,106356,1,0
192,224,106459,1,8
200,200,106666,1,8
208,192,106770,1,8
216,184,106873,1,0
224,176,106977,1,0
232,168,107080,1,0
240,160,107183,1,0
256,152,107287,1,8
280,144,107494,5,4
416,176,108115,1,0
408,192,108218,1,0
408,208,108321,1,8
400,232,108528,1,0
416,176,108735,1,8
400,160,108942,1,0
376,160,109149,1,4
256,192,109459,12,0,112046
224,232,112459,5,0
224,208,112666,1,0
248,200,112873,1,8
272,192,113080,1,0
296,184,113287,1,8
320,184,113494,1,0
336,184,113597,1,8
360,184,113804,1,8
376,184,113908,1,0
360,176,114115,1,0
328,176,114321,1,0
352,168,114528,1,8
368,192,114735,1,0
384,176,114942,1,0
408,168,115149,1,0
424,168,115252,1,8
408,144,115459,1,8
416,160,115563,1,0
416,192,115770,1,0
360,208,115977,1,0
360,232,116183,1,8
384,248,116390,1,0
384,264,116494,1,0
400,256,116597,1,8
392,232,116804,1,0
384,224,116908,1,8
376,200,117115,1,8
376,184,117218,1,0
368,160,117425,1,4
384,120,117735,1,8
400,128,117839,1,0
400,152,118046,1,8
424,168,118252,1,4
416,192,118459,1,0
400,216,118666,1,8
376,232,118873,1,8
368,240,118977,1,8
376,248,119080,5,0
352,240,119287,1,0
328,232,119494,1,8
320,208,119701,1,0
328,184,119908,1,8
352,168,120115,1,0
368,168,120218,1,8
392,160,120425,1,8
400,168,120528,1,0
376,168,120735,1,0
352,176,120942,1,0
368,200,121149,1,8
392,216,121356,1,0
400,224,121459,1,0
416,224,121563,1,0
408,200,121770,1,0
416,184,121873,1,8
424,160,122080,1,8
440,168,122183,1,0
376,168,122390,1,0
352,176,122597,1,0
368,200,122804,1,8
392,216,123011,1,0
400,224,123115,1,0
416,224,123218,1,8
408,200,123425,1,0
416,184,123528,1,8
424,160,123735,1,8
440,168,123839,1,0
416,176,124046,1,0
392,184,124252,1,0
376,192,124356,1,0
368,208,124459,1,8
344,208,124666,1,0
328,208,124770,1,0
312,208,124873,1,0
312,192,124977,1,8
424,160,125183,1,8
352,152,125390,1,8
368,152,125494,1,0
384,128,125701,5,8
384,152,125908,1,8
400,176,126115,1,0
416,200,126321,1,0
416,216,126425,1,8
400,240,126632,1,8
408,256,126735,1,0
384,264,126942,1,0
360,248,127149,1,8
336,232,127356,1,4
296,216,127666,1,4
256,208,127977,1,4
280,200,128183,1,12
392,176,129011,5,12
392,232,129321,1,12
408,192,129632,1,4
408,160,129839,1,12
424,184,130046,1,4
432,208,130252,1,4
392,232,130459,1,12
368,232,130666,1,4
328,240,130977,1,4
288,240,131287,1,4
