osu file format v10

[General]
AudioFilename: Duca-Niflheimr.mp3
AudioLeadIn: 2000
PreviewTime: 61786
Countdown: 0
SampleSet: Soft
StackLeniency: 0.7
Mode: 0
LetterboxInBreaks: 0

[Editor]
DistanceSpacing: 1.1
BeatDivisor: 4
GridSize: 8

[Metadata]
Title:Niflheimr (Short Ver.)
TitleUnicode:Niflheimr (Short Ver.)
Artist:Duca
ArtistUnicode:Duca
Creator:Jupiter
Version:Hinacle
Source:Kouyoku no Soreil -vii's World-
Tags:MANYO SkyFish opening Melophobia Hinacle
BeatmapID:187313
BeatmapSetID:51714

[Difficulty]
HPDrainRate:6
CircleSize:4
OverallDifficulty:5
ApproachRate:7
SliderMultiplier:1.6
SliderTickRate:2

[Events]
//Background and Video events
0,0,"bg.png"
Video,0,"movie.avi"
//Break Periods
2,16927,24884
2,89349,91268
//Storyboard Layer 0 (Background)
//Storyboard Layer 1 (Fail)
//Storyboard Layer 2 (Pass)
//Storyboard Layer 3 (Foreground)
//Storyboard Sound Samples
//Background Colour Transformations
3,100,163,162,255

[TimingPoints]
124,377.358490566038,4,2,1,60,1,0
1256,-133.333333333333,4,2,1,60,0,0
13708,-133.333333333333,4,2,2,60,0,0
13897,-133.333333333333,4,2,1,60,0,0
34840,-100,4,2,1,60,0,0
49935,-133.333333333333,4,2,1,60,0,0
60501,-100,4,2,1,60,0,0
62010,-100,4,2,1,60,0,1
71036,377.358490566038,4,2,1,60,1,1
73960,-100,4,2,1,60,0,0
74054,-100,4,2,1,60,0,1
88394,-100,4,2,1,60,0,0

[Colours]
Combo1 : 0,128,255
Combo2 : 128,255,255
Combo3 : 170,170,255
Combo4 : 255,128,0

[HitObjects]
160,96,1256,1,0,0:0:0
152,280,1633,2,0,B|208:256|272:240,1,119.999996423721,4|2,0:0|0:0,0:0:0
344,224,2199,1,0,0:0:0
472,112,2576,1,2,0:0:0
312,64,2954,1,0,0:0:0
424,188,3331,2,0,B|456:236|440:308,2,119.999996423721,2|0|2,0:0|0:0|0:0,0:0:0
312,64,4463,5,0,0:0:0
232,96,4652,1,2,0:0:0
148,84,4840,1,0,0:0:0
84,28,5029,1,0,0:0:0
40,104,5218,6,0,B|24:160|8:232,1,119.999996423721,2|0,0:0|0:0,0:0:0
80,272,5784,1,0,0:0:0
152,224,5973,6,0,B|128:200|96:184,1,59.9999982118607,2|0,0:0|0:0,0:0:0
8,320,6350,2,0,B|32:344|64:360,1,59.9999982118607,0|0,0:0|0:0,0:0:0
144,344,6727,2,0,B|192:304|264:312,1,119.999996423721,2|0,0:0|0:0,0:0:0
312,248,7293,1,0,0:0:0
368,184,7482,1,0,0:0:0
512,232,7671,6,0,B|464:272|392:264,1,119.999996423721,4|0,0:0|0:0,0:0:0
440,344,8237,2,0,B|378:354|320:311,1,119.999996423721,2|0,0:0|0:0,0:0:0
224,152,8991,1,0,0:0:0
248,232,9180,1,0,0:0:0
208,304,9369,6,0,B|144:296,1,59.9999982118607,2|0,0:0|0:0,0:0:0
48,216,9746,2,0,B|107:223,1,59.9999982118607,2|0,0:0|0:0,0:0:0
160,376,10124,2,0,B|40:360,1,119.999996423721,2|0,0:0|0:0,0:0:0
4,284,10690,5,0,0:0:0
48,216,10878,2,0,B|80:192|120:184,1,59.9999982118607,0|2,0:0|0:0,0:0:0
120,272,11256,2,0,B|176:248|240:240,1,119.999996423721,0|2,0:0|0:0,0:0:0
312,272,11822,1,0,0:0:0
264,340,12010,2,0,B|298:369|350:360|371:326,1,119.999996423721,2|0,0:0|0:0,0:0:0
416,200,12576,1,0,0:0:0
440,280,12765,5,2,0:0:0
200,240,13142,1,0,0:0:0
240,168,13331,1,2,0:0:0
344,112,13520,2,0,B|336:152|328:192|320:232,1,119.999996423721,0|2,0:0|0:0,0:0:0
304,312,14086,1,0,0:0:0
256,192,14180,12,0,16727,0:0:0
144,56,25784,6,0,B|172:44|208:40,1,59.9999982118607
256,104,26161,1,2,0:0:0
200,168,26350,2,0,B|140:184|80:144,2,119.999996423721,0|2|2,0:0|0:0|0:0,0:0:0
280,184,27293,2,0,B|336:216|368:272,1,119.999996423721,0|2,0:0|0:0,0:0:0
424,208,27859,2,0,B|395:157|339:125,1,119.999996423721,0|0,0:0|0:0,0:0:0
376,48,28425,1,2,0:0:0
456,72,28614,5,0,0:0:0
456,72,28708,1,0,0:0:0
456,72,28803,2,0,B|464:112|472:144,1,59.9999982118607
504,208,29180,1,2,0:0:0
448,272,29369,6,0,B|384:272|348:216,1,119.999996423721
428,188,29935,1,2,0:0:0
320,304,30124,2,0,B|264:272|264:200,1,119.999996423721
348,216,30690,1,2,0:0:0
196,272,30878,2,0,B|168:216|192:152,1,119.999996423721,0|0,0:0|0:0,0:0:0
264,204,31444,1,2,0:0:0
320,304,31633,1,0,0:0:0
216,352,31822,5,0,0:0:0
136,328,32010,2,0,B|120:304|112:272,1,59.9999982118607,0|2,0:0|0:0,0:0:0
144,199,32388,2,0,B|103:247|35:235,1,119.999996423721
72,160,32954,1,2,0:0:0
0,120,33142,2,0,B|40:71|108:83,1,119.999996423721
192,104,33708,1,2,0:0:0
248,168,33897,2,0,B|312:184|360:144,1,119.999996423721
440,112,34463,2,0,B|472:136|496:160,1,59.9999982118607,2|0,0:0|0:0,0:0:0
424,208,34840,5,8,0:0:0
232,224,35218,1,8,0:0:0
208,32,35595,1,8,0:0:0
400,16,35973,1,8,0:0:0
328,192,36350,5,2,0:0:0
256,136,36539,1,0,0:0:0
168,128,36727,1,8,0:0:0
88,168,36916,1,2,0:0:0
160,216,37105,5,0,0:0:0
98,85,37293,1,2,0:0:0
8,200,37482,1,8,0:0:0
88,168,37671,5,8,0:0:0
88,168,37765,1,0,0:0:0
88,168,37859,2,0,B|120:144|168:128,1,80,4|0,0:0|0:0,0:0:0
240,136,38237,1,8,0:0:0
216,216,38425,2,0,B|256:264|320:256|352:200,1,160,2|2,0:0|0:0,0:0:0
392,72,38991,1,8,0:0:0
416,152,39180,1,0,0:0:0
424,232,39369,6,0,B|392:312|304:328,1,160,2|8,0:0|0:0,0:0:0
224,320,39935,2,0,B|148:279|70:323,1,160,2|0,0:0|0:0,0:0:0
48,248,40501,2,0,B|96:224|136:224,1,80,8|0,0:0|0:0,0:0:0
208,224,40878,5,2,0:0:0
248,152,41067,1,0,0:0:0
224,72,41256,1,8,0:0:0
144,48,41444,2,0,B|88:80|56:120|16:144,1,160,2|0,0:0|0:0,0:0:0
0,224,42010,1,8,0:0:0
48,288,42199,2,0,B|92:288|128:260,1,80,0|2,0:0|0:0,0:0:0
168,152,42576,2,0,B|124:152|88:180,2,80,0|8|0,0:0|0:0|0:0,0:0:0
296,212,43142,2,0,B|264:260|200:268|152:228,1,160,2|8,0:0|0:0,0:0:0
232,104,43708,1,0,0:0:0
312,128,43897,6,0,B|352:144|384:184,1,80,2|0,0:0|0:0,0:0:0
392,256,44274,1,0,0:0:0
340,320,44463,2,0,B|252:344|188:264,2,160,2|8|8,0:0|0:0|0:0,0:0:0
396,175,45407,6,0,B|360:168|312:208|312:244,2,120,2|2|2,0:0|0:0|0:0,0:0:0
464,220,46161,1,0,0:0:0
392,256,46350,1,0,0:0:0
324,112,46539,1,2,0:0:0
480,124,46727,1,0,0:0:0
296,304,47105,2,0,B|256:288|216:280,1,80,2|0,0:0|0:0,0:0:0
256,192,47482,12,2,49557,0:0:0
40,160,49935,6,0,B|120:56|264:104,1,239.999992847443,4|2,0:0|0:0,0:0:0
176,248,51067,1,0,0:0:0
328,328,51444,2,0,B|360:320|384:296,2,59.9999982118607,0|0|0,0:0|0:0|0:0,0:0:0
320,240,52010,2,0,B|336:216|376:200|424:216|440:240,1,119.999996423721,2|0,0:0|0:0,0:0:0
460,152,52576,2,0,B|492:168|508:200,1,59.9999982118607,2|0,0:0|0:0,0:0:0
500,276,52954,5,0,0:0:0
368,160,53331,1,2,0:0:0
296,352,53708,1,0,0:0:0
192,96,54086,2,0,B|112:64|0:128|16:224,1,239.999992847443,2|2,0:0|0:0,0:0:0
32,288,55029,1,0,0:0:0
112,272,55218,2,0,B|168:256,1,59.9999982118607,2|0,0:0|0:0,0:0:0
152,172,55595,2,0,B|96:188,1,59.9999982118607,0|2,0:0|0:0,0:0:0
88,296,55973,6,0,B|209:263,1,119.999996423721,4|2,0:0|0:0,0:0:0
364,312,56727,1,0,0:0:0
456,172,57105,2,0,B|520:103|408:-5|333:56,1,239.999992847443,2|2,0:0|0:0,0:0:0
256,32,58048,1,0,0:0:0
240,212,58425,2,0,B|300:200|340:140,1,119.999996423721,2|0,0:0|0:0,0:0:0
220,116,58991,6,0,B|160:128|120:188,1,119.999996423721,2|0,0:0|0:0,0:0:0
44,156,59557,1,0,0:0:0
52,72,59746,2,0,B|108:60|176:48,1,119.999996423721,2|0,0:0|0:0,0:0:0
252,36,60312,5,2,0:0:0
388,88,60501,1,0,0:0:0
256,128,60690,2,0,B|212:124|180:96,1,80,2|2,0:0|0:0,0:0:0
336,20,61067,5,2,0:0:0
468,116,61256,1,0,0:0:0
328,196,61444,2,0,B|248:224|168:176,1,160,4|2,0:0|0:0,0:0:0
136,160,61916,5,0,0:0:0
136,160,62010,2,0,B|92:152|56:176,1,80,4|0,0:0|0:0,0:0:0
16,256,62388,1,8,0:0:0
72,328,62576,2,0,B|112:368|192:352|208:296,1,160,2|2,0:0|0:0,0:0:0
232,216,63142,1,8,0:0:0
148,188,63331,2,0,B|124:224|132:268,1,80,2|0,0:0|0:0,0:0:0
280,352,63708,2,0,B|304:316|296:272,1,80,2|8,0:0|0:0,0:0:0
288,188,64086,2,0,B|264:152|272:108,1,80,2|0,0:0|0:0,0:0:0
420,24,64463,2,0,B|444:60|436:104,1,80,2|8,0:0|0:0,0:0:0
424,184,64840,5,2,0:0:0
352,296,65029,1,0,0:0:0
472,248,65218,1,2,0:0:0
352,216,65407,1,8,0:0:0
432,320,65595,6,0,B|416:376|336:392|296:352,1,160,2|2,0:0|0:0,0:0:0
184,248,66161,1,8,0:0:0
272,264,66350,5,2,0:0:0
216,332,66539,1,0,0:0:0
128,344,66727,2,0,B|48:336,1,80,2|8,0:0|0:0,0:0:0
20,252,67105,2,0,B|20:196|108:172|140:220,1,160,2|2,0:0|0:0,0:0:0
224,184,67671,1,8,0:0:0
312,208,67859,1,2,0:0:0
352,288,68048,6,0,B|384:336|472:312|472:256,1,160,4|8,0:0|0:0,0:0:0
472,168,68614,2,0,B|440:144|392:128,1,80,2|0,0:0|0:0,0:0:0
312,112,68991,1,0,0:0:0
232,152,69180,1,8,0:0:0
224,240,69369,6,0,B|308:276|376:224,1,160,2|2,0:0|0:0,0:0:0
464,272,69935,1,8,0:0:0
416,360,70123,2,0,B|348:308|264:344,1,160,2|2,0:0|0:0,0:0:0
176,320,70690,1,8,0:0:0
88,344,70878,5,2,0:0:0
8,296,71036,2,0,B|32:264|80:248,1,80,4|0,0:0|0:0,0:0:0
92,156,71413,2,0,B|131:164|165:200,1,80,8|0,0:0|0:0,0:0:0
240,252,71790,2,0,B|324:292|388:228,1,160,2|8,0:0|0:0,0:0:0
360,48,72356,2,0,B|283:100|306:188,1,160,2|2,0:0|0:0,0:0:0
480,256,72922,2,0,B|472:163|385:139,1,160,8|2,0:0|0:0,0:0:0
306,186,73488,5,0,0:0:0
386,229,73677,1,8,0:0:0
386,140,73866,1,0,0:0:0
312,272,74054,6,0,B|248:328|160:288,1,160,4|8,0:0|0:0,0:0:0
184,380,74620,2,0,B|99:374|65:283,1,160,2|0,0:0|0:0,0:0:0
24,208,75186,1,8,0:0:0
64,128,75375,6,0,B|96:40|181:34,1,160,2|0,0:0|0:0,0:0:0
228,192,75941,1,8,0:0:0
160,125,76130,2,0,B|245:86|309:142,1,160,2|2,0:0|0:0,0:0:0
388,208,76696,1,8,0:0:0
288,236,76885,5,2,0:0:0
408,112,77073,1,0,0:0:0
368,300,77262,1,2,0:0:0
488,180,77451,1,8,0:0:0
464,276,77639,2,0,B|424:248|384:200|320:152,1,160,2|2,0:0|0:0,0:0:0
280,112,78205,1,8,0:0:0
200,144,78394,6,0,B|120:184|44:120,1,160,2|2,0:0|0:0,0:0:0
56,28,78960,1,8,0:0:0
132,76,79149,2,0,B|108:244,1,160,2|2,0:0|0:0,0:0:0
272,272,79715,2,0,B|248:240|208:224,1,80,8|2,0:0|0:0,0:0:0
96,352,80092,6,0,B|135:347|169:320,1,80,4|0,0:0|0:0,0:0:0
109,234,80469,1,8,0:0:0
96,352,80658,2,0,B|176:368|256:352,1,160,2|0,0:0|0:0,0:0:0
340,332,81224,1,8,0:0:0
428,344,81413,2,0,B|480:336|488:240|440:216,1,160,2|2,0:0|0:0,0:0:0
364,168,81979,1,8,0:0:0
316,240,82168,2,0,B|396:276,1,80,2|0,0:0|0:0,0:0:0
436,120,82545,2,0,B|424:68|320:60|296:116,1,160,2|0,0:0|0:0,0:0:0
224,56,83111,5,2,0:0:0
152,112,83300,2,0,B|128:152|112:192,1,80,0|8,0:0|0:0,0:0:0
176,280,83677,2,0,B|200:240|216:200,1,80,2|0,0:0|0:0,0:0:0
40,232,84054,2,0,B|16:272|0:312,1,80,2|8,0:0|0:0,0:0:0
232,352,84432,2,0,B|272:288|304:200,1,160,2|0,0:0|0:0,0:0:0
360,136,84998,1,8,0:0:0
440,184,85186,5,2,0:0:0
192,256,85564,1,0,0:0:0
320,56,85941,2,0,B|368:24|448:56|448:112,1,160,2|2,0:0|0:0,0:0:0
360,136,86507,1,4,0:0:0
256,192,86696,12,0,89149,0:0:0
48,272,92168,6,0,B|112:216|216:248,1,160,0|2,0:0|0:0,0:0:0
344,72,92922,1,0,0:0:0
400,144,93111,2,0,B|456:216|416:304,1,160,2|0,0:0|0:0,0:0:0
328,304,93677,2,0,B|272:232|312:144,1,160,2|0,0:0|0:0,0:0:0
451,181,94243,2,0,B|477:268|408:336,1,160,2|0,0:0|0:0,0:0:0
277,267,94809,2,8,B|250:179|319:111,1,160,2|0,0:0|0:0,0:0:0
280,36,95375,1,0,0:0:0
192,56,95564,6,0,B|200:112|200:152,1,80,2|0,0:0|0:0,0:0:0
160,232,95941,1,0,0:0:0
72,276,96130,2,0,B|64:220|64:180,1,80,2|0,0:0|0:0,0:0:0
108,108,96507,1,0,0:0:0
248,208,96696,2,0,B|344:232|400:144,1,160,2|0,0:0|0:0,0:0:0
480,152,97262,2,0,B|472:200|440:232,1,80,2|0,0:0|0:0,0:0:0
312,120,97639,2,0,B|328:89|372:68,1,80,0|2,0:0|0:0,0:0:0
389,158,98017,5,2,0:0:0
389,158,98111,1,0,0:0:0
389,158,98205,2,0,B|344:232|248:208,1,160,4|2,0:0|0:0,0:0:0
164,184,98771,1,0,0:0:0
96,128,98960,1,0,0:0:0
56,48,99149,6,0,B|0:120|40:208,1,160,2|0,0:0|0:0,0:0:0
136,208,99715,2,0,B|192:136|152:48,1,160,2|0,0:0|0:0,0:0:0
8,88,100281,2,0,B|-19:174|47:243,1,160,2|0,0:0|0:0,0:0:0
184,168,100847,2,0,B|211:81|144:12,1,160,2|0,0:0|0:0,0:0:0
64,36,101413,1,0,0:0:0
112,112,101602,6,0,B|192:96|272:48,1,160,2|0,0:0|0:0,0:0:0
360,32,102168,1,2,0:0:0
456,64,102356,1,0,0:0:0
504,152,102545,1,0,0:0:0
456,248,102734,2,0,B|376:232|296:184,1,160,2|0,0:0|0:0,0:0:0
208,288,103300,2,0,B|304:280,1,80,2|0,0:0|0:0,0:0:0
192,168,103677,2,0,B|104:176,1,80,0|2,0:0|0:0,0:0:0
64,280,104054,5,0,0:0:0
64,280,104149,1,0,0:0:0
64,280,104243,1,0,0:0:0
