osu file format v14

[General]
AudioFilename: audio.mp3
AudioLeadIn: 0
PreviewTime: 62867
Countdown: 0
SampleSet: Soft
StackLeniency: 0.5
Mode: 0
LetterboxInBreaks: 0
WidescreenStoryboard: 0

[Editor]
Bookmarks: 26100
DistanceSpacing: 0.9
BeatDivisor: 4
GridSize: 32
TimelineZoom: 1

[Metadata]
Title:Natsukoi
TitleUnicode:ナツコイ
Artist:Duca
ArtistUnicode:Duca
Creator:Kanau
Version:Normal
Source:夏彩恋唄
Tags:すたじお緑茶 eroge visual novel opening natsuiro koiuta fuyuyu- Mamayu Karen
BeatmapID:1099042
BeatmapSetID:517037

[Difficulty]
HPDrainRate:4
CircleSize:3.2
OverallDifficulty:4
ApproachRate:5.2
SliderMultiplier:1.12
SliderTickRate:1

[Events]
//Background and Video events
0,0,"BG.jpg",0,0
//Break Periods
//Storyboard Layer 0 (Background)
//Storyboard Layer 1 (Fail)
//Storyboard Layer 2 (Pass)
//Storyboard Layer 3 (Foreground)
//Storyboard Sound Samples

[TimingPoints]
666,326.086956521739,4,2,1,70,1,0
21535,-100,4,2,1,60,0,0
31970,-100,4,2,1,70,0,0
62948,-100,4,2,2,70,0,0
63274,-100,4,2,1,80,0,1
73383,-100,4,2,2,80,0,1
73627,-100,4,2,2,80,0,0
73709,-100,4,2,1,80,0,1
86426,-100,4,2,2,80,0,1
86671,-100,4,2,1,80,0,0
86752,-100,4,2,1,70,0,1
86834,-100,4,2,1,70,0,0
97350,-100,4,2,1,30,0,0
102323,-100,4,2,1,10,0,0

[Colours]
Combo1 : 145,229,103
Combo2 : 255,213,128
Combo3 : 242,121,97
Combo4 : 255,140,179
Combo5 : 187,103,229
Combo6 : 140,236,255

[HitObjects]
54,271,339,5,2,0:0:0:0:
105,357,666,2,0,P|159:353|245:349,1,112,6|0,0:0|0:0,0:0:0:0:
262,371,1155,1,0,0:0:0:0:
262,371,1318,2,0,P|258:317|257:255,1,112,0|0,0:0|0:0,0:0:0:0:
347,215,1970,2,0,P|406:220|466:228,1,112,2|0,0:0|0:0,0:0:0:0:
512,141,2622,2,0,P|452:135|393:128,1,112,0|8,0:0|0:0,0:0:0:0:
336,52,3274,6,0,P|280:58|224:63,1,112,6|0,0:0|0:0,0:0:0:0:
178,43,3763,1,0,0:0:0:0:
178,43,3926,2,0,P|204:103|183:169,1,112,0|8,0:0|0:0,0:0:0:0:
166,187,4415,5,2,0:0:0:0:
74,143,4742,1,2,0:0:0:0:
1,213,5068,1,2,0:0:0:0:
43,304,5394,1,2,0:0:0:0:
142,286,5720,6,0,P|201:286|261:290,1,112,6|0,0:0|0:0,0:0:0:0:
303,294,6209,1,2,0:0:0:0:
398,324,6535,2,0,P|402:353|406:383,2,56,2|2|8,0:0|0:0|0:0,0:0:0:0:
372,226,7187,2,0,P|363:177|388:120,1,112,6|8,0:0|0:0,0:0:0:0:
420,83,7676,2,0,P|364:80|308:76,1,112,6|2,0:0|0:0,0:0:0:0:
260,59,8165,2,0,P|231:68|208:78,1,56,8|2,0:0|0:0,0:0:0:0:
107,95,8655,6,0,P|80:85|54:75,2,56,12|0|2,0:0|0:0|0:0,0:0:0:0:
135,136,9144,2,0,P|153:192|129:251,1,112,12|2,0:0|0:0,0:0:0:0:
109,283,9633,2,0,P|169:270|234:311,1,112,12|2,0:0|0:0,0:0:0:0:
250,323,10122,2,0,L|243:381,2,56,8|2|8,0:0|0:0|0:0,0:0:0:0:
347,298,10774,1,8,0:0:0:0:
335,197,11100,6,0,P|330:142|323:79,1,112,6|8,0:0|0:0,0:0:0:0:
419,55,11752,2,0,P|423:23|430:-6,2,56,2|2|8,0:0|0:0|0:0,0:0:0:0:
425,105,12242,2,0,P|429:159|437:223,1,112,2|2,0:0|0:0,0:0:0:0:
443,266,12731,1,8,0:0:0:0:
419,363,13057,2,0,P|449:360|494:356,2,56,2|2|8,0:0|0:0|0:0,0:0:0:0:
345,294,13709,6,0,P|299:275|222:290,1,112,2|8,0:0|0:0,0:0:0:0:
148,327,14361,2,0,L|153:382,2,56,2|2|8,0:0|0:0|0:0,0:0:0:0:
101,306,14850,5,2,0:0:0:0:
44,222,15176,1,2,0:0:0:0:
128,166,15502,1,2,0:0:0:0:
71,82,15828,1,2,0:0:0:0:
160,35,16155,6,0,P|216:40|276:45,1,112,6|2,0:0|0:0,0:0:0:0:
321,49,16644,1,8,0:0:0:0:
405,103,16970,2,0,P|436:98|477:95,2,56,2|2|8,0:0|0:0|0:0,0:0:0:0:
314,147,17622,2,0,P|282:142|242:139,2,56,2|0|8,0:0|0:0|0:0,0:0:0:0:
349,182,18111,2,0,P|376:240|356:313,1,112,2|2,0:0|0:0,0:0:0:0:
343,328,18600,2,0,P|311:323|271:320,1,56,8|2,0:0|0:0,0:0:0:0:
194,283,19089,6,0,P|189:245|183:205,2,56,12|0|2,0:0|0:0|0:0,0:0:0:0:
194,333,19579,2,0,P|147:313|86:323,1,112,12|2,0:0|0:0,0:0:0:0:
44,347,20068,2,0,P|63:286|49:225,1,112,12|2,0:0|0:0,0:0:0:0:
29,196,20557,1,8,0:0:0:0:
107,132,20883,1,8,0:0:0:0:
107,132,21046,1,12,0:0:0:0:
231,47,21535,6,0,P|287:50|344:53,1,112,6|2,0:0|0:0,0:0:0:0:
380,146,22187,2,0,P|323:142|267:140,1,112,2|2,0:0|0:0,0:0:0:0:
224,164,22676,2,0,P|170:146|112:162,1,112,0|0,0:0|0:0,0:0:0:0:
76,186,23165,1,2,0:0:0:0:
55,285,23492,2,0,P|29:289|-11:295,2,56,2|0|8,0:0|0:0|0:0,0:0:0:0:
136,344,24144,6,0,P|190:362|248:346,1,112,2|2,0:0|0:0,0:0:0:0:
341,368,24796,2,0,P|337:311|331:239,1,112,2|2,0:0|0:0,0:0:0:0:
329,206,25285,2,0,P|381:223|435:211,1,112,0|0,0:0|0:0,0:0:0:0:
472,177,25774,1,2,0:0:0:0:
456,77,26100,2,0,P|481:81|522:87,2,56,2|0|8,0:0|0:0|0:0,0:0:0:0:
366,30,26752,6,0,P|372:88|380:150,1,112,2|2,0:0|0:0,0:0:0:0:
302,198,27405,2,0,P|295:139|288:78,1,112,2|2,0:0|0:0,0:0:0:0:
260,45,27894,2,0,P|207:35|150:66,1,112,0|0,0:0|0:0,0:0:0:0:
122,96,28383,1,2,0:0:0:0:
68,181,28709,2,0,P|43:177|2:171,2,56,2|0|8,0:0|0:0|0:0,0:0:0:0:
161,217,29361,6,0,P|210:241|264:231,1,112,2|2,0:0|0:0,0:0:0:0:
302,198,29850,2,0,P|351:173|405:184,1,112,0|0,0:0|0:0,0:0:0:0:
448,210,30339,1,2,0:0:0:0:
455,310,30665,2,0,P|490:315|515:319,2,56,2|8|12,0:0|0:0|0:0,0:0:0:0:
359,342,31318,2,0,P|306:345|246:350,1,112,8|8,0:3|0:0,0:0:0:0:
196,350,31807,5,0,0:0:0:0:
196,350,31970,2,0,P|146:330|78:338,1,112,6|8,0:0|0:0,0:0:0:0:
55,238,32622,2,0,P|29:238|-5:232,2,56,2|2|8,0:0|0:0|0:0,0:0:0:0:
104,228,33111,2,0,P|106:171|96:112,1,112,2|2,0:0|0:0,0:0:0:0:
79,69,33600,1,8,0:0:0:0:
179,60,33926,2,0,P|184:31|191:5,2,56,2|2|8,0:0|0:0|0:0,0:0:0:0:
248,133,34579,6,0,P|304:128|364:122,1,112,2|8,0:0|0:0,0:0:0:0:
430,194,35231,2,0,P|458:195|497:198,2,56,2|2|8,0:0|0:0|0:0,0:0:0:0:
385,216,35720,2,0,P|328:220|269:227,1,112,2|2,0:0|0:0,0:0:0:0:
223,233,36209,1,8,0:0:0:0:
151,303,36535,2,0,P|155:334|160:364,2,56,2|2|8,0:0|0:0|0:0,0:0:0:0:
63,253,37187,6,0,P|69:199|76:138,1,112,2|8,0:0|0:0,0:0:0:0:
120,51,37839,2,0,P|94:48|58:42,2,56,2|2|8,0:0|0:0|0:0,0:0:0:0:
162,78,38329,2,0,P|216:57|269:66,1,112,2|2,0:0|0:0,0:0:0:0:
308,95,38818,1,8,0:0:0:0:
363,178,39144,2,0,P|389:175|425:169,2,56,2|2|8,0:0|0:0|0:0,0:0:0:0:
268,212,39796,6,0,P|211:207|143:199,1,112,6|8,0:0|0:0,0:0:0:0:
106,204,40285,1,0,0:0:0:0:
106,204,40448,2,0,P|101:171|96:134,2,56,2|2|8,0:0|0:0|0:0,0:0:0:0:
55,291,41100,2,0,P|60:320|66:356,1,56,6|8,0:0|0:0,0:0:0:0:
108,371,41426,2,0,P|162:378|216:348,1,112,8|8,0:0|0:0,0:0:0:0:
240,311,41915,1,4,0:3:0:0:
240,311,42079,1,8,0:0:0:0:
295,226,42405,5,6,0:0:0:0:
373,288,42731,2,0,P|401:284|447:279,1,56,2|0,0:0|0:0,0:0:0:0:
471,306,43057,2,0,P|476:249|483:190,1,112,8|0,0:0|0:0,0:0:0:0:
490,144,43546,1,0,0:0:0:0:
490,144,43709,2,0,P|436:157|373:127,1,112,2|2,0:0|0:0,0:0:0:0:
313,66,44361,1,8,0:0:0:0:
313,66,44524,2,0,P|259:53|196:83,1,112,0|0,0:0|0:0,0:0:0:0:
158,62,45013,6,0,P|162:118|167:175,1,112,2|2,0:0|0:0,0:0:0:0:
67,160,45665,2,0,P|71:215|75:271,1,112,8|0,0:0|0:0,0:0:0:0:
79,322,46155,1,0,0:0:0:0:
79,322,46318,2,0,P|52:315|15:309,2,56,2|0|2,0:0|0:0|0:0,0:0:0:0:
179,311,46970,2,0,P|174:343|170:380,2,56,8|0|2,0:0|0:0|0:0,0:0:0:0:
202,212,47622,5,2,0:0:0:0:
280,275,47948,2,0,P|317:271|354:270,1,56,2|0,0:0|0:0,0:0:0:0:
371,306,48274,2,0,P|375:250|378:194,1,112,8|0,0:0|0:0,0:0:0:0:
350,152,48763,1,0,0:0:0:0:
350,152,48926,2,0,L|483:146,1,112,2|2,0:0|0:0,0:0:0:0:
490,49,49579,2,0,L|378:54,1,112,8|4,0:0|0:3,0:0:0:0:
279,75,50231,6,0,P|227:59|164:74,1,112,6|8,0:0|0:0,0:0:0:0:
83,119,50883,2,0,P|78:88|70:48,2,56,2|2|8,0:0|0:0|0:0,0:0:0:0:
26,202,51535,2,0,P|36:262|41:317,1,112,6|8,0:0|0:0,0:0:0:0:
36,363,52024,2,0,P|94:354|169:348,1,112,6|2,0:0|0:0,0:0:0:0:
197,344,52513,2,0,P|192:314|188:271,1,56,8|8,0:0|0:0,0:0:0:0:
158,248,52839,6,0,P|163:190|172:124,1,112,6|8,0:0|0:0,0:0:0:0:
246,70,53492,2,0,P|243:40|240:12,2,56,2|2|8,0:0|0:0|0:0,0:0:0:0:
278,108,53981,2,0,P|330:86|403:110,1,112,2|2,0:0|0:0,0:0:0:0:
414,135,54470,1,8,0:0:0:0:
457,226,54796,2,0,P|485:218|516:212,2,56,8|2|8,0:0|0:0|0:0,0:0:0:0:
417,318,55448,5,6,0:0:0:0:
321,349,55774,1,0,0:0:0:0:
232,300,56100,1,8,0:0:0:0:
198,205,56426,2,0,P|116:190|62:232,1,112,6|0,0:0|0:0,0:0:0:0:
48,225,56915,1,8,0:0:0:0:
48,225,57079,2,0,P|58:280|63:321,2,56,8|8|4,0:0|0:3|0:3,0:0:0:0:
7,132,57731,1,4,0:3:0:0:
83,66,58057,6,0,P|139:72|206:78,1,112,6|8,0:0|0:0,0:0:0:0:
288,40,58709,2,0,P|344:46|411:52,1,112,8|8,0:0|0:0,0:0:0:0:
497,26,59361,1,12,0:0:0:0:
482,125,59687,1,8,0:0:0:0:
385,153,60013,1,8,0:0:0:0:
370,252,60339,1,4,0:3:0:0:
444,320,60665,6,0,P|400:350|327:340,1,112,6|8,0:0|0:0,0:0:0:0:
299,321,61155,1,2,0:0:0:0:
211,270,61481,1,2,0:0:0:0:
133,334,61807,2,0,B|110:284|110:284|121:224,1,112,6|2,0:0|0:0,0:0:0:0:
135,179,62296,1,2,0:0:0:0:
277,36,62948,5,4,0:0:0:0:
193,91,63274,2,0,P|133:86|75:80,1,112,6|8,0:0|0:0,0:0:0:0:
56,178,63926,2,0,P|24:181|-4:186,2,56,2|2|8,0:0|0:0|0:0,0:0:0:0:
94,210,64415,2,0,P|154:215|212:221,1,112,2|2,0:0|0:0,0:0:0:0:
254,205,64905,1,8,0:0:0:0:
254,205,65068,2,0,P|235:258|248:321,1,112,0|2,0:0|0:0,0:0:0:0:
277,349,65557,1,8,0:0:0:0:
336,267,65883,6,0,P|390:260|453:255,1,112,2|8,0:0|0:0,0:0:0:0:
456,154,66535,2,0,P|482:156|516:160,2,56,2|2|8,0:0|0:0|0:0,0:0:0:0:
419,119,67024,2,0,P|365:126|302:131,1,112,2|2,0:0|0:0,0:0:0:0:
272,167,67513,1,8,0:0:0:0:
272,167,67676,2,0,P|217:161|139:159,1,112,0|2,0:0|0:0,0:0:0:0:
110,162,68165,1,8,0:0:0:0:
16,124,68492,6,0,P|22:180|28:249,1,112,2|8,0:0|0:0,0:0:0:0:
84,317,69144,2,0,P|80:348|78:376,2,56,2|2|8,0:0|0:0|0:0,0:0:0:0:
119,281,69633,1,0,0:0:0:0:
119,281,69796,2,0,P|181:272|240:305,1,112,2|8,0:0|0:0,0:0:0:0:
254,331,70285,2,0,P|308:341|359:320,1,112,2|2,0:0|0:0,0:0:0:0:
400,290,70774,5,8,0:0:0:0:
400,290,70937,2,0,P|396:234|393:163,1,112,6|2,0:0|0:0,0:0:0:0:
392,127,71426,1,8,0:0:0:0:
456,49,71752,2,0,P|482:49|525:38,2,56,2|2|8,0:0|0:0|0:0,0:0:0:0:
413,20,72242,2,0,P|356:11|296:29,1,112,6|2,0:0|0:0,0:0:0:0:
257,44,72731,2,0,P|262:71|268:113,1,56,8|6,0:0|0:0,0:0:0:0:
190,165,73220,1,2,0:0:0:0:
190,165,73383,2,0,L|113:156,1,56,4|0,0:0|0:0,0:0:0:0:
90,133,73709,6,0,P|111:207|98:264,1,112,6|8,0:0|0:0,0:0:0:0:
55,327,74361,2,0,P|26:333|0:341,2,56,2|2|8,0:0|0:0|0:0,0:0:0:0:
105,326,74850,2,0,P|165:331|226:339,1,112,2|2,0:0|0:0,0:0:0:0:
263,356,75339,1,8,0:0:0:0:
263,356,75502,2,0,P|242:282|255:225,1,112,0|2,0:0|0:0,0:0:0:0:
269,202,75992,1,8,0:0:0:0:
324,118,76318,6,0,P|385:125|458:132,1,112,2|8,0:0|0:0,0:0:0:0:
456,228,76970,2,0,P|482:223|536:217,2,56,2|2|8,0:0|0:0|0:0,0:0:0:0:
407,239,77459,5,2,0:0:0:0:
373,333,77785,1,2,0:0:0:0:
272,327,78111,1,2,0:0:0:0:
250,228,78437,1,2,0:0:0:0:
331,169,78763,6,0,P|280:130|225:133,1,112,6|2,0:0|0:0,0:0:0:0:
186,146,79252,1,8,0:0:0:0:
94,188,79579,2,0,L|90:160|86:132,2,56,2|2|8,0:0|0:0|0:0,0:0:0:0:
28,264,80231,2,0,P|83:291|144:278,1,112,2|8,0:0|0:0,0:0:0:0:
174,310,80720,2,0,P|229:283|290:296,1,112,2|2,0:0|0:0,0:0:0:0:
318,318,81209,2,0,P|354:312|389:299,1,56,8|2,0:0|0:0,0:0:0:0:
421,218,81698,6,0,L|487:227,2,56,12|0|2,0:0|0:0|0:0,0:0:0:0:
385,182,82187,2,0,P|373:129|396:66,1,112,12|2,0:0|0:0,0:0:0:0:
411,29,82676,2,0,P|346:35|291:40,1,112,12|2,0:0|0:0,0:0:0:0:
249,47,83165,1,8,0:0:0:0:
150,70,83492,2,0,P|146:42|140:4,2,56,8|2|12,0:0|0:0|0:0,0:0:0:0:
169,168,84144,6,0,P|109:162|46:158,1,112,6|8,0:0|0:0,0:0:0:0:
18,190,84633,2,0,P|1:247|20:304,1,112,6|8,0:0|0:0,0:0:0:0:
59,319,85122,2,0,P|114:313|170:309,1,112,6|8,0:0|0:0,0:0:0:0:
266,340,85774,1,8,0:0:0:0:
358,300,86100,2,0,P|357:273|355:234,2,56,8|2|4,0:0|0:0|0:0,0:0:0:0:
448,344,86752,6,0,P|452:289|460:229,1,112,6|8,0:0|0:0,0:0:0:0:
434,134,87405,2,0,P|459:130|492:121,2,56,2|2|8,0:0|0:0|0:0,0:0:0:0:
391,161,87894,2,0,P|345:140|266:153,1,112,2|2,0:0|0:0,0:0:0:0:
241,170,88383,1,8,0:0:0:0:
166,237,88709,2,0,P|172:264|176:291,2,56,2|2|8,0:0|0:0|0:0,0:0:0:0:
72,199,89361,6,0,P|77:145|80:85,1,112,2|8,0:0|0:0,0:0:0:0:
175,56,90013,2,0,P|171:26|169:-5,2,56,2|2|8,0:0|0:0|0:0,0:0:0:0:
201,98,90502,5,2,0:0:0:0:
300,81,90829,1,2,0:0:0:0:
367,155,91155,1,2,0:0:0:0:
332,249,91481,1,2,0:0:0:0:
232,267,91807,6,0,P|180:261|105:256,1,112,6|2,0:0|0:0,0:0:0:0:
70,253,92296,1,8,0:0:0:0:
56,153,92622,2,0,P|23:156|-1:158,2,56,2|2|8,0:0|0:0|0:0,0:0:0:0:
99,62,93274,2,0,P|71:59|43:57,2,56,2|0|8,0:0|0:0|0:0,0:0:0:0:
140,32,93763,2,0,P|132:97|162:146,1,112,2|2,0:0|0:0,0:0:0:0:
195,162,94252,2,0,P|226:158|269:153,1,56,8|2,0:0|0:0,0:0:0:0:
349,132,94742,6,0,P|365:106|384:78,2,56,12|0|2,0:0|0:0|0:0,0:0:0:0:
346,182,95231,2,0,P|350:239|359:309,1,112,12|2,0:0|0:0,0:0:0:0:
378,338,95720,2,0,P|325:335|266:333,1,112,12|2,0:0|0:0,0:0:0:0:
222,357,96209,1,8,0:0:0:0:
144,293,96535,1,8,0:0:0:0:
144,293,96698,1,12,0:0:0:0:
256,192,97187,5,6,0:0:0:0:
256,192,97350,12,0,102323,0:0:0:0:
