osu file format v14

[General]
AudioFilename: audio.mp3
AudioLeadIn: 0
PreviewTime: 62867
Countdown: 0
SampleSet: Soft
StackLeniency: 0.5
Mode: 0
LetterboxInBreaks: 0
WidescreenStoryboard: 0

[Editor]
DistanceSpacing: 1
BeatDivisor: 4
GridSize: 32
TimelineZoom: 1

[Metadata]
Title:Natsukoi
TitleUnicode:ナツコイ
Artist:Duca
ArtistUnicode:Duca
Creator:Kanau
Version:Easy
Source:夏彩恋唄
Tags:すたじお緑茶 eroge visual novel opening natsuiro koiuta fuyuyu- Mamayu Karen
BeatmapID:1098657
BeatmapSetID:517037

[Difficulty]
HPDrainRate:3
CircleSize:3
OverallDifficulty:3
ApproachRate:4
SliderMultiplier:0.92
SliderTickRate:1

[Events]
//Background and Video events
0,0,"BG.jpg",0,0
//Break Periods
//Storyboard Layer 0 (Background)
//Storyboard Layer 1 (Fail)
//Storyboard Layer 2 (Pass)
//Storyboard Layer 3 (Foreground)
//Storyboard Sound Samples

[TimingPoints]
666,326.086956521739,4,2,1,70,1,0
21535,-100,4,2,1,60,0,0
31970,-100,4,2,1,70,0,0
62948,-100,4,2,2,70,0,0
63274,-100,4,2,1,80,0,1
73383,-100,4,2,2,80,0,1
73627,-100,4,2,1,80,0,0
73709,-100,4,2,1,80,0,1
86426,-100,4,2,2,80,0,1
86671,-100,4,2,1,80,0,0
86752,-100,4,2,1,70,0,1
86834,-100,4,2,1,70,0,0
97350,-100,4,2,1,30,0,0
102323,-100,4,2,1,10,0,0

[Colours]
Combo1 : 145,229,103
Combo2 : 255,213,128
Combo3 : 242,121,97
Combo4 : 255,140,179
Combo5 : 187,103,229
Combo6 : 140,236,255

[HitObjects]
148,323,339,5,2,0:0:0:0:
57,306,666,2,0,P|115:239|202:252,1,184,6|0,0:0|0:0,0:0:0:0:
276,307,1644,1,0,0:0:0:0:
350,361,1970,2,0,P|391:357|471:352,1,92,2|0,0:0|0:0,0:0:0:0:
457,262,2622,2,0,P|411:266|365:269,1,92,0|8,0:0|0:0,0:0:0:0:
291,214,3274,6,0,P|287:160|306:115,1,92,6|0,0:0|0:0,0:0:0:0:
381,82,3926,2,0,P|335:39|241:57,1,138,0|2,0:0|0:0,0:0:0:0:
185,89,4742,1,2,0:0:0:0:
102,49,5068,2,0,L|108:152,1,92,2|2,0:0|0:0,0:0:0:0:
44,208,5720,6,0,P|22:280|57:339,1,138,6|2,0:0|0:0,0:0:0:0:
137,360,6535,2,0,P|183:356|237:353,1,92,2|8,0:0|0:0,0:0:0:0:
309,309,7187,2,0,P|374:340|438:324,2,138,6|6|8,0:0|0:0|0:0,0:0:0:0:
234,192,8655,6,0,P|239:121|245:36,1,138,12|12,0:0|0:0,0:0:0:0:
371,1,9633,2,0,P|365:71|360:157,1,138,12|8,0:0|0:0,0:0:0:0:
429,199,10448,2,0,L|422:290,1,92,8|8,0:0|0:0,0:0:0:0:
338,328,11100,6,0,P|290:321|241:318,1,92,6|8,0:0|0:0,0:0:0:0:
177,257,11752,2,0,P|205:325|177:392,2,138,2|2|8,0:0|0:0|0:0,0:0:0:0:
91,221,13057,2,0,P|89:177|87:124,1,92,2|8,0:0|0:0,0:0:0:0:
33,54,13709,6,0,P|81:37|142:55,1,92,2|8,0:0|0:0,0:0:0:0:
181,112,14361,2,0,P|254:126|316:94,1,138,2|2,0:0|0:0,0:0:0:0:
369,30,15176,1,2,0:0:0:0:
400,116,15502,2,0,P|396:162|391:227,1,92,2|2,0:0|0:0,0:0:0:0:
450,278,16155,6,0,P|387:251|321:266,1,138,6|8,0:0|0:0,0:0:0:0:
255,330,16970,2,0,P|210:326|152:324,1,92,2|8,0:0|0:0,0:0:0:0:
138,235,17622,2,0,P|66:240|-9:243,2,138,2|2|8,0:0|0:0|0:0,0:0:0:0:
254,160,19089,6,0,P|290:102|273:37,1,138,12|12,0:0|0:0,0:0:0:0:
137,14,20068,2,0,P|101:72|118:137,1,138,12|8,0:0|0:0,0:0:0:0:
196,88,20883,1,8,0:0:0:0:
316,226,21535,6,0,L|423:222,1,92,6|2,0:0|0:0,0:0:0:0:
477,282,22187,2,0,P|501:218|457:145,2,138,2|0|2,0:0|0:0|0:0,0:0:0:0:
393,318,23492,2,0,L|301:321,1,92,2|8,0:0|0:0,0:0:0:0:
229,264,24144,6,0,L|137:260,1,92,2|2,0:0|0:0,0:0:0:0:
48,234,24796,2,0,L|59:379,2,138,2|0|2,0:0|0:0|0:0,0:0:0:0:
118,174,26100,2,0,L|125:82,1,92,2|8,0:0|0:0,0:0:0:0:
217,72,26752,6,0,L|209:163,1,92,2|2,0:0|0:0,0:0:0:0:
171,247,27405,2,0,P|107:266|48:234,2,138,2|0|2,0:0|0:0|0:0,0:0:0:0:
249,297,28709,2,0,P|298:295|374:295,1,92,2|8,0:0|0:0,0:0:0:0:
407,232,29361,6,0,P|385:309|413:361,2,138,2|0|2,0:0|0:0|0:0,0:0:0:0:
476,171,30665,2,0,P|473:124|470:67,1,92,2|12,0:0|0:0,0:0:0:0:
402,16,31318,1,8,0:3:0:0:
335,80,31644,1,8,0:0:0:0:
255,32,31970,6,0,P|206:36|159:39,1,92,6|8,0:0|0:0,0:0:0:0:
134,126,32622,2,0,B|79:121|37:116|37:116|-2:132,2,138,2|2|8,0:0|0:0|0:0,0:0:0:0:
200,189,33926,2,0,P|193:234|188:288,1,92,2|8,0:0|0:0,0:0:0:0:
269,324,34579,6,0,P|317:320|377:318,1,92,2|8,0:0|0:0,0:0:0:0:
428,256,35231,2,0,P|452:312|418:393,2,138,2|2|8,0:0|0:0|0:0,0:0:0:0:
341,224,36535,2,0,P|344:181|351:117,1,92,2|8,0:0|0:0,0:0:0:0:
265,93,37187,6,0,P|261:138|256:184,1,92,2|8,0:0|0:0,0:0:0:0:
194,252,37839,2,0,B|201:344|201:344|182:385,2,138,2|2|8,0:0|0:0|0:0,0:0:0:0:
149,171,39144,2,0,P|102:173|43:177,1,92,2|8,0:0|0:0,0:0:0:0:
15,94,39796,6,0,P|111:88|209:82,1,184,6|2,0:0|0:0,0:0:0:0:
277,34,40774,1,8,0:0:0:0:
351,88,41100,2,0,P|346:133|338:211,1,92,6|8,0:0|0:0,0:0:0:0:
266,233,41752,1,8,0:0:0:0:
181,195,42079,1,4,0:3:0:0:
106,248,42405,6,0,L|3:237,2,92,6|2|8,0:0|0:0|0:0,0:0:0:0:
190,284,43383,1,0,0:0:0:0:
266,233,43709,2,0,P|264:182|260:125,1,92,2|2,0:0|0:0,0:0:0:0:
176,105,44361,2,0,P|249:52|347:106,1,184,8|2,0:0|0:0,0:0:0:0:
358,169,45339,6,0,P|407:164|467:157,1,92,2|8,0:0|0:0,0:0:0:0:
512,228,45992,1,0,0:0:0:0:
492,317,46318,2,0,P|442:321|383:329,1,92,2|2,0:0|0:0,0:0:0:0:
316,363,46970,2,0,P|270:357|224:353,1,92,8|0,0:0|0:0,0:0:0:0:
184,270,47622,5,2,0:0:0:0:
92,283,47948,2,0,P|46:287|0:292,2,92,2|8|0,0:0|0:0|0:0,0:0:0:0:
126,197,48926,2,0,P|123:149|118:90,1,92,2|2,0:0|0:0,0:0:0:0:
208,81,49579,2,0,P|210:128|216:188,1,92,8|4,0:0|0:3,0:0:0:0:
228,263,50231,6,0,P|313:303|390:258,1,184,6|2,0:0|0:0,0:0:0:0:
412,175,51209,1,8,0:0:0:0:
367,94,51535,2,0,B|403:81|403:81|514:91,2,138,6|6|8,0:0|0:0|0:0,0:0:0:0:
283,133,52839,6,0,P|239:129|176:123,1,92,6|8,0:0|0:0,0:0:0:0:
118,180,53492,2,0,P|144:125|114:39,2,138,2|2|8,0:0|0:0|0:0,0:0:0:0:
33,215,54796,2,0,P|37:259|42:320,1,92,8|8,0:0|0:0,0:0:0:0:
108,368,55448,5,6,0:0:0:0:
158,291,55774,1,2,0:0:0:0:
248,277,56100,1,8,0:0:0:0:
320,334,56426,2,0,P|413:362|480:286,1,184,6|8,0:0|0:0,0:0:0:0:
389,270,57405,2,0,P|384:226|379:172,1,92,8|4,0:3|0:3,0:0:0:0:
418,94,58057,6,0,P|374:91|319:88,1,92,6|8,0:0|0:0,0:0:0:0:
241,124,58709,2,0,L|195:121|149:118,1,92,8|8,0:0|0:0,0:0:0:0:
67,161,59361,2,0,P|63:118|57:65,2,92,8|8|8,0:0|0:0|0:0,0:0:0:0:
19,239,60339,1,4,0:3:0:0:
99,282,60665,6,0,P|165:252|247:275,1,138,6|2,0:0|0:0,0:0:0:0:
297,322,61481,1,2,0:0:0:0:
383,290,61807,2,0,B|416:229|416:229|392:161,1,138,6|2,0:0|0:0,0:0:0:0:
251,47,62948,5,4,0:0:0:0:
333,86,63274,2,0,L|433:75,1,92,6|8,0:0|0:0,0:0:0:0:
492,138,63926,2,0,P|517:80|482:5,2,138,2|2|8,0:0|0:0|0:0,0:0:0:0:
422,198,65231,2,0,P|425:248|431:329,1,92,2|8,0:0|0:0,0:0:0:0:
345,331,65883,6,0,P|342:281|336:200,1,92,2|8,0:0|0:0,0:0:0:0:
268,180,66535,2,0,P|288:101|250:35,2,138,2|2|8,0:0|0:0|0:0,0:0:0:0:
188,225,67839,1,2,0:0:0:0:
100,197,68165,1,8,0:0:0:0:
31,258,68492,6,0,L|42:367,1,92,2|8,0:0|0:0,0:0:0:0:
129,377,69144,2,0,L|119:285,1,92,2|8,0:0|0:0,0:0:0:0:
188,225,69796,2,0,P|190:163|135:108,1,138,2|2,0:0|0:0,0:0:0:0:
52,83,70611,1,8,0:0:0:0:
120,22,70937,6,0,L|269:33,1,138,6|8,0:0|0:0,0:0:0:0:
331,86,71752,2,0,P|394:61|466:96,1,138,2|6,0:0|0:0,0:0:0:0:
488,172,72568,1,2,0:0:0:0:
467,261,72894,2,0,B|425:243|425:243|315:254,1,138,2|6,0:0|0:0,0:0:0:0:
271,320,73709,6,0,L|176:310,1,92,6|8,0:0|0:0,0:0:0:0:
119,239,74361,2,0,P|87:299|110:375,2,138,2|2|8,0:0|0:0|0:0,0:0:0:0:
209,224,75665,2,0,P|207:180|205:117,1,92,2|8,0:0|0:0,0:0:0:0:
258,56,76318,6,0,P|215:39|170:45,1,92,2|8,0:0|0:0,0:0:0:0:
86,82,76970,2,0,P|110:154|81:226,1,138,2|2,0:0|0:0,0:0:0:0:
6,243,77785,1,2,0:0:0:0:
76,302,78111,2,0,P|122:295|186:289,1,92,2|2,0:0|0:0,0:0:0:0:
246,338,78763,6,0,P|222:266|251:194,1,138,6|8,0:0|0:0,0:0:0:0:
309,148,79579,2,0,P|356:151|424:157,1,92,2|8,0:0|0:0,0:0:0:0:
480,200,80231,2,0,B|491:102|491:102|468:58,2,138,2|2|8,0:0|0:0|0:0,0:0:0:0:
512,336,81698,6,0,P|448:329|365:323,1,138,12|12,0:0|0:0,0:0:0:0:
278,224,82676,2,0,P|214:230|131:237,1,138,12|8,0:0|0:0,0:0:0:0:
65,182,83492,1,8,0:0:0:0:
114,104,83818,1,12,0:0:0:0:
168,30,84144,6,0,P|102:13|33:62,2,138,6|6|6,0:0|0:0|0:0,0:0:0:0:
205,114,85448,2,0,P|254:110|309:104,1,92,8|8,0:0|0:0,0:0:0:0:
370,50,86100,1,8,0:0:0:0:
444,104,86426,1,4,0:0:0:0:
411,190,86752,6,0,P|361:193|307:200,1,92,6|8,0:0|0:0,0:0:0:0:
244,249,87405,2,0,P|175:238|99:232,2,138,2|2|8,0:0|0:0|0:0,0:0:0:0:
325,292,88709,2,0,P|370:286|416:283,1,92,2|8,0:0|0:0,0:0:0:0:
491,337,89361,6,0,P|509:295|496:237,1,92,2|8,0:0|0:0,0:0:0:0:
426,199,90013,2,0,L|440:61,1,138,2|2,0:0|0:0,0:0:0:0:
358,18,90829,1,2,0:0:0:0:
348,109,91155,2,0,L|338:208,1,92,2|2,0:0|0:0,0:0:0:0:
325,292,91807,6,0,P|272:329|190:313,1,138,6|8,0:0|0:0,0:0:0:0:
119,361,92622,2,0,P|116:312|111:249,1,92,2|8,0:0|0:0,0:0:0:0:
158,189,93274,2,0,P|91:180|35:217,2,138,2|2|8,0:0|0:0|0:0,0:0:0:0:
278,255,94742,6,0,B|269:159|269:159|286:115,1,138,12|12,0:0|0:0,0:0:0:0:
376,17,95720,2,0,B|385:113|385:113|368:157,1,138,12|8,0:0|0:0,0:0:0:0:
283,120,96535,1,8,0:0:0:0:
456,179,97187,5,6,0:0:0:0:
256,192,97350,12,0,102323,0:0:0:0:
