osu file format v14

[General]
AudioFilename: Duca.mp3
AudioLeadIn: 1800
PreviewTime: 61827
Countdown: 0
SampleSet: Soft
StackLeniency: 0.7
Mode: 0
LetterboxInBreaks: 0
WidescreenStoryboard: 0

[Editor]
Bookmarks: 61811
DistanceSpacing: 1
BeatDivisor: 4
GridSize: 4
TimelineZoom: 1.4

[Metadata]
Title:Koi o Shiyou yo Let it snow
TitleUnicode:恋をしようよ Let it snow
Artist:Duca
ArtistUnicode:Duca
Creator:Oyatsu
Version:No Dap's Hard
Source:ゆきこいめると
Tags:Yuki Koi Melt opening Front Wing snow winter eroge visual novel CloudSplash16 No Dap
BeatmapID:647563
BeatmapSetID:284347

[Difficulty]
HPDrainRate:6
CircleSize:4
OverallDifficulty:6
ApproachRate:7
SliderMultiplier:1.45
SliderTickRate:1

[Events]
//Background and Video events
0,0,"BG.jpg",0,0
Video,0,"Pico Pico!!.avi"
//Break Periods
//Storyboard Layer 0 (Background)
//Storyboard Layer 1 (Fail)
//Storyboard Layer 2 (Pass)
//Storyboard Layer 3 (Foreground)
//Storyboard Sound Samples

[TimingPoints]
-1298,416.666666666667,4,2,1,30,1,0
368,-111.111111111111,4,2,1,30,0,0
12035,-100,4,2,2,50,0,0
13702,-100,4,2,2,70,0,1
13806,-100,4,2,2,60,0,0
26618,-100,4,2,2,50,0,0
27035,-100,4,2,2,60,0,0
32035,-100,4,2,2,70,0,0
33285,-100,4,2,2,50,0,0
33702,-100,4,2,2,50,0,0
46618,-100,4,2,2,40,0,0
47035,-111.111111111111,4,2,2,55,0,0
57035,-100,4,2,2,55,0,0
58702,-100,4,2,2,65,0,0
62035,-100,4,2,2,70,0,1
73702,-100,4,2,2,70,0,0
75368,-100,4,2,2,70,0,1
85368,-125,4,2,2,50,0,0
85785,-125,4,2,1,50,0,0
85889,-125,4,2,2,50,0,0
86202,-125,4,2,1,50,0,0
86306,-125,4,2,2,50,0,0
88285,-125,4,2,2,40,0,0
88702,-125,4,2,2,50,0,0
88806,-125,4,2,2,40,0,0
92035,-125,4,2,2,70,0,0

[Colours]
Combo1 : 255,106,106
Combo2 : 252,213,131
Combo3 : 121,193,247
Combo4 : 247,149,239

[HitObjects]
323,218,368,6,0,L|328:130,1,65.2499980087281,4|0,0:0|0:0,0:0:0:0:
409,220,785,2,0,P|419:255|424:288,1,65.2499980087281,0|0,0:0|0:0,0:0:0:0:
364,358,1202,1,0,0:0:0:0:
295,303,1410,2,0,P|263:296|230:290,1,65.2499980087281,0|0,0:0|0:0,0:0:0:0:
152,358,1827,2,0,P|131:306|147:228,1,130.499996017456,0|0,0:0|0:0,0:0:0:0:
229,206,2452,1,0,0:0:0:0:
280,282,2660,2,0,P|344:276|410:272,1,130.499996017456,0|0,0:0|0:0,0:0:0:0:
364,358,3285,1,0,0:0:0:0:
430,189,3702,6,0,B|458:130|431:85|431:85|379:65|329:101|329:101|319:75|280:65,2,260.999992034912,2|2|2,0:0|0:0|0:0,0:0:0:0:
340,276,5785,5,2,0:0:0:0:
298,347,6202,1,2,0:0:0:0:
214,347,6618,1,2,0:0:0:0:
172,276,7035,1,2,0:0:0:0:
144,111,7452,5,0,0:0:0:0:
192,179,7660,2,0,P|255:190|319:180,2,130.499996017456,0|0|0,0:0|0:0|0:0,0:0:0:0:
99,40,8910,1,0,0:0:0:0:
47,103,9118,1,0,0:0:0:0:
89,174,9327,2,0,P|90:281|90:304,1,130.499996017456,0|0,0:0|0:0,0:0:0:0:
31,363,9952,2,0,P|95:355|161:350,1,130.499996017456,0|2,0:0|0:0,0:0:0:0:
268,257,10785,5,0,0:0:0:0:
363,360,11202,1,2,0:0:0:0:
427,196,11618,1,0,0:0:0:0:
208,107,12035,6,0,P|170:92|135:86,1,72.5,4|0,0:0|0:0,0:0:0:0:
200,208,12452,2,0,P|160:213|125:225,1,72.5,2|0,0:0|0:0,0:0:0:0:
304,107,12868,2,0,P|341:92|377:86,1,72.5,2|8,0:0|0:0,0:0:0:0:
312,208,13285,2,0,P|351:213|386:225,1,72.5,8|2,0:0|0:0,0:0:0:0:
256,308,13702,6,0,L|256:132,2,145,6|8|2,0:0|0:0|0:0,0:0:0:0:
170,372,14743,1,0,0:0:0:0:
124,292,14952,2,0,P|117:256|112:220,1,72.5,8|0,0:0|0:0,0:0:0:0:
178,133,15368,6,0,P|118:169|43:144,1,145,2|8,1:2|0:0,0:0:0:0:
131,43,15993,2,0,P|203:40|275:34,1,145
392,76,16618,1,8,0:0:0:0:
316,113,16827,1,0,0:0:0:0:
290,191,17035,6,0,P|295:231|301:295,1,72.5,2|0,1:2|0:0,0:0:0:0:
337,346,17452,1,8,0:0:0:0:
337,346,17660,2,0,B|276:362|232:327|232:327|211:344|202:343,1,145,0|0,0:0|0:0,0:0:0:0:
76,268,18285,1,8,0:0:0:0:
113,361,18493,1,0,0:0:0:0:
172,259,18702,6,0,P|196:191|183:121,1,145,2|8,1:2|0:0,0:0:0:0:
83,127,19327,2,0,P|106:185|131:215,1,72.5,0|2,0:0|0:0,0:0:0:0:
183,121,19743,1,0,0:0:0:0:
145,42,19952,2,0,P|84:19|49:23,1,72.5,8|0,0:0|0:0,0:0:0:0:
183,121,20368,6,0,P|255:113|326:98,1,145,2|8,1:2|0:0,0:0:0:0:
420,168,20993,2,0,P|464:223|461:296,1,145,0|0,0:0|0:0,0:0:0:0:
328,259,21618,2,0,L|331:176,1,72.5,8|0,0:0|0:0,0:0:0:0:
366,345,22035,6,0,P|323:348|283:340,1,72.5,2|0,1:2|0:0,0:0:0:0:
181,319,22452,1,8,0:0:0:0:
241,230,22660,2,0,P|242:159|192:109,1,145,0|0,0:0|0:0,0:0:0:0:
91,200,23285,2,0,P|127:201|162:194,1,72.5,8|0,0:0|0:0,0:0:0:0:
39,123,23702,6,0,P|9:166|-6:195,1,72.5,2|0,1:2|0:0,0:0:0:0:
54,299,24118,1,8,0:0:0:0:
54,299,24327,2,0,P|127:285|198:276,1,145,0|0,0:0|0:0,0:0:0:0:
312,246,24952,2,0,P|303:281|292:315,1,72.5,8|0,0:0|0:0,0:0:0:0:
227,184,25368,5,2,1:2:0:0:
302,106,25577,1,8,0:0:0:0:
302,106,25785,1,8,0:0:0:0:
312,246,25993,1,0,0:0:0:0:
227,184,26202,2,0,P|169:177|137:174,1,72.5,8|0,0:0|0:0,0:0:0:0:
81,269,26618,2,0,L|64:229,3,36.25,8|8|8|8,0:0|0:0|0:0|0:0,0:0:0:0:
102,302,27035,6,0,L|191:298,1,72.5,6|2,0:0|0:0,0:0:0:0:
289,346,27452,1,8,0:0:0:0:
224,236,27660,2,0,P|208:167|248:109,1,145,6|8,0:0|0:0,0:0:0:0:
337,190,28285,1,2,0:0:0:0:
224,236,28493,6,0,P|151:231|79:229,1,145,6|2,0:0|0:0,0:0:0:0:
20,317,29118,1,6,0:0:0:0:
116,354,29327,2,0,P|188:351|260:347,1,145,2|2,0:0|0:0,0:0:0:0:
317,276,29952,1,6,0:0:0:0:
408,333,30160,1,8,0:0:0:0:
408,333,30264,1,8,0:0:0:0:
408,333,30368,6,0,L|417:243,1,72.5,2|2,0:0|0:0,0:0:0:0:
310,203,30785,2,0,L|317:276,1,72.5,8|2,0:0|0:0,0:0:0:0:
341,107,31202,1,12,0:0:0:0:
341,107,31410,1,2,0:0:0:0:
215,199,31618,1,8,0:0:0:0:
215,199,31827,1,2,0:0:0:0:
144,128,32035,6,0,P|135:92|132:56,1,72.5,6|2,0:0|0:0,0:0:0:0:
47,170,32452,2,0,P|55:205|58:241,1,72.5,8|2,0:0|0:0,0:0:0:0:
152,283,32868,2,0,P|154:246|163:211,1,72.5,8|2,0:0|0:0,0:0:0:0:
80,332,33285,2,0,P|43:329|8:320,1,72.5,8|8,0:0|0:0,0:0:0:0:
152,284,33702,6,0,P|222:292|236:372,2,145,4|8|2,0:0|0:0|0:0,0:0:0:0:
358,291,34952,1,8,0:0:0:0:
296,227,35160,2,0,P|269:158|302:92,1,145
382,60,35785,2,0,L|457:50,1,72.5,8|0,0:0|0:0,0:0:0:0:
507,142,36202,2,0,B|516:200|464:231|464:231|416:203,1,145,2|8,0:0|0:0,0:0:0:0:
219,149,37035,6,0,P|244:216|255:298,1,145,2|8,0:0|0:0,0:0:0:0:
178,356,37660,2,0,P|135:357|92:348,1,72.5,0|2,0:0|0:0,0:0:0:0:
13,340,38077,2,0,P|13:303|15:269,1,72.5,0|8,0:0|0:0,0:0:0:0:
108,263,38493,2,0,P|129:197|84:144,1,145
12,64,39118,2,0,L|0:140,1,72.5,8|0,0:0|0:0,0:0:0:0:
40,216,39535,2,0,P|111:205|183:199,1,145,2|8,0:0|0:0,0:0:0:0:
248,272,40160,1,8,0:0:0:0:
317,206,40368,5,2,0:0:0:0:
263,124,40577,1,0,0:0:0:0:
317,206,40785,2,0,P|331:239|342:273,1,72.5,8|0,0:0|0:0,0:0:0:0:
284,345,41202,1,2,0:0:0:0:
149,274,41410,1,0,0:0:0:0:
193,357,41618,1,8,0:0:0:0:
239,262,41827,2,0,P|240:226|240:190,2,72.5,0|2|0,0:0|0:0|0:0,0:0:0:0:
149,274,42452,1,8,0:0:0:0:
164,155,42660,6,0,P|210:104|284:118,1,145,0|0,0:0|0:0,0:0:0:0:
352,175,43285,1,8,0:0:0:0:
425,123,43493,1,0,0:0:0:0:
484,193,43702,6,0,P|488:241|391:292,1,145,2|8,0:0|0:0,0:0:0:0:
327,331,44327,2,0,L|317:232,1,72.5,0|2,0:0|0:0,0:0:0:0:
231,210,44743,2,0,L|223:282,1,72.5,0|8,0:0|0:0,0:0:0:0:
177,365,45160,6,0,L|95:355,1,72.5,0|2,0:0|0:0,0:0:0:0:
42,281,45577,2,0,L|113:272,1,72.5,8|8,0:0|0:0,0:0:0:0:
155,191,45993,1,0,0:0:0:0:
91,127,46202,2,0,P|84:81|86:35,1,72.5,8|0,0:0|0:0,0:0:0:0:
180,80,46618,2,0,L|220:76,3,36.25,8|8|8|8,0:0|0:0|0:0|0:0,0:0:0:0:
244,76,47035,6,0,P|290:120|304:183,1,130.499996017456,6|0,0:0|0:0,0:0:0:0:
240,243,47660,2,0,L|300:233|384:219,1,130.499996017456,6|0,0:0|0:0,0:0:0:0:
452,203,48285,1,0,0:0:0:0:
392,132,48493,6,0,P|380:64|428:36,2,130.499996017456,2|2|2,0:0|0:0|0:0,0:0:0:0:
452,203,49535,2,0,P|453:275|460:340,1,130.499996017456,8|8,0:0|0:0,0:0:0:0:
321,363,50368,6,0,P|318:296|313:232,1,130.499996017456,6|0,0:0|0:0,0:0:0:0:
231,171,50993,1,2,0:0:0:0:
226,270,51202,2,0,P|162:273|98:257,1,130.499996017456,8|0,0:0|0:0,0:0:0:0:
79,96,51827,2,0,P|135:123|148:185,1,130.499996017456,6|2,0:0|0:0,0:0:0:0:
305,255,52660,2,0,P|318:193|374:165,1,130.499996017456,2|2,0:0|0:0,0:0:0:0:
374,165,53702,6,0,L|226:155,1,130.499996017456,6|0,0:0|0:0,0:0:0:0:
208,246,54327,2,0,P|144:249|88:218,1,130.499996017456,6|0,0:0|0:0,0:0:0:0:
97,130,54952,1,0,0:0:0:0:
183,118,55160,2,0,P|189:55|140:15,2,130.499996017456,2|2|2,0:0|0:0|0:0,0:0:0:0:
97,130,56202,2,0,P|103:171|112:218,1,65.2499980087281,8|2,0:0|0:0,0:0:0:0:
56,290,56618,2,0,P|88:285|120:279,1,65.2499980087281,8|0,0:0|0:0,0:0:0:0:
239,248,57035,6,0,P|288:199|270:132,2,145,6|8|2,0:0|0:0|0:0,0:0:0:0:
161,199,58077,1,2,0:0:0:0:
108,271,58285,2,0,P|101:306|96:342,1,72.5,8|2,0:0|0:0,0:0:0:0:
161,199,58702,6,0,P|121:185|70:187,1,72.5,6|2,0:0|0:0,0:0:0:0:
189,280,59118,2,0,P|229:294|280:292,1,72.5,8|2,0:0|0:0,0:0:0:0:
293,147,59535,2,0,P|266:204|262:233,1,72.5,8|2,0:0|0:0,0:0:0:0:
335,332,59952,2,0,P|353:300|363:266,1,72.5,8|2,0:0|0:0,0:0:0:0:
376,167,60368,5,4,0:0:0:0:
376,167,60577,1,2,0:0:0:0:
272,248,60785,1,8,0:0:0:0:
272,248,60993,1,2,0:0:0:0:
170,173,61202,2,0,L|154:128,3,36.25,8|8|8|8,0:0|0:0|0:0|0:0,0:0:0:0:
170,115,61618,2,0,L|182:80,3,36.25,8|8|8|8,0:0|0:0|0:0|0:0,0:0:0:0:
210,43,62035,6,0,P|173:40|138:33,1,72.5,6|0,0:0|0:0,0:0:0:0:
52,96,62452,2,0,P|29:160|29:194,1,72.5,8|0,0:0|0:0,0:0:0:0:
83,244,62868,1,2,1:2:0:0:
83,244,63077,2,0,L|171:233,1,72.5,0|8,0:0|0:0,0:0:0:0:
180,319,63493,6,0,B|229:301|242:265|242:265|274:286|298:281,1,145,0|0,0:0|0:0,0:0:0:0:
378,295,64118,1,8,0:0:0:0:
294,202,64327,2,0,P|279:165|345:88,1,145
431,78,64952,1,8,0:0:0:0:
431,78,65160,6,0,P|423:150|419:222,1,145,0|0,0:0|0:0,0:0:0:0:
418,312,65785,1,8,0:0:0:0:
327,263,65993,2,0,B|296:239|258:244|258:244|231:263|191:263,1,145,0|0,0:0|0:0,0:0:0:0:
122,331,66618,1,8,0:0:0:0:
93,245,66827,6,0,P|95:208|96:172,1,72.5,0|2,0:0|0:0,0:0:0:0:
4,126,67243,2,0,P|1:162|0:198,1,72.5,0|8,0:0|0:0,0:0:0:0:
93,245,67660,2,0,P|136:241|183:235,1,72.5,0|2,0:0|0:0,0:0:0:0:
214,137,68077,2,0,P|170:140|124:147,1,72.5,0|8,0:0|0:0,0:0:0:0:
262,221,68493,1,0,0:0:0:0:
262,221,68702,6,0,P|298:180|296:89,1,145,2|8,1:2|0:0,0:0:0:0:
221,46,69327,2,0,P|185:42|149:41,1,72.5,0|2,0:0|0:0,0:0:0:0:
62,108,69743,2,0,P|56:72|52:36,1,72.5,0|8,0:0|0:0,0:0:0:0:
148,121,70160,6,0,P|164:174|80:201,1,145,0|0,0:0|0:0,0:0:0:0:
4,208,70785,1,8,0:0:0:0:
48,300,70993,2,0,P|99:290|197:284,1,145,0|0,0:0|0:0,0:0:0:0:
268,333,71618,1,8,0:0:0:0:
350,293,71827,1,0,0:0:0:0:
266,185,72035,6,0,P|271:220|279:256,1,72.5,2|0,1:2|0:0,0:0:0:0:
360,192,72452,2,0,P|355:157|347:121,1,72.5,8|0,0:0|0:0,0:0:0:0:
249,32,72868,2,0,P|241:67|235:103,1,72.5,2|0,0:0|0:0,0:0:0:0:
266,185,73285,1,8,0:0:0:0:
344,81,73493,1,8,0:0:0:0:
344,81,73597,1,8,0:0:0:0:
344,81,73702,6,0,L|446:72,1,72.5,6|0,0:0|0:0,0:0:0:0:
381,188,74118,2,0,L|397:280,1,72.5,8|0,0:0|0:0,0:0:0:0:
292,157,74535,2,0,L|259:244,1,72.5,2|0,0:0|0:0,0:0:0:0:
231,77,74952,1,10,1:2:0:0:
160,160,75160,1,8,0:0:0:0:
160,160,75264,1,8,0:0:0:0:
160,160,75368,6,0,P|123:161|87:166,1,72.5,6|0,0:0|0:0,0:0:0:0:
165,258,75785,2,0,P|134:277|105:299,1,72.5,8|0,0:0|0:0,0:0:0:0:
253,335,76202,2,0,P|264:285|266:250,2,72.5,2|0|8,0:0|0:0|0:0,0:0:0:0:
151,350,76827,6,0,B|96:340|96:340|57:313|72:235,1,145,0|0,0:0|0:0,0:0:0:0:
105,172,77452,1,8,0:0:0:0:
165,258,77660,2,0,P|233:275|291:236,1,145,0|0,0:0|0:0,0:0:0:0:
381,267,78285,1,8,0:0:0:0:
336,165,78493,6,0,P|320:98|377:60,1,145,0|0,0:0|0:0,0:0:0:0:
444,136,79118,1,8,0:0:0:0:
335,165,79327,2,0,P|264:155|191:152,1,145,0|0,0:0|0:0,0:0:0:0:
120,223,79952,1,8,0:0:0:0:
89,136,80160,6,0,P|87:100|83:64,1,72.5,0|2,0:0|0:0,0:0:0:0:
6,166,80577,2,0,P|7:202|11:238,1,72.5,0|8,0:0|0:0,0:0:0:0:
92,306,80993,2,0,P|152:270|220:289,1,145,0|0,0:0|0:0,0:0:0:0:
200,191,81618,2,0,P|193:155|188:119,1,72.5,8|0,0:0|0:0,0:0:0:0:
280,224,82035,6,0,P|297:155|357:103,1,145,2|8,1:2|0:0,0:0:0:0:
254,50,82660,1,0,0:0:0:0:
189,119,82868,2,0,P|121:134|74:83,1,145,2|8,0:0|0:0,0:0:0:0:
35,194,83493,1,0,0:0:0:0:
35,194,83597,1,0,0:0:0:0:
35,194,83702,6,0,P|26:244|21:286,1,72.5,2|0,0:0|0:0,0:0:0:0:
127,156,84118,2,0,L|121:120|115:84,1,72.5,8|0,0:0|0:0,0:0:0:0:
128,264,84535,1,2,0:0:0:0:
213,222,84743,2,0,P|216:186|218:149,1,72.5,0|8,0:0|0:0,0:0:0:0:
272,60,85160,1,0,0:0:0:0:
272,60,85264,1,0,0:0:0:0:
272,60,85368,6,0,P|344:112|284:176,2,174,6|6|2,0:0|0:0|0:0,0:0:0:0:
169,79,86827,1,2,0:0:0:0:
212,224,87035,6,0,P|223:180|225:146,1,58,6|8,0:0|0:0,0:0:0:0:
169,79,87452,1,8,0:0:0:0:
169,79,87660,1,2,0:0:0:0:
102,156,87868,2,0,L|43:141,1,58,8|2,0:0|0:0,0:0:0:0:
76,252,88285,2,0,L|84:298,4,29,8|8|8|8|6,0:0|0:0|0:0|0:0|0:0,0:0:0:0:
256,192,88806,12,0,92035,1:0:0:0:
