osu file format v14

[General]
AudioFilename: Duca.mp3
AudioLeadIn: 1800
PreviewTime: 61827
Countdown: 0
SampleSet: Soft
StackLeniency: 0.7
Mode: 0
LetterboxInBreaks: 0
WidescreenStoryboard: 0

[Editor]
DistanceSpacing: 1
BeatDivisor: 4
GridSize: 4
TimelineZoom: 1.4

[Metadata]
Title:Koi o Shiyou yo Let it snow
TitleUnicode:恋をしようよ Let it snow
Artist:Duca
ArtistUnicode:Duca
Creator:Oyatsu
Version:Cloud's Normal
Source:ゆきこいめると
Tags:Yuki Koi Melt opening Front Wing snow winter eroge visual novel CloudSplash16 No Dap
BeatmapID:651908
BeatmapSetID:284347

[Difficulty]
HPDrainRate:4
CircleSize:3.2
OverallDifficulty:4
ApproachRate:5
SliderMultiplier:1.1
SliderTickRate:1

[Events]
//Background and Video events
0,0,"BG.jpg",0,0
Video,0,"Pico Pico!!.avi"
//Break Periods
//Storyboard Layer 0 (Background)
//Storyboard Layer 1 (Fail)
//Storyboard Layer 2 (Pass)
//Storyboard Layer 3 (Foreground)
//Storyboard Sound Samples

[TimingPoints]
-1298,416.666666666667,4,2,1,30,1,0
12035,-100,4,2,2,50,0,0
13702,-100,4,2,2,70,0,1
13806,-100,4,2,2,60,0,0
26618,-100,4,2,2,50,0,0
27035,-100,4,2,2,60,0,0
32035,-100,4,2,2,70,0,0
33285,-100,4,2,2,50,0,0
46618,-100,4,2,2,40,0,0
47035,-100,4,2,2,55,0,0
47452,-100,4,2,1,55,0,0
47660,-100,4,2,2,55,0,0
58702,-100,4,2,2,65,0,0
62035,-100,4,2,2,70,0,1
73702,-100,4,2,2,70,0,0
75368,-100,4,2,2,70,0,1
85368,-100,4,2,2,50,0,0
85785,-100,4,2,1,50,0,0
85889,-100,4,2,2,50,0,0
86202,-100,4,2,1,50,0,0
86306,-100,4,2,2,50,0,0
88285,-100,4,2,2,40,0,0
88702,-100,4,2,2,50,0,0
88806,-100,4,2,2,5,0,0
92035,-100,4,2,2,70,0,0

[Colours]
Combo1 : 255,106,106
Combo2 : 252,213,131
Combo3 : 121,193,247
Combo4 : 247,149,239

[HitObjects]
68,72,368,6,0,L|75:126,1,55,4|0,0:0|0:0,0:0:0:0:
116,164,785,2,0,L|108:218,1,55,0|0,0:0|0:0,0:0:0:0:
84,268,1202,2,0,P|135:251|187:267,1,110,0|0,0:0|0:0,0:0:0:0:
236,292,1827,1,0,0:0:0:0:
340,323,2243,2,0,P|367:328|393:321,1,55
440,292,2660,2,0,L|456:180,1,110,0|0,0:0|0:0,0:0:0:0:
464,128,3285,1,0,0:0:0:0:
380,56,3702,5,2,0:0:0:0:
204,188,4535,1,2,0:0:0:0:
380,320,5368,5,2,0:0:0:0:
468,252,5785,1,2,0:0:0:0:
380,188,6202,1,2,0:0:0:0:
292,252,6618,1,2,0:0:0:0:
204,315,7035,6,0,P|151:328|102:306,1,110,2|0,0:0|0:0,0:0:0:0:
56,276,7660,1,0,0:0:0:0:
92,172,8077,1,0,0:0:0:0:
199,187,8493,2,0,P|252:175|284:132,1,110,0|0,0:0|0:0,0:0:0:0:
304,80,9118,2,0,L|354:102,1,55,0|0,0:0|0:0,0:0:0:0:
388,144,9535,2,0,L|379:198,1,55,0|0,0:0|0:0,0:0:0:0:
348,360,10368,5,2,0:0:0:0:
264,288,10785,1,0,0:0:0:0:
159,324,11202,1,2,0:0:0:0:
75,251,11618,1,0,0:0:0:0:
96,141,12035,5,4,0:0:0:0:
201,104,12452,1,8,0:0:0:0:
284,175,12868,2,0,P|311:183|338:184,1,55,2|8,0:0|0:0,0:0:0:0:
392,180,13285,1,8,0:0:0:0:
392,180,13702,6,0,L|426:137,2,55,4|0|8,0:0|0:0|0:0,0:0:0:0:
364,228,14327,2,0,P|357:281|389:324,1,110,0|0,0:0|0:0,0:0:0:0:
432,360,14952,1,8,0:0:0:0:
432,360,15368,6,0,L|492:348,2,55,2|0|8,1:2|0:0|0:0,0:0:0:0:
376,360,15993,2,0,L|266:348,1,110,0|0,0:0|0:0,0:0:0:0:
212,336,16618,2,0,P|190:318|178:294,1,55,8|0,0:0|0:0,0:0:0:0:
244,204,17243,6,0,P|265:221|277:245,2,55,0|8|0,0:0|0:0|0:0,0:0:0:0:
136,192,18077,2,0,P|110:201|83:200,2,55,0|8|0,0:0|0:0|0:0,0:0:0:0:
176,152,18702,6,0,L|191:43,1,110,2|8,1:2|0:0,0:0:0:0:
244,36,19327,2,0,P|293:59|347:52,1,110,0|0,0:0|0:0,0:0:0:0:
400,40,19952,1,8,0:0:0:0:
400,40,20368,6,0,L|408:96,1,55,2|0,1:2|0:0,0:0:0:0:
416,148,20785,1,8,0:0:0:0:
416,148,20993,2,0,P|371:178|350:229,1,110,0|0,0:0|0:0,0:0:0:0:
334,281,21618,1,8,0:0:0:0:
236,332,22035,6,0,L|124:320,1,110,2|8,1:2|0:0,0:0:0:0:
80,292,22660,2,0,P|69:239|96:193,1,110,0|0,0:0|0:0,0:0:0:0:
144,164,23285,1,8,0:0:0:0:
248,204,23702,6,0,P|273:212|301:211,1,55,2|0,1:2|0:0,0:0:0:0:
347,239,24118,2,0,P|371:226|389:206,1,55,8|0,0:0|0:0,0:0:0:0:
420,160,24535,2,0,L|408:50,1,110,2|8,0:0|0:0,0:0:0:0:
408,50,25368,6,0,L|354:61,1,55,2|8,1:2|0:0,0:0:0:0:
316,100,25785,2,0,L|262:89,1,55,8|0,0:0|0:0,0:0:0:0:
216,120,26202,2,0,L|226:173,1,55,8|0,0:0|0:0,0:0:0:0:
265,212,26618,2,0,L|254:265,1,55,8|8,0:0|0:0,0:0:0:0:
243,320,27035,5,4,0:0:0:0:
160,248,27452,1,8,0:0:0:0:
160,248,27660,2,0,L|51:232,1,110,4|8,0:0|0:0,0:0:0:0:
24,184,28285,1,2,0:0:0:0:
24,184,28493,6,0,P|54:112|132:103,1,165,4|4,0:0|0:0,0:0:0:0:
184,120,29327,2,0,L|292:104,1,110,2|8,0:0|0:0,0:0:0:0:
348,96,29952,1,4,0:0:0:0:
348,96,30368,6,0,P|390:131|400:184,1,110,2|8,0:0|0:0,0:0:0:0:
360,288,31202,2,0,L|321:326,1,55,4|2,0:0|0:0,0:0:0:0:
272,304,31618,2,0,L|217:304,1,55,8|2,0:0|0:0,0:0:0:0:
160,304,32035,5,4,0:0:0:0:
88,220,32452,1,8,0:0:0:0:
160,136,32868,2,0,P|170:110|171:83,2,55,4|0|8,0:0|0:0|0:0,0:0:0:0:
88,220,33702,5,4,0:0:0:0:
52,116,34118,1,8,0:0:0:0:
160,136,34535,2,0,L|269:128,1,110,2|8,0:0|0:0,0:0:0:0:
324,124,35160,2,0,L|352:76,1,55,0|2,0:0|0:0,0:0:0:0:
460,84,35785,2,0,L|432:132,1,55,8|0,0:0|0:0,0:0:0:0:
404,180,36202,1,2,0:0:0:0:
440,284,36618,1,8,0:0:0:0:
348,344,37035,6,0,P|294:350|245:326,1,110,2|8,0:0|0:0,0:0:0:0:
216,280,37660,2,0,L|208:225,1,55,0|2,0:0|0:0,0:0:0:0:
100,204,38285,2,0,L|107:258,2,55,8|0|2,0:0|0:0|0:0,0:0:0:0:
172,120,39118,2,0,L|215:86,1,55,8|0,0:0|0:0,0:0:0:0:
268,104,39535,2,0,P|319:120|371:105,1,110,2|8,0:0|0:0,0:0:0:0:
424,88,40160,1,8,0:0:0:0:
468,120,40368,6,0,L|460:229,1,110,2|8,0:0|0:0,0:0:0:0:
396,320,41202,2,0,P|370:330|343:332,1,55,2|0,0:0|0:0,0:0:0:0:
292,312,41618,1,8,0:0:0:0:
292,312,41827,2,0,P|264:296|180:304,1,110,0|0,0:0|0:0,0:0:0:0:
136,316,42452,2,0,L|150:206,1,110,8|2,0:0|0:0,0:0:0:0:
168,100,43285,1,8,0:0:0:0:
264,47,43702,6,0,P|317:40|363:67,1,110,2|8,0:0|0:0,0:0:0:0:
392,116,44327,2,0,L|388:170,1,55,0|2,0:0|0:0,0:0:0:0:
420,276,44952,1,8,0:0:0:0:
312,252,45368,2,0,L|262:276,2,55,2|8|8,0:0|0:0|0:0,0:0:0:0:
388,170,46202,2,0,L|395:61,1,110,8|8,0:0|0:0,0:0:0:0:
395,60,47035,6,0,B|348:80|348:80|234:72,1,165,4|4,0:0|0:0,0:0:0:0:
48,188,48493,2,0,B|95:207|95:207|208:200,1,165,4|0,0:0|0:0,0:0:0:0:
264,196,49327,2,0,L|248:304,1,110,2|0,0:0|0:0,0:0:0:0:
240,360,49952,1,8,0:0:0:0:
343,328,50368,6,0,P|397:320|449:339,1,110,4|0,0:0|0:0,0:0:0:0:
500,360,50993,2,0,L|484:252,1,110,2|0,0:0|0:0,0:0:0:0:
476,196,51618,2,0,L|488:140,1,55,0|4,0:0|0:0,0:0:0:0:
400,76,52243,2,0,L|388:129,1,55,4|0,0:0|0:0,0:0:0:0:
376,184,52660,1,4,0:0:0:0:
268,172,53077,1,4,0:0:0:0:
268,172,53702,6,0,L|279:281,1,110,4|0,0:0|0:0,0:0:0:0:
288,336,54327,1,4,0:0:0:0:
188,296,54743,2,0,P|161:288|134:289,1,55,0|0,0:0|0:0,0:0:0:0:
80,296,55160,1,4,0:0:0:0:
68,188,55577,1,4,0:0:0:0:
56,80,55993,1,2,0:0:0:0:
56,80,56202,2,0,L|168:88,1,110,8|8,0:0|0:0,0:0:0:0:
272,116,57035,6,0,P|299:116|325:108,1,55,4|0,0:0|0:0,0:0:0:0:
376,88,57452,1,8,0:0:0:0:
476,132,57868,2,0,L|468:188,1,55,2|2,0:0|0:0,0:0:0:0:
492,236,58285,2,0,L|457:280,1,55,8|8,0:0|0:0,0:0:0:0:
411,312,58702,6,0,P|358:319|310:293,1,110,4|8,0:0|0:0,0:0:0:0:
224,228,59535,2,0,L|213:337,1,110,8|8,0:0|0:0,0:0:0:0:
126,271,60368,2,0,P|78:245|24:252,1,110,4|8,0:0|0:0,0:0:0:0:
15,143,61202,2,0,P|42:151|69:150,1,55,8|8,0:0|0:0,0:0:0:0:
124,160,61618,2,0,P|148:146|166:126,1,55,2|0,0:0|0:0,0:0:0:0:
208,92,62035,6,0,P|261:84|309:110,1,110,4|8,0:0|0:0,0:0:0:0:
368,204,62868,2,0,L|361:258,1,55,2|0,0:0|0:0,0:0:0:0:
348,312,63285,1,8,0:0:0:0:
348,312,63493,2,0,P|301:338|247:332,1,110,0|0,0:0|0:0,0:0:0:0:
196,312,64118,2,0,P|168:307|141:311,1,55,8|0,0:0|0:0,0:0:0:0:
88,324,64535,1,0,0:0:0:0:
32,228,64952,5,8,0:0:0:0:
32,228,65160,2,0,P|84:236|132:212,1,110,0|0,0:0|0:0,0:0:0:0:
176,176,65785,1,8,0:0:0:0:
176,176,65993,2,0,L|191:67,1,110,0|0,0:0|0:0,0:0:0:0:
220,20,66618,2,0,P|246:12|273:15,1,55,8|0,0:0|0:0,0:0:0:0:
380,44,67243,5,0,0:0:0:0:
304,124,67660,1,0,0:0:0:0:
412,152,68077,1,0,0:0:0:0:
412,152,68285,2,0,P|428:203|414:256,1,110,8|2,0:0|1:2,0:0:0:0:
328,324,69118,5,8,0:0:0:0:
328,324,69327,2,0,L|218:320,1,110,0|0,0:0|0:0,0:0:0:0:
164,304,69952,2,0,P|149:280|143:253,1,55,8|0,0:0|0:0,0:0:0:0:
200,160,70577,2,0,P|214:136|220:109,1,55,0|8,0:0|0:0,0:0:0:0:
232,56,70993,1,0,0:0:0:0:
68,64,71618,6,0,L|64:118,1,55,8|0,0:0|0:0,0:0:0:0:
88,168,72035,2,0,P|96:220|68:276,1,110,2|8,1:2|0:0,0:0:0:0:
40,316,72660,2,0,L|149:312,1,110,0|0,0:0|0:0,0:0:0:0:
204,308,73285,1,8,0:0:0:0:
295,248,73702,6,0,P|312:196|298:144,1,110,4|8,0:0|0:0,0:0:0:0:
200,91,74535,2,0,P|145:100|92:86,1,110,4|8,0:0|0:0,0:0:0:0:
32,180,75368,6,0,L|86:187,1,55,4|0,0:0|0:0,0:0:0:0:
124,228,75785,2,0,L|178:220,1,55,8|0,0:0|0:0,0:0:0:0:
228,196,76202,2,0,P|211:247|227:299,1,110,2|8,0:0|0:0,0:0:0:0:
252,348,76827,1,0,0:0:0:0:
352,300,77243,2,0,P|379:292|406:291,1,55,0|8,0:0|0:0,0:0:0:0:
460,295,77660,1,0,0:0:0:0:
492,132,78285,5,8,0:0:0:0:
492,132,78493,2,0,P|448:148|376:124,1,110,0|0,0:0|0:0,0:0:0:0:
344,100,79118,1,8,0:0:0:0:
344,100,79327,2,0,P|300:116|228:92,1,110,0|0,0:0|0:0,0:0:0:0:
196,68,79952,5,8,0:0:0:0:
196,68,80160,2,0,L|199:177,1,110,0|0,0:0|0:0,0:0:0:0:
201,232,80785,1,8,0:0:0:0:
144,323,81202,2,0,P|118:334|91:335,1,55,2|0,0:0|0:0,0:0:0:0:
36,332,81618,1,8,0:0:0:0:
100,244,82035,6,0,L|96:134,1,110,2|8,1:2|0:0,0:0:0:0:
192,80,82868,2,0,P|241:103|295:96,1,110,2|8,0:0|0:0,0:0:0:0:
348,84,83493,1,0,0:0:0:0:
348,84,83702,2,0,L|351:193,1,110,2|8,0:0|0:0,0:0:0:0:
312,296,84535,2,0,P|286:306|259:307,1,55,2|0,0:0|0:0,0:0:0:0:
203,304,84952,1,8,0:0:0:0:
108,244,85368,6,0,B|88:200|116:152|116:152|116:116|90:90,2,165,4|4|2,0:0|0:0|0:0,0:0:0:0:
211,212,87035,6,0,P|239:208|266:210,1,55,4|8,0:0|0:0,0:0:0:0:
320,196,87452,2,0,P|342:212|359:233,1,55,8|0,0:0|0:0,0:0:0:0:
392,276,87868,1,8,0:0:0:0:
460,188,88285,2,0,L|464:132,1,55,8|8,0:0|0:0,0:0:0:0:
468,80,88702,1,4,0:0:0:0:
256,192,88910,12,0,92035,1:0:0:0:
