osu file format v14

[General]
AudioFilename: Duca.mp3
AudioLeadIn: 1800
PreviewTime: 61827
Countdown: 0
SampleSet: Soft
StackLeniency: 0.7
Mode: 0
LetterboxInBreaks: 0
WidescreenStoryboard: 0

[Editor]
DistanceSpacing: 1
BeatDivisor: 4
GridSize: 4
TimelineZoom: 1.4

[Metadata]
Title:Koi o Shiyou yo Let it snow
TitleUnicode:恋をしようよ Let it snow
Artist:Duca
ArtistUnicode:Duca
Creator:Oyatsu
Version:Insane
Source:ゆきこいめると
Tags:Yuki Koi Melt opening Front Wing snow winter eroge visual novel CloudSplash16 No Dap
BeatmapID:642577
BeatmapSetID:284347

[Difficulty]
HPDrainRate:7
CircleSize:4
OverallDifficulty:7
ApproachRate:8.5
SliderMultiplier:1.65
SliderTickRate:1

[Events]
//Background and Video events
0,0,"BG.jpg",0,0
Video,0,"Pico Pico!!.avi"
//Break Periods
//Storyboard Layer 0 (Background)
//Storyboard Layer 1 (Fail)
//Storyboard Layer 2 (Pass)
//Storyboard Layer 3 (Foreground)
//Storyboard Sound Samples

[TimingPoints]
-1298,416.666666666667,4,2,1,30,1,0
368,-125,4,2,1,30,0,0
12035,-111.111111111111,4,2,2,50,0,0
13702,-100,4,2,2,70,0,1
13806,-100,4,2,2,60,0,0
26618,-100,4,2,2,50,0,0
27035,-100,4,2,2,60,0,0
32035,-100,4,2,2,70,0,0
33285,-100,4,2,2,50,0,0
33702,-100,4,2,2,50,0,0
46618,-100,4,2,2,40,0,0
47035,-111.111111111111,4,2,2,55,0,0
58702,-100,4,2,2,65,0,0
62035,-100,4,2,2,70,0,1
73702,-100,4,2,2,70,0,0
75368,-100,4,2,2,70,0,1
85368,-100,4,2,2,50,0,0
88285,-100,4,2,2,40,0,0
88702,-100,4,2,2,50,0,0
88806,-100,4,2,2,5,0,0
92035,-100,4,2,2,70,0,0

[Colours]
Combo1 : 255,106,106
Combo2 : 252,213,131
Combo3 : 121,193,247
Combo4 : 247,149,239

[HitObjects]
116,112,368,6,0,L|112:36,2,66,4|0|0,0:0|0:0|0:0,0:0:0:0:
120,196,993,1,0,0:0:0:0:
236,240,1202,1,0,0:0:0:0:
308,104,1410,2,0,L|224:112,1,66
244,228,1827,1,0,0:0:0:0:
388,148,2035,6,0,P|396:100|392:60,1,66
395,82,2452,1,0,0:0:0:0:
316,196,2660,2,0,P|368:232|448:212,1,132
396,320,3285,2,0,L|320:324,1,66
139,256,3702,6,0,L|275:268,2,132,2|0|2,0:0|0:0|0:0,0:0:0:0:
88,344,4743,1,0,0:0:0:0:
40,192,4952,2,0,L|32:268,1,66
136,160,5368,5,2,0:0:0:0:
296,136,5785,1,2,0:0:0:0:
240,24,6202,1,2,0:0:0:0:
244,228,6618,1,2,0:0:0:0:
396,108,7035,5,2,0:0:0:0:
464,52,7452,1,0,0:0:0:0:
396,108,7660,2,0,B|380:144|380:144|372:256,1,132
244,332,8493,1,0,0:0:0:0:
196,260,8702,6,0,L|200:184,1,66
308,68,9118,2,0,L|304:133,1,66
100,176,9535,1,0,0:0:0:0:
176,88,9743,1,0,0:0:0:0:
286,218,9952,2,0,P|319:218|352:212,1,66
447,315,10368,6,0,P|381:318|316:328,2,132,2|0|2,0:0|0:0|0:0,0:0:0:0:
156,260,11618,1,0,0:0:0:0:
268,100,12035,6,0,P|272:44|268:12,1,74.2499977340699,4|0,0:0|0:0,0:0:0:0:
64,220,12452,2,0,P|60:276|64:308,1,74.2499977340699,8|0,0:0|0:0,0:0:0:0:
280,336,12868,1,2,0:0:0:0:
304,180,13077,1,8,0:0:0:0:
156,260,13285,1,8,0:0:0:0:
156,260,13389,1,2,0:0:0:0:
156,260,13493,1,2,0:0:0:0:
156,260,13597,1,2,0:0:0:0:
156,260,13702,6,0,L|244:256,1,82.5,4|0,0:0|0:0,0:0:0:0:
388,216,14118,2,0,P|392:164|376:116,1,82.5,8|0,0:0|0:0,0:0:0:0:
456,328,14535,2,0,L|373:324,1,82.5,2|0,0:0|0:0,0:0:0:0:
224,168,14952,1,8,0:0:0:0:
280,336,15160,1,0,0:0:0:0:
356,124,15368,5,2,1:2:0:0:
248,252,15577,1,0,0:0:0:0:
136,152,15785,1,8,0:0:0:0:
296,48,15993,2,0,L|200:56,1,82.5,0|2,0:0|0:0,0:0:0:0:
48,176,16410,1,0,0:0:0:0:
128,68,16618,1,8,0:0:0:0:
165,258,16827,6,0,L|248:252,1,82.5,0|2,0:0|1:2,0:0:0:0:
464,232,17243,1,0,0:0:0:0:
312,156,17452,1,8,0:0:0:0:
364,344,17660,2,0,P|372:292|372:240,1,82.5,0|2,0:0|0:0,0:0:0:0:
456,72,18077,2,0,L|360:76,1,82.5,0|8,0:0|0:0,0:0:0:0:
152,96,18493,1,0,0:0:0:0:
272,52,18702,5,2,1:2:0:0:
220,252,18910,1,0,0:0:0:0:
292,140,19118,1,8,0:0:0:0:
76,196,19327,2,0,P|128:192|184:188,1,82.5,0|2,0:0|0:0,0:0:0:0:
32,112,19743,1,0,0:0:0:0:
140,308,19952,2,0,P|88:312|32:316,1,82.5,8|0,0:0|0:0,0:0:0:0:
240,184,20368,6,0,P|280:236|272:340,1,165,2|8,1:2|0:0,0:0:0:0:
400,344,20993,1,0,0:0:0:0:
484,224,21202,2,0,L|384:228,1,82.5,2|0,0:0|0:0,0:0:0:0:
296,48,21618,2,0,P|312:96|312:144,1,82.5,8|0,0:0|0:0,0:0:0:0:
84,132,22035,6,0,P|132:92|232:108,1,165,2|8,1:2|0:0,0:0:0:0:
184,280,22660,2,0,P|172:232|172:188,1,82.5,0|2,0:0|0:0,0:0:0:0:
313,127,23077,1,0,0:0:0:0:
376,248,23285,2,0,L|280:240,1,82.5,8|0,0:0|0:0,0:0:0:0:
288,344,23702,5,2,1:2:0:0:
228,168,23910,1,0,0:0:0:0:
412,144,24118,1,8,0:0:0:0:
376,248,24327,1,0,0:0:0:0:
319,46,24535,2,0,L|313:127,1,82.5,2|0,0:0|0:0,0:0:0:0:
168,252,24952,1,8,0:0:0:0:
168,252,25368,5,2,1:2:0:0:
120,152,25577,1,8,0:0:0:0:
280,304,25785,1,8,0:0:0:0:
288,144,25993,1,0,0:0:0:0:
136,344,26202,1,8,0:0:0:0:
252,220,26410,1,0,0:0:0:0:
420,280,26618,2,0,L|416:316,7,20.625,8|8|8|8|8|8|8|8,0:0|0:0|0:0|0:0|0:0|0:0|0:0|0:0,0:0:0:0:
412,252,27035,6,0,L|424:156,1,82.5,4|2,0:0|0:0,0:0:0:0:
284,268,27452,1,8,0:0:0:0:
336,136,27660,2,0,L|516:152,1,165,4|8,0:0|0:0,0:0:0:0:
500,150,28285,1,2,0:0:0:0:
240,56,28493,6,0,P|208:108|216:228,1,165,4|2,0:0|0:0,0:0:0:0:
260,24,29118,1,4,0:0:0:0:
112,88,29327,2,0,P|67:85|27:76,1,82.5,2|0,0:0|0:0,0:0:0:0:
60,224,29743,1,8,0:0:0:0:
200,164,29952,1,4,0:0:0:0:
296,288,30160,5,8,0:0:0:0:
288,304,30264,1,0,0:0:0:0:
280,320,30368,1,2,0:0:0:0:
156,252,30577,1,2,0:0:0:0:
392,196,30785,1,8,0:0:0:0:
284,88,30993,1,2,0:0:0:0:
420,312,31202,5,4,0:0:0:0:
284,188,31410,1,2,0:0:0:0:
468,132,31618,1,8,0:0:0:0:
352,28,31827,1,2,0:0:0:0:
196,92,32035,6,0,B|156:104|156:104|60:96,1,123.75,4|0,0:0|0:0,0:0:0:0:
40,172,32452,2,0,B|32:216|32:216|44:312,1,123.75,8|0,0:0|0:0,0:0:0:0:
124,296,32868,2,0,L|112:212,1,82.5,4|0,0:0|0:0,0:0:0:0:
252,176,33285,2,0,L|220:160,7,20.625,8|8|8|8|8|8|8|8,0:0|0:0|0:0|0:0|0:0|0:0|0:0|0:0,0:0:0:0:
276,188,33702,6,0,L|368:184,1,82.5,4|0,0:0|0:0,0:0:0:0:
448,312,34118,2,0,P|408:320|344:312,1,82.5,8|0,0:0|0:0,0:0:0:0:
472,192,34535,2,0,P|464:148|468:104,1,82.5,2|0,0:0|0:0,0:0:0:0:
376,32,34952,1,8,0:0:0:0:
220,96,35160,6,0,L|324:108,1,82.5,0|2,0:0|0:0,0:0:0:0:
224,272,35577,2,0,L|142:262,1,82.5,0|8,0:0|0:0,0:0:0:0:
128,136,35993,1,0,0:0:0:0:
324,232,36202,2,0,P|328:280|320:328,1,82.5,2|0,0:0|0:0,0:0:0:0:
128,136,36618,2,0,P|124:88|132:40,1,82.5,8|0,0:0|0:0,0:0:0:0:
212,172,37035,6,0,P|136:224|56:192,1,165,2|8,0:0|0:0,0:0:0:0:
132,336,37660,2,0,L|224:332,1,82.5,0|2,0:0|0:0,0:0:0:0:
212,172,38077,1,0,0:0:0:0:
344,296,38285,2,0,P|352:244|352:196,1,82.5,8|0,0:0|0:0,0:0:0:0:
480,80,38702,6,0,P|472:132|472:180,1,82.5,2|0,0:0|0:0,0:0:0:0:
336,80,39118,2,0,L|248:84,1,82.5,8|0,0:0|0:0,0:0:0:0:
112,184,39535,2,0,P|80:152|88:52,1,123.75,2|0,0:0|0:0,0:0:0:0:
88,44,39952,1,8,0:0:0:0:
206,212,40160,2,0,L|212:172,1,41.25,8|2,0:0|0:0,0:0:0:0:
188,296,40368,6,0,L|92:288,1,82.5,2|0,0:0|0:0,0:0:0:0:
328,352,40785,2,0,P|344:304|336:252,1,82.5,8|0,0:0|0:0,0:0:0:0:
320,104,41202,1,2,0:0:0:0:
416,192,41410,1,0,0:0:0:0:
220,104,41618,1,8,0:0:0:0:
288,224,41827,1,0,0:0:0:0:
424,44,42035,5,2,0:0:0:0:
332,140,42243,1,0,0:0:0:0:
244,20,42452,1,8,0:0:0:0:
136,152,42660,2,0,P|128:104|140:48,1,82.5,0|2,0:0|0:0,0:0:0:0:
32,196,43077,1,0,0:0:0:0:
108,288,43285,2,0,P|160:292|212:300,1,82.5,8|0,0:0|0:0,0:0:0:0:
298,172,43702,6,0,P|216:171|136:152,1,165,2|8,0:0|0:0,0:0:0:0:
236,40,44327,1,0,0:0:0:0:
376,92,44535,2,0,L|384:-12,1,82.5,2|0,0:0|0:0,0:0:0:0:
496,208,44952,2,0,P|456:220|392:216,1,82.5,8|0,0:0|0:0,0:0:0:0:
220,344,45368,5,2,0:0:0:0:
298,172,45577,1,8,0:0:0:0:
376,312,45785,1,8,0:0:0:0:
184,152,45993,1,0,0:0:0:0:
272,260,46202,2,0,L|144:268,1,123.75,8|0,0:0|0:0,0:0:0:0:
68,272,46618,2,0,L|60:240,7,20.625,8|8|8|8|8|8|8|8,0:0|0:0|0:0|0:0|0:0|0:0|0:0|0:0,0:0:0:0:
52,220,47035,6,0,P|36:148|64:68,1,148.49999546814,4|0,0:0|0:0,0:0:0:0:
224,136,47660,2,0,L|140:128,1,74.2499977340699,4|0,0:0|0:0,0:0:0:0:
150,128,47972,1,0,0:0:0:0:
150,128,48077,1,0,0:0:0:0:
280,216,48285,1,0,0:0:0:0:
336,92,48493,6,0,L|496:100,2,148.49999546814,4|4|2,0:0|0:0|0:0,0:0:0:0:
476,228,49535,2,0,L|356:224,1,111.374996601105,8|0,0:0|0:0,0:0:0:0:
280,216,49952,2,0,L|276:272,1,37.1249988670349,8|0,0:0|0:0,0:0:0:0:
200,284,50160,2,0,L|196:328,1,37.1249988670349
120,264,50368,6,0,L|128:176,1,74.2499977340699,4|0,0:0|0:0,0:0:0:0:
284,48,50785,2,0,L|277:121,1,74.2499977340699,0|2,0:0|0:0,0:0:0:0:
408,176,51202,1,8,0:0:0:0:
284,308,51410,1,0,0:0:0:0:
204,176,51618,1,0,0:0:0:0:
400,152,51827,6,0,B|404:256|404:256|388:312,2,148.49999546814,4|4|4,0:0|0:0|0:0,0:0:0:0:
400,152,53077,1,4,0:0:0:0:
400,152,53702,6,0,L|304:160,1,74.2499977340699,4|0,0:0|0:0,0:0:0:0:
248,68,54118,1,0,0:0:0:0:
204,244,54327,2,0,L|356:260,1,148.49999546814,4|0,0:0|0:0,0:0:0:0:
472,280,55160,5,4,0:0:0:0:
304,336,55577,1,4,0:0:0:0:
328,160,55993,1,2,0:0:0:0:
208,96,56202,1,8,0:0:0:0:
204,80,56306,1,0,0:0:0:0:
200,64,56410,1,2,0:0:0:0:
164,224,56618,2,0,L|80:212,1,74.2499977340699,8|0,0:0|0:0,0:0:0:0:
48,284,56931,5,2,0:0:0:0:
48,284,57035,2,0,L|204:312,1,148.49999546814,4|8,0:0|0:0,0:0:0:0:
260,180,57660,1,0,0:0:0:0:
360,244,57868,2,0,L|356:328,1,74.2499977340699,2|2,0:0|0:0,0:0:0:0:
476,152,58285,2,0,P|436:152|376:144,1,74.2499977340699,8|2,0:0|0:0,0:0:0:0:
256,64,58702,5,4,0:0:0:0:
220,200,58910,1,2,0:0:0:0:
256,64,59118,1,8,0:0:0:0:
336,172,59327,1,2,0:0:0:0:
272,296,59535,1,8,0:0:0:0:
160,128,59743,1,2,0:0:0:0:
156,320,59952,1,8,0:0:0:0:
264,192,60160,1,2,0:0:0:0:
48,240,60368,5,4,0:0:0:0:
188,192,60577,1,2,0:0:0:0:
100,68,60785,1,8,0:0:0:0:
148,296,60993,1,2,0:0:0:0:
300,80,61202,5,8,0:0:0:0:
336,100,61306,1,8,0:0:0:0:
376,104,61410,1,8,0:0:0:0:
416,96,61514,1,8,0:0:0:0:
452,76,61618,2,0,L|456:36,6,20.625,2|0|0|0|0|0|0,0:0|0:0|0:0|0:0|0:0|0:0|0:0,0:0:0:0:
472,240,62035,6,0,L|368:232,1,82.5,4|0,0:0|0:0,0:0:0:0:
216,344,62452,2,0,P|236:296|232:244,1,82.5,8|0,0:0|0:0,0:0:0:0:
40,168,62868,2,0,P|88:168|136:144,1,82.5,2|0,0:0|0:0,0:0:0:0:
328,224,63285,1,8,0:0:0:0:
236,56,63493,5,0,0:0:0:0:
236,56,63597,1,0,0:0:0:0:
236,56,63702,2,0,L|228:152,1,82.5,2|0,1:2|0:0,0:0:0:0:
336,332,64118,1,8,0:0:0:0:
176,268,64327,1,0,0:0:0:0:
168,284,64431,1,0,0:0:0:0:
160,300,64535,1,2,0:0:0:0:
420,272,64743,1,0,0:0:0:0:
328,224,64952,1,8,0:0:0:0:
456,352,65160,1,0,0:0:0:0:
476,200,65368,6,0,L|480:112,1,82.5,2|0,1:2|0:0,0:0:0:0:
380,44,65785,2,0,P|336:52|280:56,1,82.5,8|0,0:0|0:0,0:0:0:0:
116,140,66202,2,0,P|157:143|197:151,1,82.5,2|0,0:0|0:0,0:0:0:0:
216,304,66618,1,8,0:0:0:0:
304,196,66827,1,0,0:0:0:0:
72,224,67035,6,0,L|100:24,1,165,2|8,0:0|0:0,0:0:0:0:
256,36,67660,2,0,L|246:117,1,82.5,0|2,0:0|0:0,0:0:0:0:
168,208,68077,1,0,0:0:0:0:
354,217,68285,2,0,L|364:136,1,82.5,8|0,0:0|0:0,0:0:0:0:
288,312,68702,6,0,B|248:320|210:328|210:328|168:311|124:310,2,165,2|8|2,1:2|0:0|0:0,0:0:0:0:
216,196,69743,1,0,0:0:0:0:
368,256,69952,2,0,P|380:288|376:356,1,82.5,8|0,0:0|0:0,0:0:0:0:
320,156,70368,6,0,L|420:148,1,82.5,2|0,1:2|0:0,0:0:0:0:
220,100,70785,2,0,P|212:60|216:8,1,82.5,8|0,0:0|0:0,0:0:0:0:
80,144,71202,2,0,P|88:184|84:236,1,82.5,2|0,0:0|0:0,0:0:0:0:
200,224,71618,1,8,0:0:0:0:
52,312,71827,1,0,0:0:0:0:
204,216,72035,6,0,L|296:212,1,82.5,2|0,1:2|0:0,0:0:0:0:
286,212,72347,1,0,0:0:0:0:
286,212,72452,1,8,0:0:0:0:
364,104,72660,1,0,0:0:0:0:
464,256,72868,2,0,L|474:159,1,82.5,2|0,0:0|0:0,0:0:0:0:
336,300,73285,1,8,0:0:0:0:
252,116,73493,5,0,0:0:0:0:
252,116,73597,1,0,0:0:0:0:
252,116,73702,2,0,B|176:132|176:132|152:124|116:124,1,123.75,4|0,0:0|0:0,0:0:0:0:
44,8,74118,2,0,B|60:84|60:84|52:108|52:144,1,123.75,8|0,0:0|0:0,0:0:0:0:
148,324,74535,2,0,B|132:248|132:248|140:224|140:188,1,123.75,4|0,0:0|0:0,0:0:0:0:
156,124,74952,1,4,0:0:0:0:
256,232,75160,5,0,0:0:0:0:
272,248,75264,1,0,0:0:0:0:
288,264,75368,2,0,L|380:260,1,82.5,4|0,0:0|0:0,0:0:0:0:
480,100,75785,2,0,L|397:96,1,82.5,8|0,0:0|0:0,0:0:0:0:
448,312,76202,2,0,P|460:264|456:220,1,82.5,2|0,0:0|0:0,0:0:0:0:
312,92,76618,1,8,0:0:0:0:
368,192,76827,5,0,0:0:0:0:
368,192,76931,1,0,0:0:0:0:
368,192,77035,1,2,1:2:0:0:
216,48,77243,1,0,0:0:0:0:
208,176,77452,1,8,0:0:0:0:
32,212,77660,2,0,P|110:199|204:188,1,165
208,336,78285,2,0,P|163:346|117:350,1,82.5,8|0,0:0|0:0,0:0:0:0:
272,252,78702,6,0,P|348:240|416:296,1,165,2|8,1:2|0:0,0:0:0:0:
472,192,79327,2,0,P|468:136|468:100,1,82.5,0|2,0:0|0:0,0:0:0:0:
216,144,79743,1,0,0:0:0:0:
348,20,79952,2,0,P|344:72|336:132,1,82.5,8|0,0:0|0:0,0:0:0:0:
272,252,80368,5,2,0:0:0:0:
364,184,80577,1,0,0:0:0:0:
232,344,80785,1,8,0:0:0:0:
184,220,80993,1,0,0:0:0:0:
368,348,81202,2,0,P|376:296|368:256,1,82.5,2|0,0:0|0:0,0:0:0:0:
104,176,81618,2,0,P|96:228|104:268,1,82.5,8|0,0:0|0:0,0:0:0:0:
177,122,82035,6,0,P|129:94|21:130,1,165,2|8,1:2|0:0,0:0:0:0:
85,322,82660,1,0,0:0:0:0:
85,322,82764,1,0,0:0:0:0:
85,322,82868,2,0,L|168:316,1,82.5,2|0,0:0|0:0,0:0:0:0:
276,224,83285,2,0,L|292:316,1,82.5,8|0,0:0|0:0,0:0:0:0:
304,340,83597,5,0,0:0:0:0:
304,340,83702,2,0,L|328:160,1,165,2|8,0:0|0:0,0:0:0:0:
404,72,84327,1,0,0:0:0:0:
500,192,84535,2,0,P|452:208|400:212,1,82.5,2|0,0:0|0:0,0:0:0:0:
216,124,84952,1,8,0:0:0:0:
312,244,85160,5,0,0:0:0:0:
312,244,85264,1,0,0:0:0:0:
312,244,85368,2,0,B|260:236|260:236|200:244|200:244|144:232,1,165,4|0,0:0|0:0,0:0:0:0:
64,172,85993,2,0,P|100:224|80:348,1,165,4|0,0:0|0:0,0:0:0:0:
128,92,86618,1,2,0:0:0:0:
208,228,86827,5,0,0:0:0:0:
208,228,86931,1,0,0:0:0:0:
208,228,87035,1,4,0:0:0:0:
312,40,87243,1,8,0:0:0:0:
496,192,87452,2,0,L|360:180,1,123.75,8|0,0:0|0:0,0:0:0:0:
292,176,87868,1,8,0:0:0:0:
412,88,88077,1,0,0:0:0:0:
368,284,88285,2,0,L|364:320,7,20.625,8|8|8|8|8|8|8|8,0:0|0:0|0:0|0:0|0:0|0:0|0:0|0:0,0:0:0:0:
361,333,88702,5,4,0:0:0:0:
256,192,88806,12,0,92035,1:0:0:0:
