osu file format v14

[General]
AudioFilename: Duca.mp3
AudioLeadIn: 1800
PreviewTime: 61827
Countdown: 0
SampleSet: Soft
StackLeniency: 0.7
Mode: 0
LetterboxInBreaks: 0
WidescreenStoryboard: 0

[Editor]
DistanceSpacing: 1.1
BeatDivisor: 2
GridSize: 4
TimelineZoom: 1.1

[Metadata]
Title:Koi o Shiyou yo Let it snow
TitleUnicode:恋をしようよ Let it snow
Artist:Duca
ArtistUnicode:Duca
Creator:Oyatsu
Version:Easy
Source:ゆきこいめると
Tags:Yuki Koi Melt opening Front Wing snow winter eroge visual novel CloudSplash16 No Dap
BeatmapID:647562
BeatmapSetID:284347

[Difficulty]
HPDrainRate:2
CircleSize:3
OverallDifficulty:2
ApproachRate:3
SliderMultiplier:0.87
SliderTickRate:1

[Events]
//Background and Video events
0,0,"BG.jpg",0,0
Video,0,"Pico Pico!!.avi"
//Break Periods
//Storyboard Layer 0 (Background)
//Storyboard Layer 1 (Fail)
//Storyboard Layer 2 (Pass)
//Storyboard Layer 3 (Foreground)
//Storyboard Sound Samples

[TimingPoints]
-1298,416.666666666667,4,2,1,30,1,0
12035,-100,4,2,2,50,0,0
13702,-100,4,2,2,70,0,1
13806,-100,4,2,2,60,0,0
26618,-100,4,2,2,50,0,0
27035,-100,4,2,2,60,0,0
32035,-100,4,2,2,70,0,0
33285,-100,4,2,2,50,0,0
46618,-100,4,2,2,40,0,0
47035,-100,4,2,2,55,0,0
47452,-100,4,2,1,55,0,0
47660,-100,4,2,2,55,0,0
54118,-100,4,2,1,55,0,0
54327,-100,4,2,2,55,0,0
58702,-100,4,2,2,65,0,0
62035,-100,4,2,2,70,0,1
72868,-100,4,2,1,70,0,1
73077,-100,4,2,2,70,0,1
73702,-100,4,2,2,70,0,0
75368,-100,4,2,2,70,0,1
85368,-100,4,2,2,50,0,0
85785,-100,4,2,1,50,0,0
85993,-100,4,2,2,50,0,0
86202,-100,4,2,1,50,0,0
86410,-100,4,2,2,50,0,0
88285,-100,4,2,2,40,0,0
88702,-100,4,2,2,50,0,0
88806,-100,4,2,2,5,0,0
92035,-100,4,2,2,70,0,0

[Colours]
Combo1 : 255,106,106
Combo2 : 252,213,131
Combo3 : 121,193,247
Combo4 : 247,149,239

[HitObjects]
404,328,368,5,4,0:0:0:0:
344,256,785,1,0,0:0:0:0:
416,196,1202,2,0,L|420:104,1,87,0|0,0:0|0:0,0:0:0:0:
332,68,2035,2,0,P|260:92|184:64,2,130.5,0|0|0,0:0|0:0|0:0,0:0:0:0:
420,28,3702,5,2,0:0:0:0:
408,220,4535,1,2,0:0:0:0:
228,160,5368,2,0,P|172:156|119:149,2,87,2|2|2,0:0|0:0|0:0,0:0:0:0:
288,236,6618,1,2,0:0:0:0:
220,300,7035,6,0,P|155:288|90:281,1,130.5,2|0,0:0|0:0,0:0:0:0:
32,208,8077,2,0,L|52:52,1,130.5
192,88,9327,2,0,B|240:80|240:80|340:92,1,130.5
412,124,10368,5,2,0:0:0:0:
364,308,11202,1,2,0:0:0:0:
172,296,12035,2,0,P|172:248|171:195,1,87,4|2,0:0|0:0,0:0:0:0:
168,112,12868,2,0,L|136:76,2,43.5,2|8|8,0:0|0:0|0:0,0:0:0:0:
264,132,13702,6,0,L|360:136,1,87,4|8,0:0|0:0,0:0:0:0:
436,180,14535,2,0,P|452:224|448:284,1,87,2|8,0:0|0:0,0:0:0:0:
392,340,15368,1,2,1:2:0:0:
312,288,15785,2,0,P|256:284|204:284,1,87,8|2,0:0|0:0,0:0:0:0:
136,324,16618,1,8,0:0:0:0:
80,248,17035,6,0,P|72:160|92:64,1,174,2|2,1:2|0:0,0:0:0:0:
176,36,18285,1,8,0:0:0:0:
240,108,18702,2,0,P|292:112|352:112,2,87,2|8|2,1:2|0:0|0:0,0:0:0:0:
152,148,19952,1,8,0:0:0:0:
184,236,20368,6,0,P|188:280|184:336,1,87,2|8,1:2|0:0,0:0:0:0:
280,312,21202,2,0,L|376:316,1,87,2|8,0:0|0:0,0:0:0:0:
444,260,22035,2,0,P|472:176|432:92,1,174,2|2,1:2|0:0,0:0:0:0:
360,48,23285,1,8,0:0:0:0:
272,80,23702,6,0,L|268:176,1,87,2|8,1:2|0:0,0:0:0:0:
264,264,24535,1,2,0:0:0:0:
176,300,24952,1,8,0:0:0:0:
108,232,25368,2,0,L|48:236,2,43.5,2|8|8,1:2|0:0|0:0,0:0:0:0:
156,148,26202,2,0,L|159:61,1,87,8|8,0:0|0:0,0:0:0:0:
248,24,27035,6,0,P|284:68|288:152,1,130.5,4|4,0:0|0:0,0:0:0:0:
240,220,28077,2,0,L|180:232,2,43.5,8|2|4,0:0|0:0|0:0,0:0:0:0:
308,288,28910,1,2,0:0:0:0:
388,236,29327,2,0,B|400:144|400:144|380:92,1,130.5,2|4,0:0|0:0,0:0:0:0:
320,40,30368,5,2,0:0:0:0:
244,100,30785,1,8,0:0:0:0:
164,48,31202,2,0,L|72:56,1,87,4|8,0:0|0:0,0:0:0:0:
76,152,32035,2,0,P|76:196|72:248,2,87,4|8|4,0:0|0:0|0:0,0:0:0:0:
156,96,33285,1,8,0:0:0:0:
224,160,33702,6,0,P|220:203|221:246,1,87,4|8,0:0|0:0,0:0:0:0:
264,332,34535,1,2,0:0:0:0:
352,296,34952,2,0,L|448:292,1,87,8|2,0:0|0:0,0:0:0:0:
496,216,35785,1,8,0:0:0:0:
424,156,36202,2,0,L|424:104|424:52,1,87,2|8,0:0|0:0,0:0:0:0:
328,56,37035,6,0,B|276:64|276:64|232:48|232:48|196:72|136:60,1,174,2|2,0:0|0:0,0:0:0:0:
68,96,38285,2,0,P|60:152|68:188,1,87,8|2,0:0|0:0,0:0:0:0:
128,256,39118,1,8,0:0:0:0:
200,192,39535,2,0,L|288:204,1,87,2|8,0:0|0:0,0:0:0:0:
368,156,40368,6,0,B|392:216|348:280|372:344,2,174,2|2|2,0:0|0:0|0:0,0:0:0:0:
332,68,42452,1,8,0:0:0:0:
428,52,42868,2,0,L|516:48,1,87,2|8,0:0|0:0,0:0:0:0:
496,140,43702,2,0,P|464:196|352:196,1,174,2|2,0:0|0:0,0:0:0:0:
268,180,44952,1,8,0:0:0:0:
240,272,45368,6,0,L|232:332,2,43.5,2|8|8,0:0|0:0|0:0,0:0:0:0:
176,200,46202,1,8,0:0:0:0:
96,252,46618,1,8,0:0:0:0:
48,168,47035,6,0,B|28:80|28:80|36:24,1,130.5,4|4,0:0|0:0,0:0:0:0:
224,56,48493,2,0,P|272:60|328:64,1,87,4|4,0:0|0:0,0:0:0:0:
456,60,49535,2,0,P|448:112|448:168,1,87
456,244,50368,5,4,0:0:0:0:
376,296,50785,2,0,L|284:292,1,87,0|8,0:0|0:0,0:0:0:0:
160,232,51827,2,0,P|156:184|161:134,2,87,4|4|4,0:0|0:0|0:0,0:0:0:0:
192,324,53077,1,4,0:0:0:0:
312,248,53702,6,0,P|320:180|304:92,1,130.5,4|4,0:0|0:0,0:0:0:0:
236,60,54743,1,0,0:0:0:0:
148,100,55160,2,0,L|48:104,1,87,4|4,0:0|0:0,0:0:0:0:
72,200,55993,2,0,L|129:197,1,43.5,2|8,0:0|0:0,0:0:0:0:
208,180,56618,1,8,0:0:0:0:
288,232,57035,6,0,P|292:280|288:344,1,87,4|8,0:0|0:0,0:0:0:0:
380,348,57868,1,2,0:0:0:0:
448,280,58285,1,8,0:0:0:0:
256,192,58702,12,4,60368,0:0:0:0:
316,192,62035,6,0,P|268:184|224:188,1,87,4|8,0:0|0:0,0:0:0:0:
144,232,62868,2,0,L|140:332,1,87,2|8,0:0|0:0,0:0:0:0:
48,300,63702,2,0,L|51:213,1,87,2|8,1:2|0:0,0:0:0:0:
28,120,64535,1,2,0:0:0:0:
108,68,64952,1,8,0:0:0:0:
184,124,65368,6,0,P|260:148|360:132,1,174,2|2,1:2|0:0,0:0:0:0:
428,76,66618,1,8,0:0:0:0:
464,164,67035,2,0,P|472:216|464:272,1,87,2|8,0:0|0:0,0:0:0:0:
408,324,67868,2,0,L|316:316,1,87,2|8,0:0|0:0,0:0:0:0:
244,264,68702,6,0,P|236:172|252:88,1,174,2|2,1:2|0:0,0:0:0:0:
160,56,69952,1,8,0:0:0:0:
88,120,70368,2,0,P|91:169|84:232,1,87,2|8,1:2|0:0,0:0:0:0:
68,300,71202,2,0,L|172:292,1,87,2|8,0:0|0:0,0:0:0:0:
236,240,72035,6,0,P|268:288|268:372,2,130.5,2|0|8,1:2|0:0|0:0,0:0:0:0:
168,172,73702,2,0,L|172:64,1,87,4|8,0:0|0:0,0:0:0:0:
252,36,74535,1,4,0:0:0:0:
324,96,74952,1,4,0:0:0:0:
412,64,75368,6,0,P|432:112|432:172,1,87,4|8,0:0|0:0,0:0:0:0:
500,220,76202,2,0,P|452:240|392:240,1,87,2|8,0:0|0:0,0:0:0:0:
324,252,77035,2,0,L|316:356,1,87,2|8,1:2|0:0,0:0:0:0:
224,352,77868,1,0,0:0:0:0:
156,284,78285,1,8,0:0:0:0:
232,224,78702,6,0,B|240:168|240:168|232:108|232:108|244:32,1,174,2|2,1:2|0:0,0:0:0:0:
336,40,79952,1,8,0:0:0:0:
368,128,80368,2,0,L|356:232,1,87,2|8,0:0|0:0,0:0:0:0:
308,296,81202,2,0,L|220:284,1,87,2|8,0:0|0:0,0:0:0:0:
132,324,82035,6,0,P|104:272|116:144,1,174,2|2,1:2|0:0,0:0:0:0:
184,100,83285,1,8,0:0:0:0:
272,144,83702,2,0,P|272:196|268:240,1,87,2|8,0:0|0:0,0:0:0:0:
212,308,84535,1,2,0:0:0:0:
300,348,84952,1,8,0:0:0:0:
368,280,85368,6,0,L|504:276,2,130.5,4|4|2,0:0|0:0|0:0,0:0:0:0:
284,236,87035,2,0,L|284:184,2,43.5,4|8|8,0:0|0:0|0:0,0:0:0:0:
228,316,87868,1,8,0:0:0:0:
156,252,88285,1,8,0:0:0:0:
72,300,88702,1,4,0:0:0:0:
256,192,88910,12,0,92035,1:0:0:0:
