osu file format v12

[General]
AudioFilename: kanransha.mp3
AudioLeadIn: 0
PreviewTime: 64387
Countdown: 0
SampleSet: Soft
StackLeniency: 0.7
Mode: 0
LetterboxInBreaks: 0
WidescreenStoryboard: 1

[Editor]
DistanceSpacing: 1
BeatDivisor: 4
GridSize: 4

[Metadata]
Title:Kanransha ~ Anohi to Kinou to Kyou to Ashita to ~
TitleUnicode:観覧車~あの日と、昨日と今日と明日と~
Artist:Duca
ArtistUnicode:Duca
Creator:Laurier
Version:Normal
Source:Meguru Kisetsu no Yakusoku to Tsunaida Sono Te no Nukumori to
Tags:dandelion pota-row Oyatsu
BeatmapID:299895
BeatmapSetID:114483

[Difficulty]
HPDrainRate:3
CircleSize:3
OverallDifficulty:3
ApproachRate:4
SliderMultiplier:0.999999999999999
SliderTickRate:1

[Events]
//Background and Video events
0,0,"BG.jpg",0,0
Video,0,"movie.flv"
//Break Periods
//Storyboard Layer 0 (Background)
//Storyboard Layer 1 (Fail)
//Storyboard Layer 2 (Pass)
//Storyboard Layer 3 (Foreground)
//Storyboard Sound Samples
//Background Colour Transformations
3,100,163,162,255

[TimingPoints]
86,375,4,2,2,60,1,0
1211,-100,4,2,2,40,0,0
9086,413.793103448276,4,2,1,60,1,0
9086,-100,4,2,2,40,0,0
10741,458.015267175573,4,2,1,30,1,0
12115,-100,4,2,1,5,0,0
12573,465.116279069767,4,2,1,60,1,0
12573,-100,4,2,2,30,0,0
14433,461.538461538462,4,2,2,30,1,0
17202,342.857142857143,4,2,1,30,1,0
17887,342.857142857143,4,2,1,60,1,0
28858,-100,4,2,1,60,0,0
29029,-100,4,2,2,40,0,0
39144,-100,4,2,1,50,0,0
39829,-100,4,2,1,60,0,0
50801,-100,4,2,1,50,0,0
56287,-100,4,2,1,60,0,0
62029,-100,4,2,3,60,0,0
62201,-100,4,2,1,60,0,0
62715,-100,4,2,3,60,0,0
62887,-100,4,2,1,60,0,0
64515,-100,4,2,1,70,0,1
83029,-100,4,2,1,60,0,1
83715,-100,4,2,1,60,0,0
94772,-100,4,2,1,30,0,0
97429,-100,4,2,1,5,0,0

[Colours]
Combo1 : 255,248,223
Combo2 : 227,255,227
Combo3 : 255,255,255
Combo4 : 254,231,234

[HitObjects]
434,191,1211,6,0,P|386:181|335:192,1,99.9999999999999,0|4,0:0|0:0,0:0:0:0:
236,256,1961,2,0,P|225:203|224:150,1,99.9999999999999
302,66,2711,1,0,0:0:0:0:
183,45,3086,6,0,B|155:46|155:46|127:31|82:31,2,99.9999999999999,4|0|0,0:0|0:0|0:0,0:0:0:0:
99,130,4211,1,0,0:0:0:0:
167,228,4586,6,0,P|257:191|348:225,1,200
464,193,5711,2,0,L|474:141,2,50,0|0|4,0:0|0:0|0:0,0:0:0:0:
256,314,6836,5,4,0:0:0:0:
365,363,7211,1,0,0:0:0:0:
450,278,7586,6,0,P|402:252|356:250,1,99.9999999999999
256,314,8336,2,0,P|242:262|244:212,1,99.9999999999999
257,108,9086,6,0,P|169:69|85:118,2,200,0|4|0,0:0|0:0|0:0,0:0:0:0:
500,189,12573,6,0,P|413:228|327:178,2,200,0|4|2,0:0|0:0|0:0,0:0:0:0:
261,335,17887,6,0,P|212:347|161:333,1,99.9999999999999,4|8,0:0|0:0,0:0:0:0:
214,247,18572,2,0,P|263:235|314:249,1,99.9999999999999,2|8,0:0|0:0,0:0:0:0:
367,329,19258,1,2,0:0:0:0:
438,258,19601,5,8,0:0:0:0:
404,163,19944,2,0,P|394:111|397:64,1,99.9999999999999,2|8,0:0|0:0,0:0:0:0:
297,58,20629,6,0,L|198:39,1,99.9999999999999,4|8,0:0|0:0,0:0:0:0:
119,100,21315,2,0,L|62:88,2,50,2|2|8,0:0|0:0|0:0,0:0:0:0:
198,161,22001,6,0,P|198:211|183:262,1,99.9999999999999,2|8,0:0|0:0,0:0:0:0:
148,293,22515,2,0,P|194:274|291:300,1,150,2|8,0:0|0:0,0:0:0:0:
387,286,23372,6,0,P|423:248|443:199,1,99.9999999999999,4|8,0:0|0:0,0:0:0:0:
384,122,24058,2,0,P|410:106|444:102,2,50,2|2|8,0:0|0:0|0:0,0:0:0:0:
310,190,24744,6,0,P|261:204|214:192,1,99.9999999999999,2|8,0:0|0:0,0:0:0:0:
259,102,25429,2,0,P|271:73|286:48,2,50,2|2|8,0:0|0:0|0:0,0:0:0:0:
158,94,26115,6,0,P|110:107|58:112,1,99.9999999999999,2|12,0:0|0:0,0:0:0:0:
98,204,26801,2,0,P|106:250|105:307,1,99.9999999999999,2|12,0:0|0:0,0:0:0:0:
200,271,27487,6,0,P|248:258|300:253,2,99.9999999999999,2|8|2,0:0|0:0|0:0,0:0:0:0:
179,368,28515,1,8,0:0:0:0:
278,355,28858,6,0,P|354:344|434:342,1,150,4|0,0:0|0:0,0:0:0:0:
448,296,29544,2,0,P|457:246|460:190,1,99.9999999999999
499,105,30229,6,0,P|452:97|393:93,1,99.9999999999999
314,146,30915,2,0,P|264:142|214:134,1,99.9999999999999
153,54,31601,5,0,0:0:0:0:
53,49,31944,1,0,0:0:0:0:
11,140,32287,1,0,0:0:0:0:
78,213,32629,2,0,L|70:269,2,50,0|0|2,0:0|0:0|0:0,0:0:0:0:
171,248,33315,6,0,P|220:251|270:259,1,99.9999999999999
360,303,34001,2,0,L|388:262,1,50
434,241,34344,6,0,P|423:190|426:142,2,99.9999999999999,0|0|0,0:0|0:0|0:0,0:0:0:0:
455,340,35372,1,0,0:0:0:0:
356,357,35715,6,0,P|287:340|208:357,1,150
162,341,36401,2,0,P|173:290|170:242,1,99.9999999999999
83,191,37087,5,0,0:0:0:0:
130,103,37429,1,0,0:0:0:0:
216,152,37772,2,0,L|321:144,1,99.9999999999999
401,91,38458,1,0,0:0:0:0:
448,179,38801,1,0,0:0:0:0:
364,233,39144,2,0,P|356:262|351:293,2,50,0|2|2,0:0|0:0|0:0,0:0:0:0:
452,279,39829,6,0,L|428:380,1,99.9999999999999,4|8,0:0|0:0,0:0:0:0:
329,365,40515,2,0,L|277:374,2,50,2|2|8,0:0|0:0|0:0,0:0:0:0:
323,264,41201,6,0,L|315:160,1,99.9999999999999,2|8,0:0|0:0,0:0:0:0:
359,74,41887,2,0,P|379:56|403:42,2,50,2|2|8,0:0|0:0|0:0,0:0:0:0:
262,47,42572,6,0,P|212:58|164:46,2,99.9999999999999,2|8|2,0:0|0:0|0:0,0:0:0:0:
256,96,43429,2,0,L|250:151,1,50,2|8,0:0|0:0,0:0:0:0:
253,245,43944,6,0,P|199:238|143:233,1,99.9999999999999,2|8,0:0|0:0,0:0:0:0:
72,175,44629,2,0,P|65:229|60:285,1,99.9999999999999,2|8,0:0|0:0,0:0:0:0:
96,310,45144,2,0,P|123:319|153:322,1,50,0|4,0:0|0:0,0:0:0:0:
242,339,45658,5,8,0:0:0:0:
332,295,46001,2,0,P|363:293|395:292,1,50,2|2,0:0|0:0,0:0:0:0:
424,318,46344,6,0,P|440:264|448:220,1,99.9999999999999,8|2,0:0|0:0,0:0:0:0:
427,123,47029,1,8,0:0:0:0:
346,182,47372,2,0,P|297:192|234:195,2,99.9999999999999,2|8|2,0:0|0:0|0:0,0:0:0:0:
339,81,48401,5,8,0:0:0:0:
239,76,48744,2,0,L|228:15,2,50,2|2|8,0:0|0:0|0:0,0:0:0:0:
151,125,49429,6,0,P|138:173|131:224,1,99.9999999999999,4|8,0:0|0:0,0:0:0:0:
221,265,50115,2,0,P|230:298|243:327,2,50
318,240,50801,6,0,P|331:192|338:141,1,99.9999999999999,4|2,0:0|0:0,0:0:0:0:
400,64,51487,2,0,P|352:51|301:44,2,99.9999999999999,8|2|0,0:0|0:0|0:0,0:0:0:0:
472,132,52515,5,2,0:0:0:0:
493,229,52858,1,8,0:0:0:0:
334,351,53544,6,0,P|284:344|236:331,1,99.9999999999999,2|2,0:0|0:0,0:0:0:0:
139,357,54229,2,0,P|145:307|158:259,1,99.9999999999999,8|2,0:0|0:0,0:0:0:0:
255,233,54915,1,0,0:0:0:0:
208,144,55258,1,2,0:0:0:0:
111,171,55601,2,0,L|56:168,2,50,8|2|12,0:0|0:0|0:0,0:0:0:0:
208,144,56287,6,0,P|232:102|246:46,1,99.9999999999999,4|8,0:0|0:0,0:0:0:0:
331,102,56972,2,0,P|350:150|378:191,1,99.9999999999999,2|8,0:0|0:0,0:0:0:0:
293,245,57658,6,0,P|243:235|189:236,2,99.9999999999999,0|8|2,0:0|0:0|0:0,0:0:0:0:
384,285,58687,1,8,0:0:0:0:
350,378,59029,5,4,0:0:0:0:
448,359,59372,2,0,P|470:311|482:264,1,99.9999999999999,8|2,0:0|0:0,0:0:0:0:
430,178,60058,2,0,P|448:154|462:133,2,50,8|0|2,0:0|0:0|0:0,0:0:0:0:
330,189,60744,5,8,0:0:0:0:
367,96,61087,2,0,P|314:94|269:111,1,99.9999999999999,2|8,0:0|0:0,0:0:0:0:
199,180,61772,6,0,P|110:213|42:142,2,200,4|2|2,0:0|0:0|0:0,0:0:0:0:
251,265,63487,6,0,L|262:319,1,50,8|0,0:0|0:0,0:0:0:0:
308,329,63829,2,0,L|357:344,2,50,2|0|4,0:0|0:0|0:0,0:0:0:0:
346,236,64515,6,0,P|356:189|361:138,1,99.9999999999999,4|8,0:0|0:0,0:0:0:0:
422,57,65201,2,0,P|375:47|324:42,1,99.9999999999999,2|8,0:0|0:0,0:0:0:0:
223,50,65887,1,2,0:0:0:0:
277,133,66229,1,8,0:0:0:0:
177,137,66572,2,0,P|172:186|170:242,1,99.9999999999999,2|8,0:0|0:0,0:0:0:0:
223,321,67258,6,0,P|234:350|241:378,2,50,2|0|8,0:0|0:0|0:0,0:0:0:0:
270,232,67944,2,0,P|299:225|324:221,2,50,2|2|8,0:0|0:0|0:0,0:0:0:0:
170,238,68629,6,0,P|117:250|70:240,2,99.9999999999999,2|8|2,0:0|0:0|0:0,0:0:0:0:
216,149,69658,1,8,0:0:0:0:
296,89,70001,6,0,P|349:77|396:87,1,99.9999999999999,4|8,0:0|0:0,0:0:0:0:
492,73,70687,2,0,L|506:23,2,50,2|2|8,0:0|0:0|0:0,0:0:0:0:
450,164,71372,6,0,P|437:213|434:265,1,99.9999999999999,2|8,0:0|0:0,0:0:0:0:
360,330,72058,2,0,L|308:342,1,50,2|2,0:0|0:0,0:0:0:0:
255,257,72572,2,0,L|256:200,1,50,0|4,0:0|0:0,0:0:0:0:
257,156,72915,6,0,P|206:142|154:138,1,99.9999999999999,2|4,0:0|0:0,0:0:0:0:
78,78,73601,2,0,P|64:129|60:181,1,99.9999999999999,2|4,0:0|0:0,0:0:0:0:
108,263,74287,2,0,L|131:316,1,50,2|8,0:0|0:0,0:0:0:0:
176,298,74629,2,0,L|215:328,1,50,0|8,0:0|0:0,0:0:0:0:
307,287,75144,1,8,0:0:0:0:
236,215,75487,6,0,P|230:164|236:116,1,99.9999999999999,4|8,0:0|0:0,0:0:0:0:
321,63,76172,2,0,P|327:114|321:162,2,99.9999999999999,2|8|2,0:0|0:0|0:0,0:0:0:0:
229,21,77201,5,8,0:0:0:0:
129,27,77544,1,2,0:0:0:0:
85,116,77887,1,8,0:0:0:0:
123,208,78229,6,0,L|123:258,2,50,2|0|8,0:0|0:0|0:0,0:0:0:0:
183,127,78915,2,0,P|235:137|283:141,1,99.9999999999999,2|8,0:0|0:0,0:0:0:0:
353,70,79601,6,0,P|369:117|379:167,1,99.9999999999999,2|8,0:0|0:0,0:0:0:0:
304,233,80287,2,0,L|303:286,2,50,2|2|8,0:0|0:0|0:0,0:0:0:0:
397,269,80972,5,2,0:0:0:0:
356,360,81315,1,8,0:0:0:0:
255,360,81658,1,2,0:0:0:0:
214,268,82001,6,0,P|165:262|114:258,2,99.9999999999999,8|2|2,0:0|0:0|0:0,0:0:0:0:
219,168,83029,2,0,P|217:117|219:68,1,99.9999999999999
306,116,83715,6,0,P|360:113|410:117,1,99.9999999999999,4|8,0:0|0:0,0:0:0:0:
476,187,84401,1,2,0:0:0:0:
436,279,84744,1,8,0:0:0:0:
355,219,85087,6,0,P|346:269|342:319,2,99.9999999999999,2|8|2,0:0|0:0|0:0,0:0:0:0:
255,205,86115,1,8,0:0:0:0:
245,304,86458,6,0,P|199:311|145:316,1,99.9999999999999,2|8,0:0|0:0,0:0:0:0:
66,377,87144,2,0,P|59:331|54:277,1,99.9999999999999,2|8,0:0|0:0,0:0:0:0:
134,218,87829,5,2,0:0:0:0:
74,137,88172,1,8,0:0:0:0:
173,125,88515,2,0,P|226:116|272:110,1,99.9999999999999,2|8,0:0|0:0,0:0:0:0:
349,46,89201,6,0,P|358:99|363:145,1,99.9999999999999,4|8,0:0|0:0,0:0:0:0:
463,159,89887,2,0,P|431:202|403:239,1,99.9999999999999,2|8,0:0|0:0,0:0:0:0:
304,227,90572,5,2,0:0:0:0:
329,323,90915,1,8,0:0:0:0:
232,295,91258,2,0,P|182:292|126:290,1,99.9999999999999,2|8,0:0|0:0,0:0:0:0:
178,201,91944,6,0,P|210:159|236:118,1,99.9999999999999,2|12,0:0|0:0,0:0:0:0:
189,30,92629,2,0,P|157:72|131:113,1,99.9999999999999,2|12,0:0|0:0,0:0:0:0:
68,189,93315,6,2,L|18:189,2,50,2|0|14,0:0|0:0|0:0,0:0:0:0:
84,287,94001,2,0,L|59:333,2,50,8|8|8,0:0|0:0|0:0,0:0:0:0:
157,219,94687,1,4,0:0:0:0:
256,192,94858,12,0,97429,0:0:0:0:
