osu file format v12

[General]
AudioFilename: kanransha.mp3
AudioLeadIn: 0
PreviewTime: 64387
Countdown: 0
SampleSet: Soft
StackLeniency: 0.7
Mode: 0
LetterboxInBreaks: 0
WidescreenStoryboard: 0

[Editor]
DistanceSpacing: 0.7
BeatDivisor: 4
GridSize: 4

[Metadata]
Title:Kanransha ~ Anohi to Kinou to Kyou to Ashita to ~
TitleUnicode:観覧車~あの日と、昨日と今日と明日と~
Artist:Duca
ArtistUnicode:Duca
Creator:Laurier
Version:Insane
Source:Meguru Kisetsu no Yakusoku to Tsunaida Sono Te no Nukumori to
Tags:dandelion pota-row Oyatsu
BeatmapID:296418
BeatmapSetID:114483

[Difficulty]
HPDrainRate:7
CircleSize:4
OverallDifficulty:7
ApproachRate:9
SliderMultiplier:1.8
SliderTickRate:1

[Events]
//Background and Video events
0,0,"BG.jpg",0,0
Video,0,"movie.flv"
//Break Periods
//Storyboard Layer 0 (Background)
//Storyboard Layer 1 (Fail)
//Storyboard Layer 2 (Pass)
//Storyboard Layer 3 (Foreground)
//Storyboard Sound Samples
//Background Colour Transformations
3,100,163,162,255

[TimingPoints]
86,375,4,2,1,60,1,0
1211,-200,4,2,2,40,0,0
9086,413.793103448276,4,2,1,60,1,0
9086,-200,4,2,2,40,0,0
10741,458.015267175573,4,2,1,30,1,0
12115,-100,4,2,1,5,0,0
12573,465.116279069767,4,2,1,60,1,0
12573,-100,4,2,2,30,0,0
14433,461.538461538462,4,2,2,30,1,0
17202,342.857142857143,4,2,1,30,1,0
17887,342.857142857143,4,2,1,60,1,0
28858,-200,4,2,1,60,0,0
29201,-200,4,2,2,40,0,0
39144,-200,4,2,1,50,0,0
39829,-100,4,2,1,60,0,0
50801,-133.333333333333,4,2,1,50,0,0
56287,-100,4,2,1,60,0,0
64515,-100,4,2,1,70,0,1
83029,-133.333333333333,4,2,1,60,0,1
83715,-100,4,2,1,60,0,0
94772,-100,4,2,1,30,0,0
97429,-100,4,2,1,5,0,0

[Colours]
Combo1 : 255,248,223
Combo2 : 227,255,227
Combo3 : 255,255,255
Combo4 : 254,231,234

[HitObjects]
457,195,1211,2,0,L|401:206,1,45
372,274,1586,2,0,P|331:261|279:256,1,90,4|0,0:0|0:0,0:0:0:0:
219,296,2148,1,0,0:0:0:0:
262,166,2336,2,0,P|260:122|255:73,1,90
195,27,2898,1,0,0:0:0:0:
155,132,3086,6,0,P|166:174|182:221,2,90,4|0|0,0:0|0:0|0:0,0:0:0:0:
288,57,4211,1,0,0:0:0:0:
82,32,4586,5,0,0:0:0:0:
4,194,4961,1,0,0:0:0:0:
114,335,5336,2,0,P|159:341|205:335,1,90
257,264,5898,1,0,0:0:0:0:
168,245,6086,6,0,P|163:202|168:155,1,90,4|0,0:0|0:0,0:0:0:0:
302,36,6836,2,0,P|307:79|302:126,1,90,4|0,0:0|0:0,0:0:0:0:
243,193,7398,1,0,0:0:0:0:
209,78,7586,6,0,P|167:68|119:73,2,90,0|0|4,0:0|0:0|0:0,0:0:0:0:
304,283,8711,1,0,0:0:0:0:
457,92,9086,6,0,L|449:144,1,45,0|0,0:0|0:0,0:0:0:0:
374,166,9499,2,0,P|330:165|283:168,2,90,0|4|0,0:0|0:0|0:0,0:0:0:0:
256,192,10741,12,0,12115,0:0:0:0:
257,193,12573,5,0,0:0:0:0:
257,193,13503,1,0,0:0:0:0:
257,193,14433,1,2,0:0:0:0:
32,191,17202,5,2,0:0:0:0:
47,207,17287,1,2,0:0:0:0:
66,218,17373,1,2,0:0:0:0:
88,223,17459,1,2,0:0:0:0:
110,221,17544,1,2,0:0:0:0:
131,213,17630,1,2,0:0:0:0:
149,200,17716,1,2,0:0:0:0:
162,181,17802,1,2,0:0:0:0:
169,160,17887,6,0,P|210:145|257:145,1,90,4|0,0:0|0:0,0:0:0:0:
278,39,18229,2,0,P|317:57|350:90,1,90,8|0,0:0|0:0,0:0:0:0:
256,290,18572,1,2,0:0:0:0:
322,204,18744,1,2,0:0:0:0:
449,302,18915,2,0,L|358:291,1,90,8|0,0:0|0:0,0:0:0:0:
311,265,19172,1,0,0:0:0:0:
311,265,19258,6,0,L|311:174,1,90,2|0,0:0|0:0,0:0:0:0:
454,53,19601,1,8,0:0:0:0:
383,109,19772,2,0,P|341:98|280:80,1,90,0|2,0:0|0:0,0:0:0:0:
165,22,20115,1,2,0:0:0:0:
256,150,20287,1,8,0:0:0:0:
347,22,20458,1,0,0:0:0:0:
172,109,20629,6,0,P|165:153|177:200,1,90,6|0,0:0|0:0,0:0:0:0:
321,209,20972,2,0,P|294:172|253:148,1,90,8|0,0:0|0:0,0:0:0:0:
140,261,21315,1,2,0:0:0:0:
172,109,21487,1,2,0:0:0:0:
232,238,21658,2,0,L|226:327,1,90,8|0,0:0|0:0,0:0:0:0:
140,261,22001,5,2,0:0:0:0:
262,287,22172,2,0,L|256:376,1,90,0|8,0:0|0:0,0:0:0:0:
140,261,22515,1,0,0:0:0:0:
211,205,22687,1,2,0:0:0:0:
183,336,22858,1,2,0:0:0:0:
59,283,23029,1,8,0:0:0:0:
59,283,23115,1,0,0:0:0:0:
59,283,23201,1,0,0:0:0:0:
59,283,23287,1,0,0:0:0:0:
59,283,23372,6,0,L|50:193,1,90,4|0,0:0|0:0,0:0:0:0:
145,61,23715,2,0,L|136:151,1,90,8|0,0:0|0:0,0:0:0:0:
52,55,24058,1,2,0:0:0:0:
52,55,24229,1,2,0:0:0:0:
172,117,24401,2,0,L|163:207,1,90,8|0,0:0|0:0,0:0:0:0:
246,313,24744,5,2,0:0:0:0:
273,328,24829,1,0,0:0:0:0:
304,332,24915,1,0,0:0:0:0:
334,324,25001,1,0,0:0:0:0:
359,306,25087,1,8,0:0:0:0:
420,216,25258,1,0,0:0:0:0:
301,244,25429,2,0,P|296:198|297:151,1,90,2|2,0:0|0:0,0:0:0:0:
396,33,25772,1,8,0:0:0:0:
396,33,25858,1,0,0:0:0:0:
396,33,25944,1,0,0:0:0:0:
396,33,26029,1,0,0:0:0:0:
396,33,26115,6,0,P|355:49|308:39,1,90,2|0,0:0|0:0,0:0:0:0:
97,52,26458,2,0,P|113:93|103:140,1,90,12|0,0:0|0:0,0:0:0:0:
107,351,26801,2,0,P|148:335|194:345,1,90,2|2,0:0|0:0,0:0:0:0:
323,382,27144,1,12,0:0:0:0:
262,282,27315,1,0,0:0:0:0:
262,282,27401,1,0,0:0:0:0:
262,282,27487,6,0,L|260:189,1,90,2|0,0:0|0:0,0:0:0:0:
346,113,27829,1,12,0:0:0:0:
346,113,28001,1,2,0:0:0:0:
450,222,28172,2,0,P|406:222|361:211,1,90,8|0,0:0|0:0,0:0:0:0:
257,45,28515,1,2,0:0:0:0:
257,45,28601,1,2,0:0:0:0:
257,45,28687,1,2,0:0:0:0:
257,45,28772,1,2,0:0:0:0:
257,45,28858,5,4,0:0:0:0:
158,108,29201,2,0,L|97:101,1,45
45,65,29544,2,0,P|54:107|60:157,1,90
132,312,30229,6,0,P|141:270|147:220,1,90
157,107,30744,1,0,0:0:0:0:
222,167,30915,2,0,L|316:160,1,90
444,282,31601,5,0,0:0:0:0:
287,370,31944,1,0,0:0:0:0:
367,208,32287,2,0,P|374:160|370:113,1,90
334,36,32801,1,0,0:0:0:0:
281,109,32972,6,0,B|241:106|241:106|236:84|214:66,1,90,2|0,0:0|0:0,0:0:0:0:
72,179,33658,2,0,B|112:176|112:176|117:154|139:136,1,90
200,201,34172,1,0,0:0:0:0:
149,295,34344,6,0,P|111:278|56:271,1,90
63,270,34858,1,0,0:0:0:0:
246,282,35029,2,0,P|276:249|288:204,1,90
256,28,35715,6,0,P|245:69|256:115,1,90
341,142,36229,1,0,0:0:0:0:
404,205,36401,2,0,P|415:246|404:292,1,90
350,363,36915,1,0,0:0:0:0:
350,363,37087,5,0,0:0:0:0:
491,190,37429,1,0,0:0:0:0:
350,21,37772,2,0,P|306:33|263:20,1,90
264,20,38287,1,0,0:0:0:0:
229,103,38458,6,0,B|236:143|236:143|220:168|216:202,2,90
350,21,39315,1,2,0:0:0:0:
359,197,39487,2,0,L|314:193,1,45,8|0,0:0|0:0,0:0:0:0:
139,150,39829,6,0,P|119:236|143:328,1,180,4|8,0:0|0:0,0:0:0:0:
237,372,40344,1,0,0:0:0:0:
250,146,40515,2,0,P|220:184|211:231,1,90,2|2,0:0|0:0,0:0:0:0:
318,319,40858,2,0,L|301:228,1,90,8|0,0:0|0:0,0:0:0:0:
351,21,41201,5,2,0:0:0:0:
373,126,41372,1,0,0:0:0:0:
269,92,41544,2,0,P|223:88|176:95,1,90,8|0,0:0|0:0,0:0:0:0:
154,120,41801,1,0,0:0:0:0:
154,120,41887,2,0,P|138:76|138:33,1,90,2|2,0:0|0:0,0:0:0:0:
228,175,42229,2,0,P|217:218|192:259,1,90,8|0,0:0|0:0,0:0:0:0:
94,300,42572,6,0,P|181:284|250:337,1,180,2|8,0:0|0:0,0:0:0:0:
249,336,43087,1,0,0:0:0:0:
375,185,43258,1,2,0:0:0:0:
345,288,43429,1,2,0:0:0:0:
273,207,43601,2,0,L|273:117,1,90,8|0,0:0|0:0,0:0:0:0:
371,71,43944,5,2,0:0:0:0:
371,71,44115,1,0,0:0:0:0:
239,245,44287,2,0,L|239:155,1,90,8|0,0:0|0:0,0:0:0:0:
371,71,44629,1,2,0:0:0:0:
291,10,44801,1,2,0:0:0:0:
455,48,44972,2,0,P|457:90|437:133,1,90,8|0,0:0|0:0,0:0:0:0:
406,151,45229,1,0,0:0:0:0:
406,151,45315,6,0,P|392:195|392:241,1,90,4|0,0:0|0:0,0:0:0:0:
307,145,45658,2,0,P|263:129|217:122,1,90,8|0,0:0|0:0,0:0:0:0:
64,193,46001,1,2,0:0:0:0:
124,103,46172,1,2,0:0:0:0:
234,211,46344,2,0,P|227:258|214:306,1,90,8|0,0:0|0:0,0:0:0:0:
124,103,46687,6,0,P|130:191|128:285,1,180,2|8,0:0|0:0,0:0:0:0:
86,372,47201,1,0,0:0:0:0:
218,298,47372,2,0,P|260:292|308:292,1,90,2|2,0:0|0:0,0:0:0:0:
210,217,47715,1,8,0:0:0:0:
86,372,47887,1,0,0:0:0:0:
6,263,48058,6,0,P|52:255|94:249,1,90,2|0,0:0|0:0,0:0:0:0:
210,217,48401,2,0,B|246:144|195:90|194:90|194:90|231:51,1,180,8|2,0:0|0:0,0:0:0:0:
225,57,48915,1,2,0:0:0:0:
138,161,49087,1,8,0:0:0:0:
133,26,49258,1,0,0:0:0:0:
253,86,49429,6,0,P|337:119|418:84,1,180,4|8,0:0|0:0,0:0:0:0:
415,86,49944,1,0,0:0:0:0:
443,286,50115,1,2,0:0:0:0:
497,192,50287,1,2,0:0:0:0:
415,86,50458,2,0,P|405:131|405:177,1,90,8|0,0:0|0:0,0:0:0:0:
443,286,50801,6,0,P|386:320|321:313,1,135.000005149842,4|2,0:0|0:0,0:0:0:0:
259,258,51315,1,0,0:0:0:0:
213,118,51487,2,0,P|197:149|191:181,1,67.5000025749208,8|0,0:0|0:0,0:0:0:0:
238,320,51829,2,0,P|253:290|259:257,1,67.5000025749208,2|0,0:0|0:0,0:0:0:0:
213,118,52172,6,0,P|197:149|191:181,1,67.5000025749208
238,320,52515,1,2,0:0:0:0:
238,320,52858,2,0,P|205:329|170:336,1,67.5000025749208,8|0,0:0|0:0,0:0:0:0:
359,215,53201,2,0,P|326:224|291:231,1,67.5000025749208
213,119,53544,5,2,0:0:0:0:
165,231,53715,1,0,0:0:0:0:
299,144,53887,2,0,P|301:110|291:75,1,67.5000025749208,2|0,0:0|0:0,0:0:0:0:
127,35,54229,2,0,P|125:69|135:104,1,67.5000025749208,8|0,0:0|0:0,0:0:0:0:
123,283,54572,2,0,P|148:260|166:228,1,67.5000025749208,2|0,0:0|0:0,0:0:0:0:
28,88,54915,6,0,P|50:154|89:205,1,135.000005149842,2|2,0:0|0:0,0:0:0:0:
214,119,55429,1,0,0:0:0:0:
204,233,55601,1,2,0:0:0:0:
135,141,55772,1,2,0:0:0:0:
135,141,55858,1,2,0:0:0:0:
135,141,55944,2,0,P|136:102|146:69,1,67.5000025749208,8|0,0:0|0:0,0:0:0:0:
204,233,56287,6,0,P|290:208|376:233,1,180,4|8,0:0|0:0,0:0:0:0:
374,232,56801,1,0,0:0:0:0:
430,140,56972,2,0,P|423:104|426:51,1,90,2|2,0:0|0:0,0:0:0:0:
485,229,57315,2,0,P|476:274|452:314,1,90,8|0,0:0|0:0,0:0:0:0:
345,317,57658,6,0,B|280:340|228:289|228:289|178:317,1,180,2|8,0:0|0:0,0:0:0:0:
182,314,58172,1,0,0:0:0:0:
297,238,58344,2,0,P|306:191|299:147,1,90,2|2,0:0|0:0,0:0:0:0:
170,93,58687,1,8,0:0:0:0:
199,196,58858,1,0,0:0:0:0:
273,118,59029,6,0,P|317:108|367:103,1,90,4|0,0:0|0:0,0:0:0:0:
377,192,59372,2,0,P|415:216|454:247,1,90,8|0,0:0|0:0,0:0:0:0:
288,367,59715,2,0,P|244:377|194:382,1,90,2|2,0:0|0:0,0:0:0:0:
184,293,60058,2,0,P|145:268|106:237,1,90,8|0,0:0|0:0,0:0:0:0:
164,49,60401,5,2,0:0:0:0:
83,133,60572,1,0,0:0:0:0:
197,158,60744,1,8,0:0:0:0:
184,274,60915,1,0,0:0:0:0:
291,226,61087,2,0,P|335:216|383:218,1,90,2|2,0:0|0:0,0:0:0:0:
466,355,61429,1,8,0:0:0:0:
466,355,61515,1,0,0:0:0:0:
466,355,61601,1,0,0:0:0:0:
466,355,61687,1,0,0:0:0:0:
466,355,61772,6,0,B|453:324|453:324|469:306|479:275,1,90,4|0,0:0|0:0,0:0:0:0:
346,309,62115,2,0,P|302:319|254:317,1,90,8|0,0:0|0:0,0:0:0:0:
197,157,62458,1,2,0:0:0:0:
292,226,62629,1,2,0:0:0:0:
292,226,62715,1,0,0:0:0:0:
292,226,62801,2,0,P|301:182|306:135,1,90,8|0,0:0|0:0,0:0:0:0:
176,22,63144,5,2,0:0:0:0:
230,115,63315,1,0,0:0:0:0:
284,21,63487,1,8,0:0:0:0:
137,107,63658,5,0,0:0:0:0:
288,185,63829,1,2,0:0:0:0:
176,22,64001,1,2,0:0:0:0:
93,200,64172,1,8,0:0:0:0:
93,200,64258,1,0,0:0:0:0:
93,200,64344,1,0,0:0:0:0:
93,200,64429,1,0,0:0:0:0:
93,200,64515,6,0,P|76:244|69:293,1,90,4|0,0:0|0:0,0:0:0:0:
238,222,64858,2,0,P|194:241|155:270,1,90,8|0,0:0|0:0,0:0:0:0:
327,333,65201,2,0,P|283:316|234:309,1,90,2|2,0:0|0:0,0:0:0:0:
69,285,65544,1,8,0:0:0:0:
24,167,65715,6,0,P|99:126|166:180,1,180,2|2,0:0|0:0,0:0:0:0:
197,300,66229,2,0,L|210:120,1,180,8|2,0:0|0:0,0:0:0:0:
283,212,66744,1,2,0:0:0:0:
161,326,66915,2,0,L|168:229,1,90,8|0,0:0|0:0,0:0:0:0:
282,70,67258,5,4,0:0:0:0:
190,142,67429,1,0,0:0:0:0:
283,212,67601,1,8,0:0:0:0:
192,286,67772,1,0,0:0:0:0:
351,263,67944,2,0,P|366:220|360:176,1,90,2|2,0:0|0:0,0:0:0:0:
282,70,68287,1,8,0:0:0:0:
351,263,68458,1,0,0:0:0:0:
195,230,68629,6,0,P|236:218|285:212,1,90,2|0,0:0|0:0,0:0:0:0:
415,332,68972,2,0,P|374:344|325:350,1,90,8|0,0:0|0:0,0:0:0:0:
195,230,69315,1,2,0:0:0:0:
185,337,69487,1,2,0:0:0:0:
351,263,69658,1,8,0:0:0:0:
351,263,69744,1,0,0:0:0:0:
351,263,69829,1,0,0:0:0:0:
351,263,69915,1,0,0:0:0:0:
351,263,70001,6,0,P|346:218|348:173,1,90,4|0,0:0|0:0,0:0:0:0:
407,82,70344,1,8,0:0:0:0:
407,82,70515,1,0,0:0:0:0:
426,208,70687,1,2,0:0:0:0:
300,219,70858,1,2,0:0:0:0:
349,376,71029,2,0,P|358:336|365:283,1,90,8|0,0:0|0:0,0:0:0:0:
474,224,71372,6,0,P|452:189|419:146,1,90,2|0,0:0|0:0,0:0:0:0:
300,219,71715,2,0,P|236:233|172:192,1,135,8|0,0:0|0:0,0:0:0:0:
161,168,72058,1,2,0:0:0:0:
167,293,72229,1,2,0:0:0:0:
246,154,72401,2,0,L|259:63,1,90,8|0,0:0|0:0,0:0:0:0:
290,48,72658,1,0,0:0:0:0:
290,48,72744,6,0,P|245:36|192:26,1,90,4|0,0:0|0:0,0:0:0:0:
95,46,73087,1,8,0:0:0:0:
0,175,73258,2,0,P|44:166|87:154,1,90,4|2,0:0|0:0,0:0:0:0:
246,153,73601,1,2,0:0:0:0:
246,153,73687,1,0,0:0:0:0:
246,153,73772,1,8,0:0:0:0:
186,334,73944,6,0,B|142:266|183:209|183:209|161:165,1,180,4|2,0:0|0:0,0:0:0:0:
250,268,74458,2,0,P|292:284|341:280,1,90,8|0,0:0|0:0,0:0:0:0:
475,159,74801,2,0,P|430:156|388:172,1,90,2|2,0:0|0:0,0:0:0:0:
454,280,75144,1,8,0:0:0:0:
450,262,75229,1,8,0:0:0:0:
446,244,75315,1,8,0:0:0:0:
351,93,75487,6,0,P|317:122|299:163,1,90,4|0,0:0|0:0,0:0:0:0:
299,357,75829,1,8,0:0:0:0:
361,268,76001,1,0,0:0:0:0:
253,269,76172,2,0,P|209:265|162:270,1,90,2|2,0:0|0:0,0:0:0:0:
299,357,76515,1,8,0:0:0:0:
262,189,76687,1,0,0:0:0:0:
204,350,76858,6,0,P|160:354|113:349,1,90,2|0,0:0|0:0,0:0:0:0:
299,357,77201,2,0,P|390:331|478:337,1,180,8|2,0:0|0:0,0:0:0:0:
299,357,77715,1,2,0:0:0:0:
362,237,77887,2,0,P|366:190|361:144,1,90,8|0,0:0|0:0,0:0:0:0:
161,95,78229,5,4,0:0:0:0:
258,29,78401,1,0,0:0:0:0:
279,191,78572,2,0,P|234:195|189:191,1,90,8|0,0:0|0:0,0:0:0:0:
312,104,78915,1,2,0:0:0:0:
374,203,79087,2,0,P|358:245|325:275,1,90,2|8,0:0|0:0,0:0:0:0:
189,191,79429,1,0,0:0:0:0:
189,191,79515,1,0,0:0:0:0:
189,191,79601,5,2,0:0:0:0:
214,304,79772,1,0,0:0:0:0:
279,192,79944,2,0,P|286:147|283:103,1,90,8|0,0:0|0:0,0:0:0:0:
123,40,80287,1,2,0:0:0:0:
209,118,80458,1,2,0:0:0:0:
119,192,80629,1,8,0:0:0:0:
209,267,80801,1,0,0:0:0:0:
209,267,80887,1,0,0:0:0:0:
209,267,80972,6,0,L|299:255,1,90,6|0,0:0|0:0,0:0:0:0:
351,83,81315,1,8,0:0:0:0:
403,198,81487,1,0,0:0:0:0:
371,319,81658,1,2,0:0:0:0:
357,321,81744,1,2,0:0:0:0:
344,323,81829,1,2,0:0:0:0:
330,325,81915,1,2,0:0:0:0:
317,327,82001,1,2,0:0:0:0:
304,329,82087,1,2,0:0:0:0:
290,331,82172,1,2,0:0:0:0:
277,333,82258,1,2,0:0:0:0:
264,335,82344,5,2,0:0:0:0:
318,164,82515,1,2,0:0:0:0:
458,276,82687,1,2,0:0:0:0:
458,276,83029,2,0,P|390:263|316:258,1,135.000005149842,0|4,0:0|0:0,0:0:0:0:
71,354,83715,6,0,L|62:259,1,90,4|0,0:0|0:0,0:0:0:0:
142,191,84058,1,8,0:0:0:0:
142,191,84229,1,0,0:0:0:0:
34,308,84401,2,0,L|25:213,1,90,2|2,0:0|0:0,0:0:0:0:
105,97,84744,1,8,0:0:0:0:
231,165,84915,1,0,0:0:0:0:
231,165,85001,1,0,0:0:0:0:
231,165,85087,6,0,P|281:160|322:154,1,90,2|0,0:0|0:0,0:0:0:0:
456,64,85429,1,8,0:0:0:0:
444,171,85601,1,0,0:0:0:0:
444,171,85687,1,0,0:0:0:0:
444,171,85772,2,0,P|438:214|436:265,1,90,2|2,0:0|0:0,0:0:0:0:
327,257,86115,2,0,P|277:262|236:268,1,90,8|0,0:0|0:0,0:0:0:0:
100,194,86458,5,2,0:0:0:0:
155,286,86629,1,0,0:0:0:0:
231,165,86801,2,0,P|237:118|241:74,1,90,8|0,0:0|0:0,0:0:0:0:
80,27,87144,1,2,0:0:0:0:
153,106,87315,1,2,0:0:0:0:
230,30,87487,2,0,P|279:23|323:20,1,90,8|0,0:0|0:0,0:0:0:0:
441,76,87829,5,2,0:0:0:0:
471,208,88001,1,0,0:0:0:0:
360,285,88172,1,8,0:0:0:0:
235,232,88344,2,0,B|165:198|110:252|110:252|80:209,1,180,2|2,0:0|0:0,0:0:0:0:
185,306,88858,1,8,0:0:0:0:
254,150,89029,1,0,0:0:0:0:
360,285,89201,5,4,0:0:0:0:
235,232,89372,1,0,0:0:0:0:
344,151,89544,2,0,P|352:107|354:60,1,90,8|0,0:0|0:0,0:0:0:0:
459,146,89887,1,2,0:0:0:0:
459,146,90058,1,2,0:0:0:0:
369,246,90229,2,0,P|326:235|278:231,1,90,8|0,0:0|0:0,0:0:0:0:
53,251,90572,6,0,P|46:204|42:152,1,90,2|0,0:0|0:0,0:0:0:0:
85,62,90915,1,8,0:0:0:0:
160,216,91087,2,0,P|156:260|149:305,1,90,0|2,0:0|0:0,0:0:0:0:
54,251,91429,1,2,0:0:0:0:
147,129,91601,2,0,P|191:121|237:117,1,90,8|0,0:0|0:0,0:0:0:0:
460,146,91944,5,2,0:0:0:0:
328,223,92115,1,0,0:0:0:0:
404,355,92287,2,0,P|413:309|419:266,1,90,12|0,0:0|0:0,0:0:0:0:
369,122,92629,1,2,0:0:0:0:
291,312,92801,2,0,P|246:308|201:300,1,90,2|12,0:0|0:0,0:0:0:0:
148,129,93144,1,0,0:0:0:0:
148,129,93229,1,0,0:0:0:0:
148,129,93315,5,2,0:0:0:0:
74,253,93487,1,0,0:0:0:0:
151,375,93658,2,0,P|178:340|203:294,1,90,12|0,0:0|0:0,0:0:0:0:
43,143,94001,1,8,0:0:0:0:
74,253,94172,1,2,0:0:0:0:
183,211,94344,1,8,0:0:0:0:
212,200,94429,1,8,0:0:0:0:
241,189,94515,1,8,0:0:0:0:
270,178,94601,1,8,0:0:0:0:
299,167,94687,1,4,0:0:0:0:
256,192,94772,12,0,97429,0:0:0:0:
