osu file format v12

[General]
AudioFilename: kanransha.mp3
AudioLeadIn: 0
PreviewTime: 64387
Countdown: 0
SampleSet: Soft
StackLeniency: 0.7
Mode: 0
LetterboxInBreaks: 0
WidescreenStoryboard: 1

[Editor]
DistanceSpacing: 1.2
BeatDivisor: 4
GridSize: 4

[Metadata]
Title:Kanransha ~ Anohi to Kinou to Kyou to Ashita to ~
TitleUnicode:観覧車~あの日と、昨日と今日と明日と~
Artist:Duca
ArtistUnicode:Duca
Creator:Laurier
Version:Easy
Source:Meguru Kisetsu no Yakusoku to Tsunaida Sono Te no Nukumori to
Tags:dandelion pota-row Oyatsu
BeatmapID:300133
BeatmapSetID:114483

[Difficulty]
HPDrainRate:2
CircleSize:3
OverallDifficulty:2
ApproachRate:3
SliderMultiplier:0.799999999999999
SliderTickRate:1

[Events]
//Background and Video events
0,0,"BG.jpg",0,0
Video,0,"movie.flv"
//Break Periods
//Storyboard Layer 0 (Background)
//Storyboard Layer 1 (Fail)
//Storyboard Layer 2 (Pass)
//Storyboard Layer 3 (Foreground)
//Storyboard Sound Samples
//Background Colour Transformations
3,100,163,162,255

[TimingPoints]
86,375,4,2,2,60,1,0
1211,-100,4,2,2,40,0,0
9086,413.793103448276,4,2,1,60,1,0
9086,-100,4,2,2,40,0,0
10741,458.015267175573,4,2,1,30,1,0
12115,-100,4,2,1,5,0,0
12573,465.116279069767,4,2,1,60,1,0
12573,-100,4,2,2,30,0,0
14433,461.538461538462,4,2,2,30,1,0
17202,342.857142857143,4,2,1,30,1,0
17887,342.857142857143,4,2,1,60,1,0
18144,-100,4,2,3,60,0,0
18315,-100,4,2,1,60,0,0
19515,-100,4,2,3,60,0,0
19687,-100,4,2,1,60,0,0
22258,-100,4,2,3,60,0,0
22429,-100,4,2,1,60,0,0
25001,-100,4,2,3,60,0,0
25172,-100,4,2,1,60,0,0
27744,-100,4,2,3,60,0,0
27915,-100,4,2,1,60,0,0
28087,-100,4,2,3,60,0,0
28258,-100,4,2,1,60,0,0
28858,-100,4,2,1,60,0,0
29029,-100,4,2,2,40,0,0
39144,-100,4,2,1,50,0,0
39829,-100,4,2,1,60,0,0
40087,-100,4,2,3,60,0,0
40258,-100,4,2,1,60,0,0
42829,-100,4,2,3,60,0,0
43001,-100,4,2,1,60,0,0
44201,-100,4,2,3,60,0,0
44372,-100,4,2,1,60,0,0
46944,-100,4,2,3,60,0,0
47115,-100,4,2,1,60,0,0
48315,-100,4,2,3,60,0,0
48487,-100,4,2,1,60,0,0
49687,-100,4,2,3,60,0,0
49858,-100,4,2,1,60,0,0
50801,-100,4,2,1,50,0,0
56287,-100,4,2,1,60,0,0
57229,-100,4,2,3,60,0,0
57401,-100,4,2,1,60,0,0
59287,-100,4,2,3,60,0,0
59458,-100,4,2,1,60,0,0
62029,-100,4,2,3,60,0,0
62201,-100,4,2,1,60,0,0
62715,-100,4,2,3,60,0,0
62887,-100,4,2,1,60,0,0
64515,-100,4,2,1,70,0,1
65458,-100,4,2,3,70,0,1
65629,-100,4,2,1,70,0,1
67515,-100,4,2,3,70,0,1
67687,-100,4,2,1,70,0,1
68887,-100,4,2,3,70,0,1
69058,-100,4,2,1,70,0,1
75744,-100,4,2,3,70,0,1
75915,-100,4,2,1,70,0,1
77115,-100,4,2,3,70,0,1
77287,-100,4,2,1,70,0,1
78487,-100,4,2,3,70,0,1
78658,-100,4,2,1,70,0,1
79858,-100,4,2,3,70,0,1
80029,-100,4,2,1,70,0,1
83029,-100,4,2,1,60,0,1
83715,-100,4,2,1,60,0,0
83972,-100,4,2,3,60,0,0
84144,-100,4,2,1,60,0,0
84658,-100,4,2,3,60,0,0
84829,-100,4,2,1,60,0,0
87401,-100,4,2,3,60,0,0
87572,-100,4,2,1,60,0,0
89458,-100,4,2,3,60,0,0
89629,-100,4,2,1,60,0,0
92201,-100,4,2,3,60,0,0
92372,-100,4,2,1,60,0,0
94772,-100,4,2,1,30,0,0
97429,-100,4,2,1,5,0,0

[Colours]
Combo1 : 255,248,223
Combo2 : 227,255,227
Combo3 : 255,255,255
Combo4 : 254,231,234

[HitObjects]
44,192,1211,1,0,0:0:0:0:
108,263,1586,2,0,P|184:286|260:253,1,160,4|0,0:0|0:0,0:0:0:0:
309,72,3086,6,0,P|238:109|208:186,2,160,4|0|0,0:0|0:0|0:0,0:0:0:0:
458,193,5336,1,0,0:0:0:0:
327,333,6086,6,0,L|311:172,1,160,4|4,0:0|0:0,0:0:0:0:
449,40,7586,2,0,P|377:67|294:35,1,160
127,47,9086,6,0,L|141:211,2,160,0|4|0,0:0|0:0|0:0,0:0:0:0:
475,192,12573,6,0,P|398:171|319:193,2,160,0|4|2,0:0|0:0|0:0,0:0:0:0:
68,341,17887,6,0,P|112:280|90:199,1,160,4|2,0:0|0:0,0:0:0:0:
139,118,18915,1,8,0:0:0:0:
211,180,19258,6,0,P|288:161|369:155,1,160,2|2,0:0|0:0,0:0:0:0:
445,212,20287,1,8,0:0:0:0:
447,116,20629,6,0,L|460:29,2,79.9999999999999,4|8|2,0:0|0:0|0:0,0:0:0:0:
486,304,22001,6,0,P|409:286|327:284,1,160,2|2,0:0|0:0,0:0:0:0:
260,351,23029,1,8,0:0:0:0:
226,260,23372,6,0,P|220:217|219:178,1,79.9999999999999,4|8,0:0|0:0,0:0:0:0:
313,200,24058,2,0,P|311:160|305:120,1,79.9999999999999,2|8,0:0|0:0,0:0:0:0:
218,79,24744,6,0,P|144:106|63:82,1,160,2|2,0:0|0:0,0:0:0:0:
38,176,25772,1,8,0:0:0:0:
130,200,26115,6,0,P|114:231|81:266,1,79.9999999999999,2|12,0:0|0:0,0:0:0:0:
101,358,26801,1,2,0:0:0:0:
196,346,27144,1,12,0:0:0:0:
232,257,27487,6,0,P|336:203|440:256,1,240
489,172,28858,6,0,P|517:100|474:35,1,160,4|0,0:0|0:0,0:0:0:0:
378,36,29887,1,0,0:0:0:0:
312,105,30229,6,0,P|272:96|232:82,1,79.9999999999999
139,71,30915,2,0,P|148:111|162:151,1,79.9999999999999
234,209,31601,6,0,P|169:247|96:216,1,160
253,326,32972,6,0,P|318:288|391:319,1,160,2|0,0:0|0:0,0:0:0:0:
471,265,34001,1,0,0:0:0:0:
399,200,34344,6,0,B|379:139|418:85|418:85|391:55,1,160
258,194,35715,6,0,B|278:255|239:309|239:309|266:339,1,160
360,330,36744,2,0,P|403:325|451:326,1,79.9999999999999
165,237,38115,5,0,0:0:0:0:
191,144,38458,2,0,P|198:98|201:64,1,79.9999999999999
107,86,39144,2,0,P|61:79|27:76,1,79.9999999999999,0|2,0:0|0:0,0:0:0:0:
43,170,39829,6,0,B|56:237|16:276|16:276|37:321,1,160,4|2,0:0|0:0,0:0:0:0:
121,359,40858,1,8,0:0:0:0:
203,309,41201,6,0,P|241:300|283:296,1,79.9999999999999,2|8,0:0|0:0,0:0:0:0:
375,315,41887,2,0,P|371:275|362:236,1,79.9999999999999,2|8,0:0|0:0,0:0:0:0:
287,175,42572,6,0,P|360:204|430:160,1,160,2|2,0:0|0:0,0:0:0:0:
352,103,43601,1,8,0:0:0:0:
275,44,43944,6,0,P|202:15|132:59,1,160,2|2,0:0|0:0,0:0:0:0:
42,74,44972,2,0,P|54:113|54:152,1,79.9999999999999,8|4,0:0|0:0,0:0:0:0:
34,246,45658,5,8,0:0:0:0:
87,325,46001,1,2,0:0:0:0:
182,328,46344,1,8,0:0:0:0:
231,245,46687,6,0,B|257:211|257:211|310:241|370:211,1,160,2|2,0:0|0:0,0:0:0:0:
313,132,47715,1,8,0:0:0:0:
223,98,48058,6,0,P|150:129|77:95,1,160,2|0,0:0|0:0,0:0:0:0:
47,188,49087,1,8,0:0:0:0:
121,248,49429,6,0,P|194:217|267:251,1,160,4|8,0:0|0:0,0:0:0:0:
370,87,50801,5,4,0:0:0:0:
439,266,51487,2,0,P|405:294|370:317,1,79.9999999999999,8|2,0:0|0:0,0:0:0:0:
326,230,52172,2,0,P|283:166|281:86,1,160,0|8,0:0|0:0,0:0:0:0:
121,192,53544,6,0,P|119:270|76:336,1,160,2|8,0:0|0:0,0:0:0:0:
164,374,54572,1,2,0:0:0:0:
218,295,54915,6,0,P|264:288|309:285,1,79.9999999999999,0|2,0:0|0:0,0:0:0:0:
393,286,55601,2,0,P|408:246|418:202,1,79.9999999999999,0|12,0:0|0:0,0:0:0:0:
420,113,56287,5,0,0:0:0:0:
327,92,56629,1,8,0:0:0:0:
267,167,56972,6,0,P|193:187|125:138,1,160,2|2,0:0|0:0,0:0:0:0:
208,89,58001,1,8,0:0:0:0:
121,47,58344,2,0,P|81:60|52:89,1,79.9999999999999,2|8,0:0|0:0,0:0:0:0:
38,180,59029,6,0,P|57:258|17:329,1,160,4|2,0:0|0:0,0:0:0:0:
104,374,60058,1,8,0:0:0:0:
145,287,60401,6,0,P|185:277|236:275,1,79.9999999999999,2|8,0:0|0:0,0:0:0:0:
302,219,61087,2,0,P|312:259|314:310,1,79.9999999999999,0|8,0:0|0:0,0:0:0:0:
406,326,61772,6,0,P|403:245|379:166,2,160,2|2|2,0:0|0:0|0:0,0:0:0:0:
274,186,63829,2,0,P|235:174|192:164,1,79.9999999999999,0|4,0:0|0:0,0:0:0:0:
118,220,64515,6,0,P|110:181|107:135,1,79.9999999999999,4|8,0:0|0:0,0:0:0:0:
175,72,65201,2,0,P|239:55|337:45,1,160,2|2,0:0|0:0,0:0:0:0:
421,79,66229,5,8,0:0:0:0:
359,152,66572,1,2,0:0:0:0:
452,173,66915,1,8,0:0:0:0:
389,246,67258,6,0,P|325:263|227:273,1,160,2|2,0:0|0:0,0:0:0:0:
154,216,68287,1,8,0:0:0:0:
92,142,68629,6,0,P|59:212|86:286,1,160,2|2,0:0|0:0,0:0:0:0:
154,216,69658,1,12,0:0:0:0:
182,119,70001,6,0,P|161:83|126:56,2,79.9999999999999,2|8|2,0:0|0:0|0:0,0:0:0:0:
257,178,71029,1,8,0:0:0:0:
330,118,71372,6,0,P|349:84|380:58,1,79.9999999999999,2|8,0:0|0:0,0:0:0:0:
421,144,72058,6,0,P|435:224|425:305,1,160,2|4,0:0|0:0,0:0:0:0:
377,301,72915,2,0,P|348:330|315:357,1,79.9999999999999,2|4,0:0|0:0,0:0:0:0:
257,272,73601,1,2,0:0:0:0:
200,194,73944,6,0,P|155:177|63:165,1,120,2|8,0:0|0:0,0:0:0:0:
130,81,74801,2,0,P|169:75|220:60,1,79.9999999999999,8|8,0:0|0:0,0:0:0:0:
302,47,75487,6,0,P|381:39|461:44,1,160,4|2,0:0|0:0,0:0:0:0:
462,140,76515,1,8,0:0:0:0:
368,161,76858,6,0,P|365:242|385:319,1,160,2|2,0:0|0:0,0:0:0:0:
298,361,77887,1,8,0:0:0:0:
246,280,78229,6,0,P|170:262|91:289,1,160,2|2,0:0|0:0,0:0:0:0:
25,218,79258,1,8,0:0:0:0:
45,124,79601,6,0,P|121:142|200:115,1,160,2|2,0:0|0:0,0:0:0:0:
268,52,80629,1,8,0:0:0:0:
274,147,80972,6,0,P|247:179|206:200,1,79.9999999999999,2|8,0:0|0:0,0:0:0:0:
266,278,81658,2,0,P|300:297|325:328,1,79.9999999999999,2|8,0:0|0:0,0:0:0:0:
391,258,82344,6,0,P|396:183|415:93,1,160,2|0,0:0|0:0,0:0:0:0:
338,39,83372,1,0,0:0:0:0:
256,89,83715,6,0,B|195:112|146:65|146:65|113:101,2,160,4|2|2,0:0|0:0|0:0,0:0:0:0:
305,171,85429,1,8,0:0:0:0:
211,190,85772,2,0,P|197:228|186:270,1,79.9999999999999,2|8,0:0|0:0,0:0:0:0:
125,340,86458,6,0,P|163:354|205:365,1,79.9999999999999,4|8,0:0|0:0,0:0:0:0:
288,323,87144,2,0,P|366:304|448:319,1,160,2|2,0:0|0:0,0:0:0:0:
463,223,88172,2,0,P|465:182|468:139,2,79.9999999999999,8|2|8,0:0|0:0|0:0,0:0:0:0:
370,195,89201,6,0,P|292:214|210:199,1,160,4|2,0:0|0:0,0:0:0:0:
149,130,90229,1,8,0:0:0:0:
242,109,90572,6,0,P|249:66|254:27,1,79.9999999999999,2|8,0:0|0:0,0:0:0:0:
157,36,91258,2,0,P|114:29|75:23,1,79.9999999999999,2|8,0:0|0:0,0:0:0:0:
44,114,91944,6,0,P|67:191|38:269,1,160,2|2,0:0|0:0,0:0:0:0:
102,338,92972,1,12,0:0:0:0:
147,253,93315,6,0,P|185:246|230:238,1,79.9999999999999,2|8,0:0|0:0,0:0:0:0:
301,298,94001,2,0,P|381:298|462:267,1,160,8|4,0:0|0:0,0:0:0:0:
256,192,94858,12,0,97429,0:0:0:0:
