osu file format v14

[General]
AudioFilename: KiokuHajimari.mp3
AudioLeadIn: 1000
PreviewTime: 70881
Countdown: 0
SampleSet: Soft
StackLeniency: 0.7
Mode: 0
LetterboxInBreaks: 0
WidescreenStoryboard: 0

[Editor]
Bookmarks: 17125,30097,40476,50854,61233,71611,94962,107611,115070
DistanceSpacing: 1
BeatDivisor: 4
GridSize: 4
TimelineZoom: 1

[Metadata]
Title:Hajimari Kioku
TitleUnicode:記憶×ハジマリ
Artist:Duca
ArtistUnicode:Duca
Creator:Meg
Version:Insane
Source:恋×シンアイ彼女
Tags:KOI-KAKERU SHIN-AI KANOJO Koi Kakeru Shinai iyasine Momovely ShiraKai kaCha iMage-- eroge Us:track opening
BeatmapID:774758
BeatmapSetID:351528

[Difficulty]
HPDrainRate:6
CircleSize:4
OverallDifficulty:8
ApproachRate:9
SliderMultiplier:1.7
SliderTickRate:1

[Events]
//Background and Video events
Video,0,"KiokuHajimariMOVIE.avi"
0,0,"BG2.png",0,0
//Break Periods
//Storyboard Layer 0 (Background)
//Storyboard Layer 1 (Fail)
//Storyboard Layer 2 (Pass)
//Storyboard Layer 3 (Foreground)
//Storyboard Sound Samples

[TimingPoints]
486,348.837209302326,4,2,2,50,1,0
486,-200,4,2,2,50,0,0
15834,324.324324324324,4,2,2,50,1,0
15834,-200,4,2,2,50,0,0
17050,-200,4,2,2,20,0,0
17125,324.324324324324,4,2,2,60,1,0
29773,-133.333333333333,4,2,2,50,0,0
40476,-100,4,2,1,60,0,0
50854,-200,4,2,2,60,0,0
61233,-133.333333333333,4,3,15,60,0,0
63827,-133.333333333333,4,2,2,60,0,0
63908,-133.333333333333,4,3,15,60,0,0
66422,-100,4,2,1,60,0,0
70962,-100,4,2,2,60,0,0
71611,-90.9090909090909,4,2,1,80,0,1
94962,-100,4,2,2,70,0,0
106638,-83.3333333333333,4,2,2,70,0,0
109233,-100,4,2,1,60,0,0
110530,-100,4,2,1,50,0,0
111827,-100,4,2,1,40,0,0
113124,-100,4,2,1,30,0,0
113773,-100,4,2,1,20,0,0
114422,-100,4,2,1,10,0,0
115070,-100,4,2,1,5,0,0

[Colours]
Combo1 : 184,113,255
Combo2 : 255,128,192
Combo3 : 192,133,133
Combo4 : 255,255,128

[HitObjects]
323,93,486,6,0,P|321:135|308:175,2,85,0|0|2,0:0|0:0|0:0,0:0:0:0:
192,52,1881,2,0,L|107:58,1,85
52,160,2579,2,0,L|136:153,1,85
48,336,3276,6,0,P|34:295|32:253,2,85,0|0|2,0:0|0:0|0:0,0:0:0:0:
193,303,4672,2,0,B|236:280|272:292|272:292|304:328|351:316,1,170
440,264,5718,1,0,0:0:0:0:
440,264,6067,6,0,L|443:179,1,85
448,76,6765,1,2,0:0:0:0:
208,148,7462,2,0,L|377:131,1,170
136,71,8858,6,0,P|103:148|138:223,1,170,0|2,0:0|0:0,0:0:0:0:
304,304,10253,2,0,P|261:302|220:311,1,85,0|2,0:0|0:0,0:0:0:0:
176,200,10951,2,0,P|218:198|259:207,1,85,2|0,0:0|0:0,0:0:0:0:
364,216,11648,5,0,0:0:0:0:
220,311,12346,1,2,0:0:0:0:
100,184,13044,2,0,P|69:262|84:344,1,170
296,240,14439,6,0,L|281:70,1,170,0|2,0:0|0:0,0:0:0:0:
281,70,15834,6,0,P|252:176|308:81,1,318.75
274,126,17125,6,0,L|358:118,1,85,6|0,0:0|0:0,0:0:0:0:
224,208,17449,1,8,0:0:0:0:
164,60,17611,1,0,0:0:0:0:
311,243,17773,2,0,P|290:280|253:300,1,85
68,248,18097,2,0,P|109:240|151:242,1,85,8|0,0:0|0:0,0:0:0:0:
296,168,18422,6,0,L|286:83,1,85,2|0,0:0|0:0,0:0:0:0:
396,196,18746,1,8,0:0:0:0:
204,248,18908,1,0,0:0:0:0:
396,300,19070,2,0,L|480:303,1,85,2|0,0:3|0:0,0:0:0:0:
411,114,19395,2,0,P|396:153|395:195,1,85,10|0,0:0|0:0,0:0:0:0:
260,363,19719,6,0,P|273:284|203:247,1,170,2|8,0:0|0:0,0:0:0:0:
48,188,20206,1,0,0:0:0:0:
136,120,20368,1,0,0:0:0:0:
100,284,20530,1,0,0:0:0:0:
34,78,20692,1,8,0:0:0:0:
4,216,20854,1,0,0:0:0:0:
180,91,21016,6,0,P|222:87|263:96,1,85,2|0,0:0|0:0,0:0:0:0:
216,196,21341,1,8,0:0:0:0:
424,144,21503,2,0,P|381:139|340:148,1,85,2|0,0:0|0:0,0:0:0:0:
388,248,21827,1,0,0:0:0:0:
260,364,21989,2,0,L|267:279,1,85,10|0,0:0|0:0,0:0:0:0:
424,144,22314,6,0,L|409:313,1,170,2|8,0:0|0:0,0:0:0:0:
304,160,22800,1,0,0:0:0:0:
492,175,22962,2,0,P|498:134|482:95,1,85
235,128,23287,2,0,P|228:169|244:208,1,85,8|0,0:0|0:0,0:0:0:0:
356,88,23611,6,0,L|363:3,1,85,2|0,0:0|0:0,0:0:0:0:
376,232,23935,1,8,0:0:0:0:
272,56,24097,1,0,0:0:0:0:
112,183,24260,2,0,P|154:189|196:184,1,85,2|0,0:3|0:0,0:0:0:0:
32,24,24584,2,0,L|35:108,1,85,10|0,0:0|0:0,0:0:0:0:
220,256,24908,6,0,P|271:194|239:120,1,170,2|8,0:0|0:0,0:0:0:0:
32,284,25395,1,0,0:0:0:0:
112,183,25557,2,0,P|154:177|196:182,1,85
312,360,25881,2,0,P|306:317|312:275,1,85,8|0,0:0|0:0,0:0:0:0:
476,176,26206,6,0,B|412:192|368:144|368:144|349:158|321:165,1,170,2|8,0:0|0:0,0:0:0:0:
444,84,26692,1,0,0:0:0:0:
436,257,26854,2,0,P|441:299|436:341,1,85
237,165,27179,2,0,P|279:170|321:165,1,85,8|0,0:0|0:0,0:0:0:0:
168,80,27503,6,0,B|112:124|128:192|128:192|93:195|87:204,1,170,2|8,0:0|0:0,0:0:0:0:
124,304,27989,1,8,0:0:0:0:
237,165,28152,1,8,0:0:0:0:
56,140,28314,1,8,0:0:0:0:
240,284,28476,1,8,0:0:0:0:
273,53,28638,1,8,0:0:0:0:
160,228,28800,6,0,L|163:312,1,85,10|0,0:0|0:0,0:0:0:0:
136,120,29124,1,0,0:0:0:0:
352,144,29287,6,0,L|348:228,1,85,10|0,0:0|0:0,0:0:0:0:
376,36,29611,1,0,0:0:0:0:
256,276,29773,5,14,0:0:0:0:
256,276,30422,2,0,P|287:268|319:266,1,63.7500024318696,2|2,0:0|0:0,0:0:0:0:
424,304,30746,1,0,0:0:0:0:
484,208,30908,2,0,L|486:144,1,63.7500024318696,0|2,0:0|0:0,0:0:0:0:
368,108,31233,6,0,L|382:234,1,127.500004863739
256,160,31719,2,0,P|193:152|133:174,2,127.500004863739,2|0|2,0:0|0:0|0:0,0:0:0:0:
296,280,32692,6,0,L|275:340,1,63.7500024318696
112,256,33016,1,2,0:0:0:0:
204,256,33179,2,0,P|207:192|193:130,1,127.500004863739,2|0,0:0|0:0,0:0:0:0:
276,56,33665,2,0,L|338:46,1,63.7500024318696,2|0,0:0|0:0,0:0:0:0:
168,64,33989,6,0,L|105:54,1,63.7500024318696,2|0,0:0|0:0,0:0:0:0:
32,116,34314,1,2,0:0:0:0:
147,188,34476,2,0,P|207:168|264:192,1,127.500004863739,2|0,0:0|0:0,0:0:0:0:
121,319,34962,2,0,L|111:255,1,63.7500024318696,2|0,0:0|0:0,0:0:0:0:
204,256,35287,5,0,0:0:0:0:
304,132,35611,2,0,B|388:120|388:120|424:141,2,127.500004863739,2|0|2,0:0|0:0|0:0,0:0:0:0:
216,180,36422,6,0,P|204:118|230:61,1,127.500004863739
368,44,36908,2,0,L|430:55,1,63.7500024318696,0|2,0:0|0:0,0:0:0:0:
487,130,37233,2,0,L|424:141,1,63.7500024318696
368,216,37557,2,0,L|430:227,1,63.7500024318696,2|0,0:0|0:0,0:0:0:0:
487,302,37881,6,0,B|444:328|404:316|404:316|384:320|376:343,1,127.500004863739
219,284,38368,2,0,P|251:280|282:287,1,63.7500024318696,2|0,0:0|0:0,0:0:0:0:
128,344,38692,2,0,L|118:281,2,63.7500024318696,0|2|0,0:0|0:0|0:0,0:0:0:0:
163,208,39179,6,0,P|170:149|114:134,1,127.500004863739
28,160,39665,1,2,0:0:0:0:
80,232,39827,1,2,0:0:0:0:
163,208,39989,1,2,0:0:0:0:
239,250,40152,1,2,0:0:0:0:
225,338,40314,1,2,0:0:0:0:
253,162,40476,6,0,L|241:77,1,85,6|0,0:0|0:0,0:0:0:0:
436,76,40800,2,0,B|376:88|316:56|316:56|322:101,1,170,2|2,0:0|0:0,0:0:0:0:
408,248,41287,1,0,0:0:0:0:
323,262,41449,2,0,L|238:249,1,85,2|0,0:0|0:0,0:0:0:0:
337,353,41773,6,0,L|352:184,2,170,2|2|2,0:0|0:0|0:0,0:0:0:0:
472,240,42584,1,0,0:0:0:0:
495,340,42746,2,0,P|453:342|415:325,1,85,2|0,0:0|0:0,0:0:0:0:
267,195,43070,6,0,L|352:184,1,85,2|0,0:0|0:0,0:0:0:0:
176,192,43395,1,2,0:0:0:0:
316,100,43557,1,0,0:0:0:0:
325,267,43719,2,0,P|332:308|326:350,1,85,2|0,0:0|0:0,0:0:0:0:
176,275,44043,2,0,P|168:233|175:191,1,85,2|0,0:0|0:0,0:0:0:0:
112,128,44368,6,0,L|28:144,1,85,2|0,0:0|0:0,0:0:0:0:
32,260,44692,1,2,0:0:0:0:
195,164,44854,2,0,P|204:122|195:81,1,85,0|2,0:0|0:0,0:0:0:0:
108,224,45179,1,0,0:0:0:0:
204,272,45341,2,0,L|288:261,1,85,2|0,0:0|0:0,0:0:0:0:
448,152,45665,6,0,L|279:174,1,170,2|2,0:0|0:0,0:0:0:0:
260,336,46152,1,0,0:0:0:0:
208,196,46314,2,0,P|207:153|228:117,1,85,2|0,0:0|0:0,0:0:0:0:
364,256,46638,2,0,L|356:340,1,85,2|0,3:2|0:0,0:0:0:0:
127,300,46962,6,0,P|161:275|203:271,1,85,2|0,0:0|0:0,0:0:0:0:
376,159,47287,2,0,P|342:184|300:188,1,85,2|0,0:0|0:0,0:0:0:0:
211,68,47611,2,0,L|207:195,1,127.5,2|0,0:0|0:0,0:0:0:0:
208,196,47935,1,2,3:2:0:0:
308,88,48097,1,0,0:0:0:0:
127,160,48260,6,0,P|48:141|12:64,1,170,2|2,0:0|0:0,0:0:0:0:
111,64,48746,1,0,0:0:0:0:
208,196,48908,2,0,P|201:238|192:279,1,85,2|0,0:0|0:0,0:0:0:0:
40,344,49233,2,0,P|30:302|24:260,1,85,2|0,0:0|0:0,0:0:0:0:
120,224,49557,6,0,P|203:241|288:243,1,170,2|2,0:0|0:0,0:0:0:0:
492,216,50043,1,0,0:0:0:0:
408,188,50206,2,0,L|396:103,1,85,2|0,0:0|0:0,0:0:0:0:
372,271,50530,2,0,L|383:355,1,85,8|0,3:0|0:0,0:0:0:0:
276,320,50854,6,0,B|224:320|204:280|204:280|188:296|156:304|156:304|96:276|96:276|143:272,1,255,4|0,0:2|0:0,0:0:0:0:
268,248,52152,2,0,B|284:212|284:212|252:148|293:88,1,170,0|2,0:0|0:0,0:0:0:0:
376,160,53124,1,0,0:0:0:0:
204,208,53449,6,0,B|176:220|176:220|121:216,2,85,2|0|0,0:3|0:0|0:0,0:0:0:0:
40,152,54422,2,0,L|66:118,1,42.5
48,44,54746,2,0,B|72:79|72:79|52:204,1,170,2|2,0:0|0:0,0:0:0:0:
272,356,56043,6,0,B|264:336|268:313|268:313|236:345|192:348|153:318,1,170,0|2,0:0|0:0,0:0:0:0:
184,63,57016,2,0,P|177:84|176:105,1,42.5
228,160,57341,2,0,B|256:216|208:268|208:268|184:256|168:234,1,170,0|2,0:0|0:0,0:0:0:0:
168,234,58638,6,0,P|249:256|328:227,1,170,2|0,0:3|0:0,0:0:0:0:
468,240,59611,2,0,L|461:282,1,42.5,2|2,0:0|0:0,0:0:0:0:
400,332,59935,2,0,B|432:304|440:260|440:260|408:232|414:180,1,170,0|2,0:0|0:0,0:0:0:0:
464,96,60746,1,0,0:0:0:0:
464,96,60908,2,0,P|485:96|506:92,1,42.5,2|0,0:0|0:0,0:0:0:0:
364,95,61233,6,0,L|239:66,1,127.500004863739,6|2,0:0|0:0,0:0:0:0:
100,128,61719,1,0,0:0:0:0:
212,168,61881,2,0,L|274:153,1,63.7500024318696,2|0,0:0|0:0,0:0:0:0:
147,67,62206,2,0,P|119:53|88:51,1,63.7500024318696,2|0,0:0|0:0,0:0:0:0:
182,289,62530,6,0,P|208:231|212:168,1,127.500004863739,2|2,0:0|0:0,0:0:0:0:
40,236,63016,2,0,L|103:229,1,63.7500024318696,0|2,0:0|0:0,0:0:0:0:
124,340,63341,1,0,0:0:0:0:
228,304,63503,2,0,L|291:297,1,63.7500024318696,2|0,0:0|0:0,0:0:0:0:
416,208,63827,6,0,B|431:237|431:237|416:280|427:330,2,127.500004863739,2|2|2,0:3|0:0|0:0,0:0:0:0:
364,116,64638,1,0,0:0:0:0:
364,116,64719,1,0,0:0:0:0:
364,116,64800,2,0,P|394:105|426:104,1,63.7500024318696,2|0,0:0|0:0,0:0:0:0:
332,272,65124,6,0,L|317:210,1,63.7500024318696,2|0,0:0|0:0,0:0:0:0:
276,56,65449,2,0,L|261:118,1,63.7500024318696,2|0,0:0|0:0,0:0:0:0:
248,285,65772,2,0,L|233:223,1,63.7500024318696,2|0,0:0|0:0,0:0:0:0:
192,43,66097,2,0,L|177:105,1,63.7500024318696,2|0,0:0|0:0,0:0:0:0:
124,220,66422,6,0,L|40:202,1,85,6|0,0:0|0:0,0:0:0:0:
274,200,66746,2,0,P|317:198|359:203,1,85,2|2,0:0|0:0,0:0:0:0:
160,300,67070,1,8,0:0:0:0:
188,140,67233,1,8,0:0:0:0:
236,352,67395,1,8,0:0:0:0:
28,287,67557,1,8,0:0:0:0:
240,264,67719,5,8,0:0:0:0:
124,220,67881,1,2,0:0:0:0:
97,187,67962,1,2,0:0:0:0:
86,146,68043,1,2,0:0:0:0:
92,104,68124,1,2,0:0:0:0:
114,68,68206,1,2,0:0:0:0:
148,44,68287,1,2,0:0:0:0:
189,35,68368,6,0,L|230:47,1,42.5,8|0,0:0|0:0,0:0:0:0:
392,104,68530,2,0,L|351:115,1,42.5,8|0,0:0|0:0,0:0:0:0:
189,172,68692,2,0,L|229:183,1,42.5,8|0,0:0|0:0,0:0:0:0:
391,240,68854,2,0,L|350:251,1,42.5,8|0,0:0|0:0,0:0:0:0:
280,132,69016,6,0,P|283:90|307:56,1,85,6|0,0:0|0:0,0:0:0:0:
468,224,69341,2,0,P|464:265|440:299,1,85,8|0,0:0|0:0,0:0:0:0:
228,264,69665,1,8,0:0:0:0:
280,132,69827,1,8,0:0:0:0:
148,248,69989,1,8,0:0:0:0:
364,136,70152,1,8,0:0:0:0:
256,340,70314,5,10,0:1:0:0:
252,56,70476,1,10,0:1:0:0:
252,56,70962,6,0,L|231:61,14,21.25,2|0|0|0|0|0|0|0|0|0|0|0|0|0|0,0:3|0:0|0:0|0:0|0:0|0:0|0:0|0:0|0:0|0:0|0:0|0:0|0:0|0:0|0:0,0:0:0:0:
216,68,71611,6,0,L|123:57,1,93.5000028533936,6|0,0:0|0:0,0:0:0:0:
132,192,71935,1,8,0:0:0:0:
263,170,72097,2,0,L|356:159,1,93.5000028533936,0|2,0:0|0:0,0:0:0:0:
192,328,72422,1,0,0:0:0:0:
192,328,72503,1,0,0:0:0:0:
192,328,72584,1,8,0:0:0:0:
16,296,72746,6,0,B|80:272|80:272|132:276|132:276|156:252|193:250,1,187.000005706787,2|0,0:0|0:0,0:0:0:0:
347,324,73233,2,0,P|358:278|361:231,1,93.5000028533936,8|0,0:0|0:0,0:0:0:0:
216,104,73557,1,2,0:0:0:0:
276,256,73719,1,2,0:0:0:0:
152,160,73881,1,8,0:0:0:0:
352,136,74043,1,0,0:0:0:0:
188,239,74206,6,0,P|142:246|99:230,1,93.5000028533936,2|0,0:0|0:0,0:0:0:0:
135,76,74530,1,8,0:0:0:0:
281,162,74692,2,0,L|275:255,1,93.5000028533936,0|2,0:0|0:0,0:0:0:0:
99,230,75016,1,0,0:0:0:0:
99,230,75097,1,0,0:0:0:0:
99,230,75179,1,8,0:0:0:0:
203,123,75341,6,0,P|295:126|362:65,1,187.000005706787,2|0,0:0|0:0,0:0:0:0:
480,155,75827,2,0,P|494:200|495:246,1,93.5000028533936,8|0,0:0|0:0,0:0:0:0:
280,320,76152,1,2,0:0:0:0:
336,224,76314,1,2,0:0:0:0:
391,320,76476,2,0,B|444:344|480:316|480:316|452:308|441:291,1,140.25000428009,8|0,0:0|0:0,0:0:0:0:
441,292,76800,6,0,L|255:302,1,187.000005706787,6|8,0:0|0:0,0:0:0:0:
72,336,77287,2,0,P|118:331|163:343,1,93.5000028533936,0|2,0:0|0:0,0:0:0:0:
236,232,77611,2,0,L|243:138,1,93.5000028533936,2|8,0:0|0:0,0:0:0:0:
152,12,77935,6,0,B|144:82|144:82|164:126|164:126|157:193,1,187.000005706787,6|0,0:0|0:0,0:0:0:0:
224,68,78422,1,8,0:0:0:0:
85,137,78584,1,0,0:0:0:0:
252,96,78746,1,2,0:0:0:0:
202,243,78908,1,2,0:0:0:0:
291,95,79070,1,8,0:0:0:0:
359,235,79233,1,0,0:0:0:0:
175,171,79395,6,0,P|128:220|140:287,1,140.25000428009,6|0,0:0|0:0,0:0:0:0:
164,312,79719,1,8,0:0:0:0:
251,184,79881,1,0,0:0:0:0:
251,160,79962,1,0,0:0:0:0:
245,138,80043,1,2,0:0:0:0:
359,235,80206,1,2,0:0:0:0:
202,243,80368,1,8,0:0:0:0:
336,352,80530,6,0,B|464:336|464:336|492:285,1,187.000005706787,6|0,0:0|0:0,0:0:0:0:
412,152,81016,2,0,L|319:163,1,93.5000028533936,8|0,0:0|0:0,0:0:0:0:
276,288,81341,1,2,0:0:0:0:
432,227,81503,1,8,0:0:0:0:
465,208,81584,1,8,0:0:0:0:
484,175,81665,1,8,0:0:0:0:
486,136,81746,1,8,0:0:0:0:
469,102,81827,1,8,0:0:0:0:
438,79,81908,1,8,0:0:0:0:
400,75,81989,6,0,L|307:86,1,93.5000028533936,6|0,0:0|0:0,0:0:0:0:
184,92,82314,1,8,0:0:0:0:
276,288,82476,2,0,P|297:247|298:200,1,93.5000028533936,0|2,0:0|0:0,0:0:0:0:
148,212,82800,1,0,0:0:0:0:
148,212,82881,1,0,0:0:0:0:
148,212,82962,1,8,0:0:0:0:
276,288,83124,6,0,B|329:285|353:245|353:245|401:253|433:293,1,187.000005706787,2|0,0:0|0:0,0:0:0:0:
244,364,83611,2,0,P|207:335|191:292,1,93.5000028533936,8|0,0:0|0:0,0:0:0:0:
232,72,83935,1,2,0:0:0:0:
280,212,84097,1,2,0:0:0:0:
168,176,84260,2,0,P|102:155|37:179,1,140.25000428009,8|0,0:0|0:0,0:0:0:0:
24,200,84584,6,0,L|30:293,1,93.5000028533936,6|0,0:0|0:0,0:0:0:0:
17,106,84908,1,8,0:0:0:0:
240,152,85070,1,0,0:0:0:0:
104,248,85233,1,2,0:0:0:0:
152,68,85395,1,2,0:0:0:0:
204,300,85557,1,8,0:0:0:0:
35,291,85719,6,0,P|36:202|117:166,1,187.000005706787,6|0,0:0|0:0,0:0:0:0:
268,196,86206,1,8,0:0:0:0:
104,248,86368,1,0,0:0:0:0:
221,349,86530,1,4,0:0:0:0:
231,316,86611,1,0,0:0:0:0:
229,281,86692,1,0,0:0:0:0:
215,249,86773,1,0,0:0:0:0:
192,224,86854,2,0,L|180:179,1,46.7500014266968,8|0,0:0|0:0,0:0:0:0:
360,96,87016,2,0,L|348:141,1,46.7500014266968,8|0,0:0|0:0,0:0:0:0:
368,272,87179,6,0,P|413:280|459:273,1,93.5000028533936,12|0,0:0|0:0,0:0:0:0:
488,144,87503,1,2,0:0:0:0:
268,196,87665,2,0,L|260:289,1,93.5000028533936,8|0,0:0|0:0,0:0:0:0:
364,168,87989,1,2,0:0:0:0:
227,66,88152,2,0,P|181:57|135:64,1,93.5000028533936,8|0,0:0|0:0,0:0:0:0:
296,296,88476,6,0,B|328:256|328:256|341:120,1,187.000005706787,12|2,0:0|0:0,0:0:0:0:
92,152,88962,2,0,B|60:192|60:192|46:327,1,187.000005706787,8|2,0:0|0:0,0:0:0:0:
194,225,89449,2,0,L|199:178,2,46.7500014266968,8|8|8,0:0|0:0|0:0,0:0:0:0:
120,332,89773,6,0,P|163:314|209:311,1,93.5000028533936,12|0,0:0|0:0,0:0:0:0:
316,344,90097,1,2,0:0:0:0:
472,184,90260,2,0,P|429:166|383:163,1,93.5000028533936,12|0,0:0|0:0,0:0:0:0:
276,196,90584,1,2,0:0:0:0:
372,296,90746,1,12,0:0:0:0:
369,284,90827,1,0,0:0:0:0:
366,273,90908,1,0,0:0:0:0:
363,261,90989,1,0,0:0:0:0:
360,250,91070,5,12,0:0:0:0:
176,252,91233,1,0,0:0:0:0:
316,344,91395,1,2,0:0:0:0:
336,164,91557,2,0,P|335:117|322:72,1,93.5000028533936,12|0,0:0|0:0,0:0:0:0:
392,236,91881,1,14,0:0:0:0:
246,128,92043,2,0,P|204:105|159:94,1,93.5000028533936,12|0,0:0|0:0,0:0:0:0:
64,124,92368,6,0,L|249:103,1,187.000005706787,6|8,0:0|0:0,0:0:0:0:
360,48,92854,1,0,0:0:0:0:
264,220,93016,1,8,0:0:0:0:
488,160,93179,1,8,0:0:0:0:
316,120,93341,1,8,0:0:0:0:
368,289,93503,1,8,0:0:0:0:
487,159,93665,6,0,P|441:155|401:177,1,93.5000028533936,6|0,0:0|0:0,0:0:0:0:
224,208,93989,1,8,0:0:0:0:
275,45,94152,1,8,0:0:0:0:
312,228,94314,1,8,0:0:0:0:
293,270,94395,1,8,0:0:0:0:
257,299,94476,1,8,0:0:0:0:
211,304,94557,1,8,0:0:0:0:
168,286,94638,1,8,0:0:0:0:
125,269,94719,1,8,0:0:0:0:
80,274,94800,1,8,0:0:0:0:
43,302,94881,1,8,0:0:0:0:
27,345,94962,6,0,P|74:277|68:194,1,170,6|8,0:0|0:0,0:0:0:0:
28,92,95449,1,0,0:0:0:0:
192,180,95611,2,0,L|276:172,1,85
332,68,95935,2,0,L|247:75,1,85,8|0,0:0|0:0,0:0:0:0:
116,212,96260,6,0,B|152:268|212:256|212:256|228:284|222:310,1,170,2|8,0:0|0:0,0:0:0:0:
376,180,96746,1,0,0:0:0:0:
440,251,96908,2,0,P|380:272|320:256,1,127.5,2|0,0:3|0:0,0:0:0:0:
292,228,97233,2,0,L|295:143,1,85,8|0,0:0|0:0,0:0:0:0:
496,144,97557,6,0,L|489:313,1,170,2|8,0:0|0:0,0:0:0:0:
376,180,98043,1,0,0:0:0:0:
300,324,98206,1,0,0:0:0:0:
440,251,98368,1,0,0:0:0:0:
284,191,98530,2,0,P|287:149|307:112,1,85,8|0,0:0|0:0,0:0:0:0:
400,48,98854,6,0,P|319:72|237:53,1,170,2|8,0:0|0:0,0:0:0:0:
92,136,99341,2,0,L|98:220,1,85,2|0,0:0|0:0,0:0:0:0:
136,44,99665,1,0,0:0:0:0:
12,116,99827,2,0,L|18:200,1,85,10|0,0:0|0:0,0:0:0:0:
188,288,100152,6,0,P|112:254|35:285,1,170,2|8,0:0|0:0,0:0:0:0:
112,364,100638,1,0,0:0:0:0:
264,332,100800,1,0,0:0:0:0:
240,180,100962,1,0,0:0:0:0:
104,280,101124,2,0,P|88:240|91:198,1,85,8|0,0:0|0:0,0:0:0:0:
168,56,101449,6,0,L|160:140,1,85,2|0,0:0|0:0,0:0:0:0:
56,180,101773,1,8,0:0:0:0:
240,104,101935,1,0,0:0:0:0:
188,240,102097,2,0,P|225:258|267:254,1,85,2|0,0:3|0:0,0:0:0:0:
412,208,102422,2,0,P|374:189|332:193,1,85,10|0,0:0|0:0,0:0:0:0:
264,332,102746,5,2,0:0:0:0:
240,180,102908,1,0,0:0:0:0:
348,288,103070,2,0,L|432:280,1,85,8|0,0:0|0:0,0:0:0:0:
197,264,103395,1,0,0:0:0:0:
333,194,103557,1,0,0:0:0:0:
144,180,103719,2,0,L|60:188,1,85,8|0,0:0|0:0,0:0:0:0:
264,332,104043,6,0,P|280:249|270:165,1,170,2|8,0:0|0:0,0:0:0:0:
256,36,104530,1,0,0:0:0:0:
136,95,104692,2,0,L|143:179,1,85
333,194,105016,1,8,0:0:0:0:
333,194,105341,6,0,P|410:190|420:267,1,170,2|8,0:3|0:0,0:0:0:0:
256,328,105827,1,8,0:0:0:0:
248,164,105989,1,8,0:0:0:0:
352,328,106152,1,8,0:0:0:0:
158,337,106314,1,8,0:0:0:0:
304,245,106476,1,8,0:0:0:0:
100,256,106638,6,0,B|64:208|64:208|60:128|123:83,1,203.999993774414,14|0,0:0|0:0,0:0:0:0:
375,155,107124,2,0,B|410:202|410:202|414:282|351:327,1,203.999993774414,14|0,0:0|0:0,0:0:0:0:
264,52,107611,1,14,0:0:0:0:
256,192,107773,12,0,115070,0:0:0:0:
