osu file format v14

[General]
AudioFilename: KiokuHajimari.mp3
AudioLeadIn: 1000
PreviewTime: 70881
Countdown: 0
SampleSet: Soft
StackLeniency: 0.7
Mode: 0
LetterboxInBreaks: 0
WidescreenStoryboard: 0

[Editor]
Bookmarks: 17125,30097,40476,50854,61233,71611,81989,94962,107611,115070
DistanceSpacing: 1
BeatDivisor: 2
GridSize: 4
TimelineZoom: 1

[Metadata]
Title:Hajimari Kioku
TitleUnicode:記憶×ハジマリ
Artist:Duca
ArtistUnicode:Duca
Creator:Meg
Version:Easy
Source:恋×シンアイ彼女
Tags:KOI-KAKERU SHIN-AI KANOJO Koi Kakeru Shinai iyasine Momovely ShiraKai kaCha iMage-- eroge Us:track opening
BeatmapID:774757
BeatmapSetID:351528

[Difficulty]
HPDrainRate:3
CircleSize:3
OverallDifficulty:2
ApproachRate:3
SliderMultiplier:0.799999999999999
SliderTickRate:1

[Events]
//Background and Video events
Video,0,"KiokuHajimariMOVIE.avi"
0,0,"BG2.png",0,0
//Break Periods
2,51054,59793
//Storyboard Layer 0 (Background)
//Storyboard Layer 1 (Fail)
//Storyboard Layer 2 (Pass)
//Storyboard Layer 3 (Foreground)
//Storyboard Sound Samples

[TimingPoints]
486,348.837209302326,4,2,2,50,1,0
15834,324.324324324324,4,2,2,50,1,0
17125,324.324324324324,4,2,2,60,1,0
29773,-100,4,2,2,50,0,0
40476,-100,4,2,1,60,0,0
50854,-100,4,2,2,60,0,0
61233,-100,4,3,15,60,0,0
63827,-100,4,2,2,60,0,0
64152,-100,4,3,15,60,0,0
66422,-100,4,2,1,60,0,0
70962,-100,4,2,2,60,0,0
71611,-100,4,2,1,80,0,1
94962,-100,4,2,2,70,0,0
109233,-100,4,2,1,60,0,0
110530,-100,4,2,1,50,0,0
111827,-100,4,2,1,40,0,0
113124,-100,4,2,1,30,0,0
113773,-100,4,2,1,20,0,0
114422,-100,4,2,1,10,0,0
115070,-100,4,2,1,5,0,0

[Colours]
Combo1 : 184,113,255
Combo2 : 255,128,192
Combo3 : 192,133,133
Combo4 : 255,255,128

[HitObjects]
172,80,17125,6,0,P|93:75|29:120,2,160,6|0|2,0:0|0:0|0:0,0:0:0:0:
208,152,18746,1,8,0:0:0:0:
284,180,19070,2,0,L|363:169,1,79.9999999999999,2|10,0:3|0:0,0:0:0:0:
444,172,19719,6,0,P|472:244|440:315,1,160,2|0,0:0|0:0,0:0:0:0:
280,320,21016,2,0,B|199:307|199:307|162:322,2,120,2|2|10,0:0|0:0|0:0,0:0:0:0:
344,272,22314,6,0,L|359:112,1,160,2|0,0:0|0:0,0:0:0:0:
304,56,23287,1,8,0:0:0:0:
228,88,23611,2,0,P|152:112|77:90,1,160,2|2,0:0|0:3,0:0:0:0:
24,152,24584,1,10,0:0:0:0:
44,228,24908,6,0,L|55:347,2,120,2|0|8,0:0|0:0|0:0,0:0:0:0:
124,212,26206,2,0,L|112:92,2,120,2|0|8,0:0|0:0|0:0,0:0:0:0:
180,271,27503,6,0,P|250:238|322:266,1,160,6|8,0:0|0:0,0:0:0:0:
380,320,28476,1,8,0:0:0:0:
425,253,28800,2,0,P|458:302|448:359,2,120,10|10|14,0:0|0:0|0:0,0:0:0:0:
268,280,30422,6,0,B|252:184|320:144|320:144|362:153,1,200
460,84,31719,2,0,L|303:50,1,160,2|2,0:0|0:0,0:0:0:0:
223,52,32692,2,0,P|167:70|107:67,2,120,0|2|2,0:0|0:0|0:0,0:0:0:0:
272,116,33989,2,0,P|328:134|388:131,2,120,2|2|2,0:0|0:0|0:0,0:0:0:0:
124,176,35611,6,0,B|84:204|80:260|80:260|144:268|179:246,1,200,2|0,0:0|0:0,0:0:0:0:
276,176,36908,2,0,P|295:252|266:325,1,160,0|2,0:0|0:0,0:0:0:0:
188,348,37881,2,0,L|68:363,2,120,0|2|2,0:0|0:0|0:0,0:0:0:0:
204,268,39179,2,0,B|200:216|176:180|176:180|148:177,2,120,0|2|2,0:0|0:0|0:0,0:0:0:0:
266,325,40476,5,6,0:0:0:0:
344,336,40800,2,0,P|438:322|473:233,1,200,2|0,0:0|0:0,0:0:0:0:
424,124,42097,2,0,L|455:50,2,79.9999999999999,2|2|2,0:0|0:0|0:0,0:0:0:0:
394,201,43070,6,0,P|351:162|343:104,2,120,2|0|2,0:0|0:0|0:0,0:0:0:0:
416,279,44368,2,0,P|463:246|474:188,2,120,2|0|2,0:0|0:0|0:0,0:0:0:0:
335,279,45665,6,0,P|278:265|221:282,1,120,2|0,0:0|0:0,0:0:0:0:
132,364,46638,1,2,3:2:0:0:
88,296,46962,2,0,L|96:216,1,79.9999999999999,2|2,0:0|0:0,0:0:0:0:
171,191,47611,2,0,P|153:157|118:139,1,79.9999999999999,2|2,0:0|3:2,0:0:0:0:
40,156,48260,6,0,L|28:36,2,120,2|0|2,0:0|0:0|0:0,0:0:0:0:
95,216,49557,2,0,P|114:272|108:331,1,120,2|0,0:0|0:0,0:0:0:0:
228,352,50530,2,0,L|307:344,1,79.9999999999999,8|4,3:0|0:2,0:0:0:0:
312,344,61233,6,0,P|233:348|164:310,1,160,6|2,0:0|0:0,0:0:0:0:
120,244,62206,1,2,0:0:0:0:
114,163,62530,2,0,P|61:185|39:240,2,120,2|0|2,0:0|0:0|0:0,0:0:0:0:
188,200,63827,6,0,L|230:45,1,160,2|2,0:3|0:0,0:0:0:0:
308,72,64800,1,2,0:0:0:0:
384,96,65124,2,0,P|443:103|500:86,2,120,2|0|2,0:0|0:0|0:0,0:0:0:0:
324,152,66422,6,0,L|309:230,1,79.9999999999999,6|2,0:0|0:0,0:0:0:0:
388,252,67070,2,0,L|373:330,1,79.9999999999999,8|8,0:0|0:0,0:0:0:0:
296,348,67719,2,0,P|257:344|221:326,1,79.9999999999999,8|8,0:0|0:0,0:0:0:0:
147,291,68368,2,0,P|108:295|72:313,1,79.9999999999999,8|8,0:0|0:0,0:0:0:0:
16,367,69016,6,0,P|37:291|37:211,1,160,6|8,0:0|0:0,0:0:0:0:
24,132,69989,1,8,0:0:0:0:
72,68,70314,2,0,L|111:61,1,40,10|10,0:1|0:1,0:0:0:0:
224,108,70962,6,0,P|262:119|302:121,1,79.9999999999999,2|0,0:3|0:0,0:0:0:0:
384,128,71611,6,0,P|409:181|408:241,1,120,6|2,0:0|0:0,0:0:0:0:
368,312,72422,1,0,0:0:0:0:
315,371,72746,2,0,P|287:320|303:264,1,120,2|8,0:0|0:0,0:0:0:0:
288,184,73557,2,0,L|208:175,1,79.9999999999999,2|8,0:0|0:0,0:0:0:0:
132,156,74206,6,0,P|88:195|83:254,1,120,2|2,0:0|0:0,0:0:0:0:
100,332,75016,1,0,0:0:0:0:
176,351,75341,2,0,P|228:324|287:326,1,120,2|8,0:0|0:0,0:0:0:0:
368,327,76152,2,0,P|388:293|394:254,1,79.9999999999999,2|8,0:0|0:0,0:0:0:0:
368,180,76800,6,0,L|387:61,1,120,6|2,0:0|0:0,0:0:0:0:
460,32,77611,1,2,0:0:0:0:
495,104,77935,2,0,P|508:161|487:217,1,120,6|8,0:0|0:0,0:0:0:0:
412,248,78746,2,0,L|332:240,1,79.9999999999999,2|8,0:0|0:0,0:0:0:0:
279,299,79395,6,0,P|255:267|252:228,1,79.9999999999999,6|8,0:0|0:0,0:0:0:0:
300,163,80043,2,0,P|320:109|300:54,2,120,2|4|0,0:0|0:0|0:0,0:0:0:0:
239,111,81341,2,0,L|160:124,1,79.9999999999999,8|8,0:0|0:0,0:0:0:0:
92,84,81989,6,0,P|73:140|73:200,1,120,6|2,0:0|0:0,0:0:0:0:
140,244,82800,1,0,0:0:0:0:
190,304,83124,2,0,P|217:252|202:195,1,120,2|8,0:0|0:0,0:0:0:0:
160,124,83935,2,0,L|239:111,1,79.9999999999999,2|8,0:0|0:0,0:0:0:0:
312,144,84584,6,0,P|371:146|427:126,1,120,6|2,0:0|0:0,0:0:0:0:
488,76,85395,1,2,0:0:0:0:
500,156,85719,2,0,L|482:274,1,120,6|8,0:0|0:0,0:0:0:0:
416,320,86530,2,0,P|378:331|338:328,1,79.9999999999999,6|8,0:0|0:0,0:0:0:0:
292,264,87179,6,0,L|280:383,2,120,12|8|8,0:0|0:0|0:0,0:0:0:0:
240,204,88476,2,0,L|228:84,2,120,12|8|8,0:0|0:0|0:0,0:0:0:0:
212,280,89773,6,0,P|163:312|104:307,2,120,12|12|12,0:0|0:0|0:0,0:0:0:0:
292,264,91070,2,0,P|341:231|400:236,2,120,12|12|12,0:0|0:0|0:0,0:0:0:0:
240,204,92368,6,0,B|220:156|220:156|226:88,1,120,6|0,0:0|0:0,0:0:0:0:
164,36,93179,1,8,0:0:0:0:
83,44,93503,2,0,P|31:70|7:124,1,120,12|8,0:0|0:0,0:0:0:0:
24,204,94314,1,8,0:0:0:0:
41,284,94638,1,8,0:0:0:0:
100,227,94962,6,0,P|174:203|250:225,2,160,6|2|2,0:0|0:0|0:0,0:0:0:0:
41,284,96584,1,8,0:0:0:0:
24,204,96908,2,0,L|8:125,1,79.9999999999999,2|8,0:3|0:0,0:0:0:0:
48,56,97557,6,0,P|125:71|203:54,1,160,2|0,0:0|0:0,0:0:0:0:
364,56,98854,2,0,P|422:66|480:54,2,120,2|2|10,0:0|0:0|0:0,0:0:0:0:
291,88,100152,6,0,P|254:157|259:236,1,160,2|0,0:0|0:0,0:0:0:0:
292,312,101124,1,8,0:0:0:0:
368,340,101449,2,0,B|448:336|448:336|475:301|485:265,1,160,2|2,0:0|0:3,0:0:0:0:
472,188,102422,1,10,0:0:0:0:
400,147,102746,6,0,P|444:110|503:111,2,120,2|0|8,0:0|0:0|0:0,0:0:0:0:
328,180,104043,2,0,P|283:142|224:143,2,120,2|0|8,0:0|0:0|0:0,0:0:0:0:
396,224,105341,6,0,B|396:268|396:268|372:292|372:292|380:336|350:368,1,160,2|8,0:3|0:0,0:0:0:0:
292,312,106314,1,8,0:0:0:0:
212,304,106638,2,0,L|92:307,2,120,14|14|14,0:0|0:0|0:0,0:0:0:0:
256,192,107773,12,0,115070,0:0:0:0:
