osu file format v10

[General]
AudioFilename: futari.mp3
AudioLeadIn: 2000
PreviewTime: 64714
Countdown: 0
SampleSet: Normal
StackLeniency: 0.7
Mode: 0
LetterboxInBreaks: 0

[Editor]
Bookmarks: 19443
DistanceSpacing: 1.2
BeatDivisor: 4
GridSize: 4

[Metadata]
Title:Futari Iro (Short Ver.)
TitleUnicode:
Artist:Duca
ArtistUnicode:
Creator:Mikan
Version:Insane
Source:Koiiro Soramoyou
Tags:studio ryokucha inaba-tan kajiyatta lacewingfield krzy koisora restia opening
BeatmapID:181282
BeatmapSetID:53530

[Difficulty]
HPDrainRate:7
CircleSize:4
OverallDifficulty:7
ApproachRate:8
SliderMultiplier:1.6
SliderTickRate:2

[Events]
//Background and Video events
Video,-250,"futari.avi"
0,0,"BG.jpg"
//Break Periods
//Storyboard Layer 0 (Background)
//Storyboard Layer 1 (Fail)
//Storyboard Layer 2 (Pass)
//Storyboard Layer 3 (Foreground)
//Storyboard Sound Samples
//Background Colour Transformations
3,100,255,209,164

[TimingPoints]
-2568,800,4,2,2,40,1,0
6832,-100,4,2,1,40,0,0
7232,-100,4,2,2,40,0,0
10262,800,4,2,2,40,1,0
11262,-100,4,2,1,40,0,0
11662,-100,4,2,2,40,0,0
17062,-100,4,2,2,5,0,0
17414,352.941176470588,4,2,1,65,1,0
17590,-100,4,1,1,65,0,0
17943,-100,4,2,1,65,0,0
18119,-100,4,1,1,65,0,0
18472,-100,4,1,1,55,0,0
18649,-100,4,1,1,60,0,0
18825,-100,4,2,1,65,0,0
19002,-100,4,1,1,65,0,0
24472,-100,4,2,1,65,0,0
24649,-100,4,1,1,65,0,0
27296,-100,4,2,1,65,0,0
27472,-100,4,1,1,65,0,0
28708,-100,4,2,1,65,0,0
28884,-100,4,1,1,65,0,0
29413,-100,4,2,1,65,0,0
29590,-100,4,1,1,65,0,0
30119,-100,4,2,1,65,0,0
30296,-100,4,1,1,50,0,0
41413,-100,4,2,1,65,0,0
41590,-100,4,1,1,65,0,0
52178,-100,4,1,1,50,0,0
52355,-100,4,1,1,55,0,0
52531,-100,4,1,1,60,0,0
52708,-100,4,2,1,75,0,0
52884,-100,4,1,1,65,0,0
55884,-100,4,2,1,65,0,0
56061,-100,4,1,1,65,0,0
56590,-100,4,2,1,65,0,0
56766,-100,4,1,1,65,0,0
58355,-100,4,2,1,65,0,0
58531,-100,4,1,1,65,0,0
59590,-100,4,2,1,60,0,0
59766,-100,4,1,1,65,0,0
61531,-100,4,2,1,65,0,0
61708,-100,4,1,1,65,0,0
62237,-100,4,2,1,50,0,0
62413,-100,4,1,1,65,0,0
62943,-100,4,1,1,40,0,0
63119,-100,4,1,1,45,0,0
63296,-100,4,1,1,50,0,0
63472,-100,4,1,1,55,0,0
63649,-100,4,1,1,60,0,0
63825,-100,4,1,1,65,0,0
64708,-100,4,2,1,40,0,0
65413,-100,4,2,1,75,0,1
65590,-100,4,1,1,75,0,1
68237,-100,4,2,1,75,0,1
68413,-100,4,1,1,75,0,1
71061,-100,4,2,1,75,0,1
71237,-100,4,1,1,75,0,1
72472,-100,4,2,1,75,0,1
72649,-100,4,1,1,75,0,1
73884,-100,4,2,1,75,0,1
74061,-100,4,1,1,75,0,1
75296,-100,4,1,1,65,0,1
75472,-100,4,1,1,75,0,1
76002,-100,4,1,1,75,0,0
76178,-100,4,1,1,80,0,0
76355,-100,4,1,1,85,0,0
76531,-100,4,1,1,90,0,0
76708,-100,4,2,1,75,0,1
76884,-100,4,1,1,75,0,1
78119,-100,4,2,1,75,0,1
78296,-100,4,1,1,75,0,1
79531,-100,4,2,1,75,0,1
79708,-100,4,1,1,75,0,1
80943,-100,4,2,1,75,0,1
81119,-100,4,1,1,75,0,1
81296,-100,4,1,1,80,0,1
81472,-100,4,1,1,85,0,1
81649,-100,4,1,1,90,0,1
82002,-100,4,1,1,95,0,1
82355,-100,4,2,1,75,0,1
82531,-100,4,1,1,75,0,1
83766,-100,4,2,1,75,0,1
83943,-100,4,1,1,75,0,1
85178,-100,4,2,1,75,0,1
85355,-100,4,1,1,65,0,1
86590,-100,4,2,1,65,0,1
86766,-100,4,1,1,75,0,1
86943,-100,4,2,1,75,0,1
87031,-100,4,1,1,75,0,1
87472,-100,4,1,1,80,0,1
87649,-100,4,1,1,85,0,1
87825,-100,4,1,1,90,0,1
88002,-100,4,2,1,65,0,0
88178,-100,4,1,1,65,0,0
93649,-100,4,2,1,65,0,0
93825,-100,4,1,1,65,0,0
97443,-100,4,2,1,65,0,0
97619,-100,4,1,1,65,0,0
99296,-100,4,1,1,70,0,0
100002,-100,4,1,1,60,0,0
100708,-100,4,1,1,50,0,0
101413,-100,4,1,1,40,0,0
102119,-100,4,1,1,30,0,0
102825,-100,4,1,1,20,0,0

[Colours]
Combo1 : 128,255,0
Combo2 : 255,128,192
Combo3 : 128,255,255

[HitObjects]
400,288,632,1,0,0:0:0
320,288,1032,1,0,0:0:0
240,288,1432,2,0,B|168:240,1,80,2|0,0:0|0:0,0:0:0
176,164,2232,1,0,0:0:0
176,84,2632,1,0,0:0:0
244,44,3032,2,0,B|316:92,1,80,2|0,0:0|0:0,0:0:0
372,140,3832,6,0,B|372:228,1,80,0|0,0:0|0:0,0:0:0
372,220,4632,1,2,0:0:0
452,220,5032,2,0,B|372:220,1,80,0|0,0:0|0:0,0:0:0
292,220,5832,2,0,B|372:220,1,80,0|2,0:0|0:0,0:0:0
448,140,6632,2,0,B|372:96|296:140,1,160
424,40,7832,5,2,0:0:0
376,104,8232,1,0,0:0:0
328,40,8632,1,2,0:0:0
280,104,9032,2,0,B|280:184,1,80,0|2,0:0|0:0,0:0:0
216,240,9832,1,0,0:0:0
288,272,10262,6,0,B|364:308,1,80,2|0,0:0|0:0,0:0:0
436,332,11062,2,0,B|480:256|436:180,1,160,2|0,0:0|0:0,0:0:0
296,256,12662,5,2,0:0:0
296,136,13062,1,0,0:0:0
192,196,13462,1,2,0:0:0
72,196,13862,1,0,0:0:0
256,192,14262,12,0,17062,0:0:0
172,152,17414,5,4,0:0:0
100,112,17590,2,0,B|84:152|100:192,1,80
244,112,17943,1,4,0:0:0
236,28,18119,2,0,B|196:40|172:77,1,80
312,136,18472,1,0,0:0:0
332,136,18561,1,0,0:0:0
352,136,18649,1,0,0:0:0
372,136,18737,1,0,0:0:0
392,136,18825,6,0,B|436:212|392:288,1,160,4|8,0:0|0:0,0:0:0
296,216,19355,1,0,0:0:0
205,292,19531,2,0,B|205:380,2,80,0|0|8,0:0|0:0|0:0,0:0:0
112,216,20061,1,0,0:0:0
112,96,20237,1,0,0:0:0
232,96,20413,1,0,0:0:0
336,156,20590,1,8,0:0:0
232,216,20766,1,0,0:0:0
172,320,20943,2,0,B|172:368,2,40
112,216,21296,6,0,B|88:184|72:136|88:96|112:64,1,160,8|0,0:0|0:0,0:0:0
228,72,21825,1,0,0:0:0
228,152,22002,1,8,0:0:0
228,232,22178,1,0,0:0:0
348,216,22355,2,0,B|372:184|388:136|372:96|348:64,1,160,0|8,0:0|0:0,0:0:0
264,152,22884,1,0,0:0:0
200,256,23061,6,0,B|32:256,1,160,0|8,0:0|0:0,0:0:0
40,176,23590,1,0,0:0:0
104,128,23766,2,0,B|104:80,2,40
184,128,24119,1,8,0:0:0
256,92,24296,1,0,0:0:0
328,40,24472,6,0,B|392:88|392:152|384:208,1,160,4|8,0:0|0:0,0:0:0
304,184,25002,1,0,0:0:0
388,180,25178,2,0,B|452:228|452:292|444:348,1,160,0|8,0:0|0:0,0:0:0
368,320,25708,1,0,0:0:0
328,320,25796,1,0,0:0:0
288,320,25884,1,0,0:0:0
208,320,26061,2,0,B|208:240,2,80,0|8|0,0:0|0:0|0:0,0:0:0
104,320,26590,1,0,0:0:0
104,240,26766,1,0,0:0:0
188,152,26943,6,0,B|152:124|116:152,1,80,8|0,0:0|0:0,0:0:0
324,76,27296,2,0,B|360:48|396:76,1,80,4|0,0:0|0:0,0:0:0
296,184,27649,2,0,B|384:184,2,80,8|0|0,0:0|0:0|0:0,0:0:0
244,108,28178,2,0,B|200:184|244:260,1,160
140,328,28708,6,0,B|60:328,1,80,4|0,0:0|0:0,0:0:0
380,328,29413,2,0,B|460:328,1,80,4|0,0:0|0:0,0:0:0
384,80,30119,6,0,B|224:80,1,160,4|8,0:0|0:0,0:0:0
224,160,30649,1,0,0:0:0
152,120,30825,1,0,0:0:0
152,120,31002,2,0,B|64:120,1,80,0|8,0:0|0:0,0:0:0
40,240,31355,5,0,0:0:0
112,336,31531,1,0,0:0:0
184,240,31708,1,0,0:0:0
256,336,31884,1,8,0:0:0
184,240,32061,2,0,B|264:240,1,80
344,240,32413,1,0,0:0:0
424,288,32590,1,8,0:0:0
364,56,32943,6,0,B|288:12|212:56,1,160,0|8,0:0|0:0,0:0:0
148,104,33472,1,0,0:0:0
212,56,33649,1,0,0:0:0
148,104,33825,2,0,B|132:140|80:164,1,80,0|8,0:0|0:0,0:0:0
56,228,34178,2,0,B|96:228|136:252|136:252,1,80
200,292,34531,1,0,0:0:0
272,328,34708,1,8,0:0:0
352,328,34884,2,0,B|396:328|432:304,1,80
492,260,35237,1,0,0:0:0
492,260,35414,1,8,0:0:0
328,88,35766,6,0,B|252:44|176:88,1,160,0|8,0:0|0:0,0:0:0
80,76,36296,2,0,B|40:56,2,40
112,168,36649,2,0,B|184:200,1,80,0|8,0:0|0:0,0:0:0
292,148,37002,2,0,B|212:116,1,80,0|0,0:0|0:0,0:0:0
256,232,37355,2,0,B|336:264,1,80,0|8,0:0|0:0,0:0:0
368,172,37708,5,0,0:0:0
444,228,37884,1,0,0:0:0
464,320,38061,1,0,0:0:0
372,348,38237,2,0,B|332:348|284:348,1,80,8|0,0:0|0:0,0:0:0
324,232,38590,6,0,B|296:272|256:276|216:272|188:232,1,160,0|8,0:0|0:0,0:0:0
256,188,39119,1,0,0:0:0
188,144,39296,2,0,B|216:104|256:100|296:104|324:144,1,160,0|8,0:0|0:0,0:0:0
324,144,39825,1,0,0:0:0
384,96,40002,5,0,0:0:0
448,144,40178,1,0,0:0:0
448,144,40266,1,0,0:0:0
448,144,40355,1,8,0:0:0
384,192,40531,1,0,0:0:0
384,272,40708,1,0,0:0:0
344,264,40796,1,0,0:0:0
304,252,40884,1,0,0:0:0
224,236,41061,2,0,B|188:208|152:236,1,80,8|0,0:0|0:0,0:0:0
320,124,41414,6,0,B|392:188|464:124,1,160,4|8,0:0|0:0,0:0:0
392,72,41943,1,0,0:0:0
270,39,42119,2,0,B|232:28|192:40,1,80
272,120,42472,2,0,B|272:208,1,80,8|0,0:0|0:0,0:0:0
192,200,42825,2,8,B|112:200,2,80,0|0|8,0:0|0:0|0:0,0:0:0
320,300,43355,2,0,B|356:272|392:300,1,80,0|0,0:0|0:0,0:0:0
284,200,43708,1,0,0:0:0
320,184,43796,1,0,0:0:0
356,168,43884,1,8,0:0:0
144,56,44237,6,0,B|64:80|16:168,1,160,0|8,0:0|0:0,0:0:0
116,232,44766,1,0,0:0:0
24,312,44943,2,0,B|104:324|184:312,1,160,0|8,0:0|0:0,0:0:0
184,232,45472,2,0,B|184:152,1,80
344,152,45825,2,0,B|308:124|272:152,1,80,0|8,0:0|0:0,0:0:0
344,232,46178,2,0,B|344:320,1,80
264,312,46531,1,0,0:0:0
224,312,46619,1,0,0:0:0
184,312,46708,1,8,0:0:0
344,312,47061,6,0,B|420:268|496:312,1,160,0|8,0:0|0:0,0:0:0
496,232,47590,1,0,0:0:0
424,196,47766,1,0,0:0:0
356,232,47943,1,0,0:0:0
280,264,48119,2,0,B|240:248|212:220,1,80,8|0,0:0|0:0,0:0:0
116,192,48472,2,0,B|36:192,2,80,0|0|8,0:0|0:0|0:0,0:0:0
208,176,49002,2,0,B|228:140|268:116,1,80
304,188,49355,1,0,0:0:0
208,176,49531,5,8,0:0:0
208,256,49708,2,0,B|248:272|288:256,1,80
368,256,50061,2,0,B|408:272|448:256,1,80,0|8,0:0|0:0,0:0:0
408,184,50414,1,0,0:0:0
328,184,50590,2,0,B|288:168|248:184,1,80
168,184,50943,2,0,B|128:168|88:184,1,80,8|0,0:0|0:0,0:0:0
80,104,51296,1,0,0:0:0
136,48,51472,1,0,0:0:0
216,48,51649,2,0,B|304:48,1,80,8|0,0:0|0:0,0:0:0
400,108,52002,5,0,0:0:0
376,140,52090,1,0,0:0:0
352,172,52178,1,0,0:0:0
328,204,52266,1,0,0:0:0
304,236,52355,1,0,0:0:0
280,268,52443,1,0,0:0:0
256,300,52531,1,0,0:0:0
232,332,52619,1,0,0:0:0
192,332,52708,6,0,B|128:244|64:332,2,160,4|8|0,0:0|0:0|0:0,0:0:0
208,252,53590,1,0,0:0:0
144,200,53766,2,0,B|56:136|144:72,1,160,8|0,0:0|0:0,0:0:0
143,73,54296,1,0,0:0:0
212,36,54472,2,0,B|252:28|292:36,2,80,8|0|0,0:0|0:0|0:0,0:0:0
240,112,55002,6,0,B|280:104|320:112,2,80,0|8|0,0:0|0:0|0:0,0:0:0
276,184,55531,2,0,B|284:224|276:264,2,80,0|0|4,0:0|0:0|0:0,0:0:0
204,220,56061,2,0,B|164:228|124:220,2,80,0|0|0,0:0|0:0|0:0,0:0:0
164,148,56590,2,0,B|156:108|164:68,2,80,4|0|0,0:0|0:0|0:0,0:0:0
240,112,57119,2,0,B|280:100|320:112,1,80,0|8,0:0|0:0,0:0:0
280,180,57472,2,0,B|352:244|424:180,1,160
404,144,57913,1,0,0:0:0
380,112,58002,2,0,B|380:68,2,40,8|0|0,0:0|0:0|0:0,0:0:0
184,184,58355,6,0,B|120:112|184:40,1,160,4|8,0:0|0:0,0:0:0
264,40,58884,1,0,0:0:0
344,40,59061,2,0,B|408:112|344:184,1,160,0|8,0:0|0:0,0:0:0
264,188,59590,1,4,0:0:0
280,264,59766,2,0,B|300:358|396:348,1,160
472,344,60296,1,0,0:0:0
424,276,60472,6,0,B|424:152,2,120
352,216,61178,1,0,0:0:0
288,168,61355,1,0,0:0:0
224,120,61531,1,4,0:0:0
144,120,61708,1,0,0:0:0
144,200,61884,2,0,B|72:264|0:200,2,160,0|4|0,0:0|0:0|0:0,0:0:0
224,200,62766,5,0,0:0:0
224,240,62855,1,0,0:0:0
224,280,62943,1,8,0:0:0
264,280,63031,1,0,0:0:0
304,280,63119,1,0,0:0:0
384,280,63296,5,0,0:0:0
424,280,63384,1,0,0:0:0
464,280,63472,1,0,0:0:0
464,200,63649,5,8,0:0:0
464,160,63737,1,0,0:0:0
464,120,63825,1,0,0:0:0
464,40,64002,5,8,0:0:0
304,40,64178,1,0,0:0:0
144,40,64355,1,8,0:0:0
48,224,64708,5,2,0:0:0
168,344,65061,1,2,0:0:0
228,160,65414,6,0,B|300:224|372:160,1,160,4|8,0:0|0:0,0:0:0
452,164,65943,1,0,0:0:0
472,88,66119,1,0,0:0:0
412,36,66296,2,0,B|328:36,1,80,0|8,0:0|0:0,0:0:0
220,152,66649,2,0,B|264:152|300:152,1,80
204,36,67002,2,0,B|120:36,1,80,0|8,0:0|0:0,0:0:0
124,156,67355,1,0,0:0:0
196,200,67531,6,0,B|284:200,1,80
352,176,67884,1,8,0:0:0
400,112,68061,1,0,0:0:0
352,48,68237,1,4,0:0:0
304,112,68414,1,0,0:0:0
304,112,68590,2,0,B|224:112,2,80,8|0|0,0:0|0:0|0:0,0:0:0
424,180,69119,2,0,B|452:216|424:252,2,80,0|8|0,0:0|0:0|0:0,0:0:0
284,232,69649,6,0,B|296:128|204:108,1,160,0|8,0:0|0:0,0:0:0
144,160,70178,1,0,0:0:0
140,240,70355,1,0,0:0:0
140,240,70443,1,0,0:0:0
140,240,70531,1,0,0:0:0
60,240,70708,1,8,0:0:0
60,160,70884,1,0,0:0:0
140,80,71061,6,0,B|160:16|240:16|256:84,1,160,4|8,0:0|0:0,0:0:0
272,160,71590,1,0,0:0:0
356,168,71766,1,0,0:0:0
336,88,71943,1,0,0:0:0
272,160,72119,2,0,B|272:248,1,80,8|0,0:0|0:0,0:0:0
192,260,72472,2,8,B|128:208,2,80,4|0|8,0:0|0:0|0:0,0:0:0
256,312,73002,2,0,B|320:364,2,80
264,232,73531,1,8,0:0:0
280,192,73619,1,0,0:0:0
296,152,73708,1,0,0:0:0
376,152,73884,6,0,B|448:152|448:100|448:100|448:28,1,160,4|8,0:0|0:0,0:0:0
368,40,74414,2,0,B|256:40,1,80
136,104,74766,2,0,B|176:92|204:64,1,80,0|8,0:0|0:0,0:0:0
128,200,75119,2,0,B|128:240|160:272,1,80,0|0,0:0|0:0,0:0:0
232,248,75472,1,8,0:0:0
232,248,75561,1,0,0:0:0
232,248,75649,1,8,0:0:0
232,168,75825,1,0,0:0:0
304,196,76002,5,0,0:0:0
324,196,76090,1,0,0:0:0
344,196,76178,1,0,0:0:0
364,196,76266,1,0,0:0:0
384,196,76355,1,8,0:0:0
404,196,76443,1,0,0:0:0
424,196,76531,1,0,0:0:0
444,196,76619,1,0,0:0:0
464,196,76708,6,0,B|464:32,1,160,4|8,0:0|0:0,0:0:0
384,36,77237,1,0,0:0:0
312,128,77414,2,0,B|392:128,1,80
200,128,77766,2,0,B|112:128,2,80,8|0|4,0:0|0:0|0:0,0:0:0
264,168,78296,1,0,0:0:0
344,168,78472,1,8,0:0:0
304,240,78649,1,0,0:0:0
232,280,78825,6,0,B|176:224,1,80
128,288,79178,2,0,B|56:352,1,80,8|0,0:0|0:0,0:0:0
32,264,79531,1,4,0:0:0
32,184,79708,1,0,0:0:0
32,104,79884,2,0,B|112:80,1,80,8|0,0:0|0:0,0:0:0
152,152,80237,1,0,0:0:0
200,88,80414,1,0,0:0:0
248,152,80590,1,8,0:0:0
288,224,80766,2,0,B|376:264,1,80,0|4,0:0|0:0,0:0:0
368,176,81119,5,0,0:0:0
344,144,81208,1,0,0:0:0
320,112,81296,1,8,0:0:0
296,80,81384,1,0,0:0:0
272,48,81472,1,0,0:0:0
200,144,81649,5,0,0:0:0
176,176,81737,1,0,0:0:0
152,208,81825,1,0,0:0:0
224,304,82002,5,8,0:0:0
264,304,82090,1,0,0:0:0
304,304,82178,1,0,0:0:0
424,304,82355,6,0,B|380:232,1,80,4|0,0:0|0:0,0:0:0
380,76,82708,2,0,B|392:116|380:156,1,80,8|0,0:0|0:0,0:0:0
308,116,83061,2,8,B|212:116,2,80,0|0|8,0:0|0:0|0:0,0:0:0
308,196,83590,1,0,0:0:0
284,272,83766,1,4,0:0:0
248,344,83943,1,0,0:0:0
192,288,84119,2,0,B|160:200,2,80,8|0|0,0:0|0:0|0:0,0:0:0
120,324,84649,1,0,0:0:0
48,288,84825,2,0,B|80:200,2,80,8|0|4,0:0|0:0|0:0,0:0:0
216,292,85355,6,0,B|256:312|304:288,1,80,0|8,0:0|0:0,0:0:0
388,216,85708,2,0,B|408:176|384:128,1,80,0|0,0:0|0:0,0:0:0
296,64,86061,2,0,B|256:44|208:68,1,80,0|8,0:0|0:0,0:0:0
124,136,86414,2,0,B|104:176|128:224,1,80,0|4,0:0|0:0,0:0:0
216,292,86766,2,0,B|256:284|296:292,1,80,0|4,0:0|0:0,0:0:0
364,332,87119,1,0,0:0:0
440,308,87296,5,0,0:0:0
468,280,87384,1,0,0:0:0
488,244,87472,1,0,0:0:0
504,208,87561,1,0,0:0:0
512,168,87649,1,8,0:0:0
504,128,87737,1,0,0:0:0
488,88,87825,1,0,0:0:0
468,56,87914,1,0,0:0:0
440,32,88002,6,0,B|360:32|272:32,1,160,4|8,0:0|0:0,0:0:0
224,144,88531,2,0,B|224:232,2,80
144,144,89061,1,8,0:0:0
72,244,89237,1,0,0:0:0
152,328,89414,2,0,B|248:328,1,80
344,296,89766,2,0,B|344:204,2,80,8|0|0,0:0|0:0|0:0,0:0:0
344,140,90296,1,0,0:0:0
264,216,90472,6,0,B|172:216,1,80,8|0,0:0|0:0,0:0:0
240,292,90825,2,0,B|152:292,1,80
68,264,91178,1,8,0:0:0
80,168,91355,1,0,0:0:0
92,148,91443,1,0,0:0:0
104,128,91531,2,0,B|184:128,1,80
240,48,91884,1,8,0:0:0
324,96,92061,1,0,0:0:0
256,168,92237,5,0,0:0:0
256,168,92414,2,0,B|344:168,2,80,0|8|0,0:0|0:0|0:0,0:0:0
256,264,92943,1,0,0:0:0
256,264,93031,1,0,0:0:0
256,264,93119,1,0,0:0:0
360,284,93296,6,8,B|384:316|424:332,1,80,8|0,0:0|0:0,0:0:0
432,236,93649,2,0,B|432:156,1,80,4|0,0:0|0:0,0:0:0
340,184,94002,1,8,0:0:0
352,88,94178,2,0,B|312:80|272:88,1,80
192,88,94531,1,0,0:0:0
272,88,94708,1,8,0:0:0
192,88,94884,1,0,0:0:0
120,152,95061,6,0,B|112:192|120:240,1,80
192,280,95414,2,0,B|232:288|272:280,1,80,8|0,0:0|0:0,0:0:0
236,192,95766,1,0,0:0:0
236,192,95855,1,0,0:0:0
236,192,95943,1,0,0:0:0
272,280,96119,6,0,B|360:336,1,80,8|0,0:0|0:0,0:0:0
416,264,96472,2,0,B|416:184,1,80
320,180,96825,1,8,0:0:0
320,100,97002,1,0,0:0:0
248,152,97178,2,0,B|160:216,1,80
184,200,97531,1,4,0:0:0
464,48,97884,5,0,0:0:0
376,160,98061,1,4,0:0:0
48,48,98414,5,0,0:0:0
136,160,98590,1,4,0:0:0
256,368,98943,5,0,0:0:0
256,224,99119,1,4,0:0:0
256,192,99296,12,0,103531,0:0:0
