osu file format v12

[General]
AudioFilename: Futari Iro.mp3
AudioLeadIn: 1000
PreviewTime: 64156
Countdown: 1
SampleSet: Soft
StackLeniency: 0.7
Mode: 0
LetterboxInBreaks: 1
WidescreenStoryboard: 0

[Editor]
Bookmarks: 437,17215,29920,41214,52509,65214,76509,87803,99097,109950,121685,134391,145685,156979,168273,179564,192270,205682,216976,228270
DistanceSpacing: 0.6
BeatDivisor: 4
GridSize: 4
TimelineZoom: 1.7

[Metadata]
Title:Futari Iro
TitleUnicode:二人色
Artist:Duca
ArtistUnicode:Duca
Creator:Raging Bull
Version:Insane
Source:恋色空模様
Tags:eroge P_A_N -_N_a_n_a_k_a- mercury2004 PAN Nanaka Studio Ryokucha Koiiro Soramoyou
BeatmapID:276274
BeatmapSetID:100702

[Difficulty]
HPDrainRate:7
CircleSize:4
OverallDifficulty:8
ApproachRate:9
SliderMultiplier:1.8
SliderTickRate:2

[Events]
//Background and Video events
0,0,"rankable bg.jpg",0,0
//Break Periods
2,90823,98494
2,160000,166859
//Storyboard Layer 0 (Background)
//Storyboard Layer 1 (Fail)
//Storyboard Layer 2 (Pass)
//Storyboard Layer 3 (Foreground)
//Storyboard Sound Samples
//Background Colour Transformations
3,100,163,162,255

[TimingPoints]
-1966,800,4,2,2,30,1,0
1234,-100,4,2,2,50,0,0
1434,-100,4,2,2,30,0,0
2834,-100,4,2,2,50,0,0
3034,-100,4,2,2,40,0,0
4434,-100,4,2,2,50,0,0
4634,-100,4,2,2,40,0,0
5234,-100,4,2,2,50,0,0
5434,-100,4,2,2,40,0,0
6034,-100,4,2,2,50,0,0
6234,-100,4,2,2,40,0,0
7634,-100,4,2,2,50,0,0
9234,-100,4,2,2,60,0,0
12434,-100,4,2,2,65,0,0
13234,-100,4,2,2,70,0,0
17212,352.941176470588,4,2,1,50,1,0
18623,-100,4,2,1,70,0,0
29917,-100,4,2,1,50,0,0
39800,-100,4,2,1,70,0,0
41211,-100,4,2,1,60,0,0
51800,-100,4,2,1,70,0,0
57800,-100,4,2,1,50,0,0
58153,-100,4,2,1,70,0,0
64506,-100,4,2,0,30,0,0
65211,-100,4,2,1,85,0,1
87800,-100,4,2,1,50,0,0
108976,-100,4,2,1,70,0,0
110388,-100,4,2,1,60,0,0
120976,-100,4,2,1,50,0,0
121682,-100,4,2,1,70,0,0
126622,-100,4,2,1,50,0,0
127329,-100,4,2,1,70,0,0
132270,-100,4,2,1,60,0,0
132976,-100,4,2,1,90,0,0
133682,-100,4,2,0,30,0,0
134388,-100,4,2,1,85,0,1
156270,-100,4,2,1,50,0,1
156976,-100,4,2,1,50,0,0
168270,-100,4,2,1,65,0,0
171094,-100,4,2,1,75,0,0
173917,-100,4,2,1,60,0,0
174623,-100,4,2,1,75,0,0
175329,-100,4,2,1,90,0,0
179035,-100,4,2,1,40,0,0
179564,-100,4,2,1,60,0,0
184505,-100,4,2,1,40,0,0
185211,-100,4,2,1,70,0,0
191564,-100,4,2,0,35,0,0
192270,-125,4,2,1,50,0,0
197917,-125,4,2,1,60,0,0
201800,-125,4,2,1,75,0,0
204976,-100,4,2,0,30,0,0
205682,352.941176470588,4,2,1,85,1,1
216270,-100,4,2,1,50,0,1
216976,-100,4,2,1,85,0,1
227564,-100,4,2,1,40,0,1
228182,-100,4,2,1,50,0,0
228270,-100,4,2,1,70,0,1
228358,-100,4,2,1,70,0,0
233917,-100,4,2,1,70,0,1
234005,-100,4,2,1,70,0,0
238152,-100,4,2,1,90,0,0
239387,-100,4,2,1,100,0,1
239476,-100,4,2,1,50,0,0
239564,-100,4,2,1,50,0,1
239652,-100,4,2,1,50,0,0
239917,-100,4,2,1,50,0,1
240005,-100,4,2,1,50,0,0
240270,-100,4,2,1,50,0,1
240358,-100,4,2,1,50,0,0
240623,-100,4,2,1,50,0,1
240711,-100,4,2,1,50,0,0
240976,-100,4,2,1,50,0,1
241064,-100,4,2,1,50,0,0

[Colours]
Combo1 : 0,0,255
Combo2 : 255,0,0
Combo3 : 255,255,0
Combo4 : 0,255,64

[HitObjects]
40,188,434,6,0,P|72:228|128:240,1,90,0|0,0:0|0:0,0:0:0:0:
168,144,1234,2,0,P|208:184|220:232,1,90,2|0,0:0|0:0,0:0:0:0:
288,304,2034,1,0,0:0:0:0:
400,284,2434,1,0,0:0:0:0:
440,180,2834,2,0,P|376:176|328:200,1,90,2|0,0:0|0:0,0:0:0:0:
260,248,3634,1,0,0:0:0:0:
208,148,4034,1,0,0:0:0:0:
240,56,4434,5,2,0:0:0:0:
304,132,4834,1,0,0:0:0:0:
324,240,5234,2,0,P|281:254|237:253,1,90,2|0,0:0|0:0,0:0:0:0:
208,148,6034,1,2,0:0:0:0:
135,225,6434,2,0,P|133:269|148:311,2,90,0|2|0,0:0|0:0|0:0,0:0:0:0:
208,148,7634,5,2,0:0:0:0:
288,76,8034,1,0,0:0:0:0:
288,76,8434,2,0,L|312:168,1,90,0|0,0:0|0:0,0:0:0:0:
404,212,9234,1,2,0:0:0:0:
468,132,9634,1,0,0:0:0:0:
468,132,10034,2,0,L|492:224,1,90,0|0,0:0|0:0,0:0:0:0:
400,352,10834,6,0,B|388:344|388:344|380:356|380:356|368:344|368:344|356:356|356:356|344:344|344:344|332:356|332:356|320:344|320:344|308:356|308:356|296:344|296:344|284:356|284:356|272:344|272:344|260:356|260:356|248:344|248:344|236:356|236:356|224:344|224:344|212:352|212:352|200:352,1,270,2|0,0:0|0:0,0:0:0:0:
8,248,12434,1,2,0:0:0:0:
188,276,12834,1,0,0:0:0:0:
156,56,13234,1,2,0:0:0:0:
244,216,13634,1,0,0:0:0:0:
328,8,14034,1,2,0:0:0:0:
256,192,14234,12,0,16834,0:0:0:0:
380,260,17212,6,0,P|335:248|303:215,1,90,2|2,0:0|0:0,0:0:0:0:
392,144,17564,1,2,0:0:0:0:
240,260,17741,2,0,P|228:216|240:172,1,90
376,72,18094,1,0,0:0:0:0:
500,184,18270,1,8,0:0:0:0:
496,192,18359,1,0,0:0:0:0:
492,200,18447,1,0,0:0:0:0:
488,208,18535,1,0,0:0:0:0:
484,216,18623,6,0,B|440:292|336:308,1,180,4|8,0:0|0:0,0:0:0:0:
232,320,19153,1,0,0:0:0:0:
148,260,19329,1,2,0:0:0:0:
95,172,19506,2,0,P|162:112|248:88,1,180,2|0,0:0|0:0,0:0:0:0:
360,188,20035,1,0,0:0:0:0:
456,80,20212,1,0,0:0:0:0:
320,39,20388,2,0,P|279:55|248:88,1,90,8|0,0:0|0:0,0:0:0:0:
396,276,20741,1,2,0:0:0:0:
396,276,21094,2,0,P|432:248|452:204,1,90,8|0,0:0|0:0,0:0:0:0:
292,288,21447,6,0,P|204:280|140:208,1,180,2|8,0:0|0:0,0:0:0:0:
80,120,21976,1,0,0:0:0:0:
184,60,22153,1,2,0:0:0:0:
184,60,22329,2,0,P|256:112|272:204,2,180,2|0|0,0:0|0:0|0:0,0:0:0:0:
80,120,23211,2,0,L|56:216,1,90,8|0,0:0|0:0,0:0:0:0:
140,316,23564,2,0,L|164:220,1,90,0|0,0:0|0:0,0:0:0:0:
256,128,23917,1,8,0:0:0:0:
268,116,24006,1,0,0:0:0:0:
280,104,24094,1,0,0:0:0:0:
296,92,24182,1,0,0:0:0:0:
312,80,24270,6,0,P|400:84|456:156,1,180,4|8,0:0|0:0,0:0:0:0:
416,288,24800,1,0,0:0:0:0:
304,372,24976,1,2,0:0:0:0:
304,372,25153,2,0,P|280:304|316:192,1,180,2|0,0:0|0:0,0:0:0:0:
376,96,25682,1,0,0:0:0:0:
476,176,25859,1,0,0:0:0:0:
500,300,26035,2,0,P|456:308|404:268,1,90,8|0,0:0|0:0,0:0:0:0:
244,172,26388,1,2,0:0:0:0:
244,172,26741,2,0,P|284:152|313:118,1,90,8|0,0:0|0:0,0:0:0:0:
211,46,27094,6,0,P|135:98|116:180,1,180,2|8,0:0|0:0,0:0:0:0:
192,316,27623,1,0,0:0:0:0:
256,200,27800,1,2,0:0:0:0:
320,316,27976,1,0,0:0:0:0:
380,96,28153,1,4,0:0:0:0:
380,96,28506,2,0,P|336:75|293:81,1,90,8|8,0:0|0:0,0:0:0:0:
132,288,29211,6,0,P|176:309|219:303,1,90,8|8,0:0|0:0,0:0:0:0:
380,96,29917,6,4,P|292:108|204:76,1,180,2|2,0:0|0:0,0:0:0:0:
104,68,30447,1,0,0:0:0:0:
72,168,30623,2,0,P|56:256|104:348,1,180,2|2,0:0|0:0,0:0:0:0:
180,240,31153,1,0,0:0:0:0:
284,168,31329,2,0,P|299:210|299:254,1,90,2|0,0:0|0:0,0:0:0:0:
224,352,31682,1,2,0:0:0:0:
180,240,31859,1,0,0:0:0:0:
192,120,32035,2,0,P|224:80|264:64,1,90,2|0,0:0|0:0,0:0:0:0:
380,65,32388,2,0,P|420:84|446:120,1,90,10|0,0:0|0:0,0:0:0:0:
448,240,32741,6,0,P|368:276|288:240,1,180,2|2,0:0|0:0,0:0:0:0:
268,120,33270,1,0,0:0:0:0:
368,192,33447,2,0,P|359:279|288:330,1,180,2|2,0:0|0:0,0:0:0:0:
192,262,33976,1,0,0:0:0:0:
160,166,34153,2,0,P|119:193|95:235,1,90,2|0,0:0|0:0,0:0:0:0:
192,262,34506,1,2,0:0:0:0:
140,95,34682,2,0,P|67:144|23:222,1,180,0|0,0:0|0:0,0:0:0:0:
32,336,35211,2,8,P|74:323|109:295,1,90,8|0,0:0|0:0,0:0:0:0:
216,196,35564,6,0,P|244:112|229:24,1,180,2|2,0:0|0:0,0:0:0:0:
124,56,36094,1,0,0:0:0:0:
52,138,36270,2,0,P|127:187|216:196,1,180,2|2,0:0|0:0,0:0:0:0:
308,140,36800,1,0,0:0:0:0:
408,100,36976,2,0,P|456:124|484:160,1,90,2|0,0:0|0:0,0:0:0:0:
452,256,37329,1,2,0:0:0:0:
307,140,37506,2,0,P|269:218|296:301,1,180,0|0,0:0|0:0,0:0:0:0:
499,330,38035,2,0,P|482:288|452:256,1,90,10|0,0:0|0:0,0:0:0:0:
355,270,38388,6,0,P|273:301|195:263,1,180,2|2,0:0|0:0,0:0:0:0:
280,192,38917,1,0,0:0:0:0:
207,110,39094,2,0,P|291:79|366:118,1,180,2|4,0:0|0:0,0:0:0:0:
255,301,39623,1,0,0:0:0:0:
104,288,39800,5,2,0:0:0:0:
40,140,39976,1,8,0:0:0:0:
156,184,40153,1,8,0:0:0:0:
156,184,40329,1,0,0:0:0:0:
128,64,40506,1,8,0:0:0:0:
244,92,40682,1,8,0:0:0:0:
360,64,40859,1,0,0:0:0:0:
448,140,41035,1,8,0:0:0:0:
332,184,41211,6,0,P|252:220|212:300,1,180,4|2,0:0|0:0,0:0:0:0:
336,304,41741,1,0,0:0:0:0:
432,228,41917,2,0,P|428:136|364:80,1,180,2|2,0:0|0:0,0:0:0:0:
232,92,42447,1,0,0:0:0:0:
190,218,42623,2,0,P|220:250|264:260,1,90,2|0,0:0|0:0,0:0:0:0:
360,188,42976,2,0,P|330:155|286:146,1,90,2|0,0:0|0:0,0:0:0:0:
264,260,43329,2,0,L|340:320,1,90,2|0,0:0|0:0,0:0:0:0:
430,243,43682,2,0,L|360:188,1,90,10|0,0:0|0:0,0:0:0:0:
312,80,44035,6,0,P|224:96|200:180,1,180,2|2,0:0|0:0,0:0:0:0:
264,260,44564,1,0,0:0:0:0:
288,164,44741,2,0,L|156:32,1,180,2|2,0:0|0:0,0:0:0:0:
72,104,45270,1,0,0:0:0:0:
120,296,45447,2,0,L|97:210,1,90,2|0,0:0|0:0,0:0:0:0:
161,38,45800,2,0,L|184:124,1,90,2|0,0:0|0:0,0:0:0:0:
240,296,46153,2,0,L|336:296,2,90,2|0|8,0:0|0:0|0:0,0:0:0:0:
120,296,46682,1,0,0:0:0:0:
48,204,46859,6,0,P|96:152|201:140,1,180,2|2,0:0|0:0,0:0:0:0:
296,208,47388,1,0,0:0:0:0:
404,256,47564,2,0,L|404:356,2,90,2|0|2,0:0|0:0|0:0,0:0:0:0:
404,136,48094,1,0,0:0:0:0:
328,48,48270,2,0,P|292:84|236:108,1,90,2|0,0:0|0:0,0:0:0:0:
140,116,48623,1,2,0:0:0:0:
36,168,48800,2,0,P|104:224|192:224,1,180,0|0,0:0|0:0,0:0:0:0:
222,338,49329,2,0,P|278:326|314:302,1,90,8|0,0:0|0:0,0:0:0:0:
268,156,49682,6,0,P|212:88|126:88,1,180,2|2,0:0|0:0,0:0:0:0:
36,168,50211,1,0,0:0:0:0:
72,284,50388,2,0,P|135:345|222:338,1,180,2|2,0:0|0:0,0:0:0:0:
344,336,50917,1,0,0:0:0:0:
460,296,51094,2,0,P|472:256|462:211,1,90,2|0,0:0|0:0,0:0:0:0:
512,96,51447,2,0,P|472:72|424:68,1,90,2|0,0:0|0:0,0:0:0:0:
309,85,51800,1,8,0:0:0:0:
304,100,51888,1,8,0:0:0:0:
299,119,51976,1,8,0:0:0:0:
184,172,52153,1,8,0:0:0:0:
188,187,52241,1,8,0:0:0:0:
193,206,52329,1,8,0:0:0:0:
344,271,52506,6,0,L|368:363,1,90,4|0,0:0|0:0,0:0:0:0:
488,179,52859,2,0,L|463:86,1,90,8|0,0:0|0:0,0:0:0:0:
196,220,53211,2,0,L|220:312,1,90,2|0,0:0|0:0,0:0:0:0:
340,123,53564,2,0,L|315:30,1,90,8|0,0:0|0:0,0:0:0:0:
48,160,53917,2,0,L|94:333,2,180,2|8|2,0:0|0:0|0:0,0:0:0:0:
100,64,54800,1,2,0:0:0:0:
208,48,54976,1,8,0:0:0:0:
308,88,55153,1,0,0:0:0:0:
396,152,55329,6,0,P|376:244|316:312,1,180,0|4,0:0|0:0,0:0:0:0:
116,232,56035,2,0,P|136:140|196:72,1,180,0|4,0:0|0:0,0:0:0:0:
409,45,56741,1,2,0:0:0:0:
412,243,56917,1,0,0:0:0:0:
289,86,57094,1,8,0:0:0:0:
480,148,57270,1,0,0:0:0:0:
287,203,57447,1,2,0:0:0:0:
287,203,57535,1,0,0:0:0:0:
287,203,57623,1,2,0:0:0:0:
128,280,57800,1,2,0:0:0:0:
136,256,57888,1,2,0:0:0:0:
144,232,57976,1,2,0:0:0:0:
152,204,58064,1,2,0:0:0:0:
160,180,58153,6,0,L|191:72,1,90,4|0,0:0|0:0,0:0:0:0:
337,16,58506,2,0,P|361:52|360:97,1,90,8|0,0:0|0:0,0:0:0:0:
424,168,58859,2,0,P|360:192|296:168,2,135,2|0|4,0:0|0:0|0:0,0:0:0:0:
232,36,59564,2,0,P|164:68|172:164,1,180,0|8,0:0|0:0,0:0:0:0:
216,244,60094,1,0,0:0:0:0:
288,304,60270,2,0,L|432:304,2,135,2|0|0,0:0|0:0|0:0,0:0:0:0:
152,304,60976,6,0,L|56:304,2,90,2|0|12,0:0|0:0|0:0,0:0:0:0:
360,304,61682,2,0,L|456:304,2,90,2|0|12,0:0|0:0|0:0,0:0:0:0:
364,136,62388,1,2,0:0:0:0:
172,52,62564,5,8,0:0:0:0:
160,68,62653,1,8,0:0:0:0:
148,84,62741,1,8,0:0:0:0:
136,100,62829,1,8,0:0:0:0:
124,116,62917,1,8,0:0:0:0:
256,276,63094,1,8,0:0:0:0:
256,276,63182,1,8,0:0:0:0:
256,276,63270,1,8,0:0:0:0:
388,112,63447,1,8,0:0:0:0:
388,112,63535,1,8,0:0:0:0:
388,112,63623,1,8,0:0:0:0:
404,304,63800,5,2,0:0:0:0:
256,100,63976,1,2,0:0:0:0:
108,304,64153,1,2,0:0:0:0:
256,276,64506,6,0,B|284:176|228:200|256:100,1,180,2|2,0:0|0:0,0:0:0:0:
448,72,65211,6,0,P|480:108|476:160,1,90,4|0,0:0|0:0,0:0:0:0:
472,312,65564,2,0,P|428:296|403:263,1,90,8|0,0:0|0:0,0:0:0:0:
408,136,65917,1,2,0:0:0:0:
408,136,66094,1,0,0:0:0:0:
472,240,66270,1,8,0:0:0:0:
472,240,66447,1,0,0:0:0:0:
296,264,66623,2,0,P|244:272|208:252,1,90,2|0,0:0|0:0,0:0:0:0:
144,92,66976,2,0,P|96:116|72:176,1,90,8|0,0:0|0:0,0:0:0:0:
260,196,67329,1,2,0:0:0:0:
152,168,67506,1,2,0:0:0:0:
284,96,67682,1,8,0:0:0:0:
128,256,67859,1,0,0:0:0:0:
344,324,68035,6,0,P|372:280|364:232,1,90,4|0,0:0|0:0,0:0:0:0:
312,28,68388,2,0,P|259:25|222:56,1,90,8|0,0:0|0:0,0:0:0:0:
56,268,68741,2,0,P|80:314|125:331,1,90,2|0,0:0|0:0,0:0:0:0:
304,188,69094,2,0,P|256:188|216:216,1,90,8|0,0:0|0:0,0:0:0:0:
216,344,69447,2,0,B|288:376|320:312|396:348,1,180,2|8,0:0|0:0,0:0:0:0:
472,272,69976,1,0,0:0:0:0:
436,172,70153,2,0,L|332:152,1,90,2|2,0:0|0:0,0:0:0:0:
400,72,70506,2,0,L|296:52,1,90,8|0,0:0|0:0,0:0:0:0:
204,48,70859,6,0,P|152:52|112:96,1,90,4|0,0:0|0:0,0:0:0:0:
111,190,71211,2,0,P|163:186|192:164,1,90,8|0,0:0|0:0,0:0:0:0:
271,79,71564,1,2,0:0:0:0:
376,132,71741,1,0,0:0:0:0:
365,248,71917,1,8,0:0:0:0:
250,265,72094,1,0,0:0:0:0:
192,164,72270,2,0,P|140:168|108:192,1,90,4|0,0:0|0:0,0:0:0:0:
92,312,72623,2,0,P|144:308|176:284,1,90,8|0,0:0|0:0,0:0:0:0:
192,164,72976,2,0,P|244:168|276:192,1,90,2|0,0:0|0:0,0:0:0:0:
392,220,73329,2,0,P|380:262|348:293,1,90,8|0,0:0|0:0,0:0:0:0:
232,332,73682,6,0,L|144:308,1,90,4|0,0:0|0:0,0:0:0:0:
36,188,74035,2,0,L|123:211,1,90,8|0,0:0|0:0,0:0:0:0:
250,238,74388,1,6,0:0:0:0:
296,92,74564,1,0,0:0:0:0:
348,168,74741,1,8,0:0:0:0:
212,120,74917,1,0,0:0:0:0:
250,238,75094,6,0,L|223:324,2,90,4|8|8,0:0|0:0|0:0,0:0:0:0:
296,92,75623,1,0,0:0:0:0:
464,72,75800,1,8,0:0:0:0:
456,84,75888,1,8,0:0:0:0:
464,100,75976,1,8,0:0:0:0:
456,112,76064,1,8,0:0:0:0:
464,124,76153,1,8,0:0:0:0:
456,136,76241,1,8,0:0:0:0:
460,148,76329,1,8,0:0:0:0:
452,160,76417,1,8,0:0:0:0:
460,172,76506,6,4,B|432:236|496:268|460:348,1,180,4|8,0:0|0:0,0:0:0:0:
392,296,77035,1,0,0:0:0:0:
328,228,77211,2,0,P|284:212|244:224,1,90,2|0,0:0|0:0,0:0:0:0:
196,308,77564,2,0,P|240:324|280:312,1,90,8|0,0:0|0:0,0:0:0:0:
112,216,77917,2,0,L|0:384,2,180,2|8|2,0:0|0:0|0:0,0:0:0:0:
176,152,78800,1,0,0:0:0:0:
256,112,78976,1,8,0:0:0:0:
336,152,79153,1,0,0:0:0:0:
404,208,79329,6,0,P|368:236|324:236,1,90,4|0,0:0|0:0,0:0:0:0:
212,48,79682,2,0,P|256:36|300:48,1,90,8|0,0:0|0:0,0:0:0:0:
186,236,80035,2,0,P|144:236|108:208,1,90,2|0,0:0|0:0,0:0:0:0:
256,112,80388,2,0,P|283:146|284:190,1,90,8|0,0:0|0:0,0:0:0:0:
108,208,80741,2,0,P|92:128|144:48,1,180,2|8,0:0|0:0,0:0:0:0:
328,32,81270,1,0,0:0:0:0:
288,180,81447,1,2,0:0:0:0:
248,32,81623,1,0,0:0:0:0:
332,180,81800,1,8,0:0:0:0:
408,32,81976,1,0,0:0:0:0:
376,180,82153,6,0,P|328:188|288:180,1,90,4|0,0:0|0:0,0:0:0:0:
151,175,82506,1,8,0:0:0:0:
151,175,82682,1,0,0:0:0:0:
117,53,82859,1,2,0:0:0:0:
119,285,83035,1,0,0:0:0:0:
252,104,83211,1,8,0:0:0:0:
35,174,83388,1,0,0:0:0:0:
250,244,83564,2,0,L|361:274,1,90,4|0,0:0|0:0,0:0:0:0:
432,296,83917,1,8,0:0:0:0:
472,204,84094,1,0,0:0:0:0:
432,108,84270,2,0,P|404:68|364:56,1,90,2|0,0:0|0:0,0:0:0:0:
252,104,84623,2,0,P|311:151|322:152,1,90,8|0,0:0|0:0,0:0:0:0:
247,23,84976,6,0,P|191:51|195:159,1,180,4|8,0:0|0:0,0:0:0:0:
322,152,85506,1,0,0:0:0:0:
248,248,85682,2,0,L|204:336,1,90,2|2,0:0|0:0,0:0:0:0:
156,240,86035,2,0,L|112:328,1,90,8|0,0:0|0:0,0:0:0:0:
28,156,86388,6,0,P|88:92|176:88,1,180,4|8,0:0|0:0,0:0:0:0:
256,168,86917,1,0,0:0:0:0:
336,88,87094,1,8,0:0:0:0:
360,84,87182,1,8,0:0:0:0:
384,84,87270,1,8,0:0:0:0:
404,88,87359,1,8,0:0:0:0:
424,96,87447,1,8,0:0:0:0:
444,108,87535,1,8,0:0:0:0:
460,120,87623,1,8,0:0:0:0:
472,136,87711,1,8,0:0:0:0:
484,156,87800,5,4,0:0:0:0:
256,192,87888,12,0,90623,0:0:0:0:
88,232,99094,6,0,P|180:220|232:148,1,180,2|2,0:0|0:0,0:0:0:0:
180,56,99623,1,0,0:0:0:0:
132,152,99800,2,0,P|182:217|276:232,1,180,2|2,0:0|0:0,0:0:0:0:
360,100,100329,1,0,0:0:0:0:
280,56,100506,2,0,P|268:104|280:144,1,90,2|0,0:0|0:0,0:0:0:0:
360,100,100859,1,2,0:0:0:0:
180,56,101035,1,0,0:0:0:0:
132,152,101211,1,2,0:0:0:0:
240,152,101388,1,0,0:0:0:0:
280,56,101564,1,8,0:0:0:0:
132,152,101741,1,0,0:0:0:0:
326,207,101917,6,0,P|338:121|280:56,1,180,2|2,0:0|0:0,0:0:0:0:
180,56,102447,1,0,0:0:0:0:
132,152,102623,2,0,P|147:250|209:297,1,180,2|2,0:0|0:0,0:0:0:0:
343,284,103153,1,0,0:0:0:0:
385,168,103329,2,0,B|356:132|304:144,1,90,2|0,0:0|0:0,0:0:0:0:
244,216,103682,1,2,0:0:0:0:
180,280,103859,2,0,P|104:252|72:160,1,180,0|0,0:0|0:0,0:0:0:0:
164,8,104388,2,0,L|116:88,1,90,8|0,0:0|0:0,0:0:0:0:
72,164,104741,6,0,P|120:176|168:156,1,90,2|0,0:0|0:0,0:0:0:0:
268,149,105094,1,2,0:0:0:0:
380,136,105270,1,0,0:0:0:0:
314,63,105447,1,2,0:0:0:0:
268,149,105623,1,0,0:0:0:0:
360,220,105800,2,0,P|380:184|380:136,1,90,2|0,0:0|0:0,0:0:0:0:
202,76,106153,1,2,0:0:0:0:
156,162,106329,1,0,0:0:0:0:
268,149,106506,1,2,0:0:0:0:
202,76,106682,2,0,P|112:76|60:148,1,180,0|0,0:0|0:0,0:0:0:0:
28,312,107211,2,0,P|73:308|109:283,1,90,8|0,0:0|0:0,0:0:0:0:
224,212,107564,6,0,P|296:220|344:136,1,180,2|2,0:0|0:0,0:0:0:0:
280,24,108094,1,0,0:0:0:0:
268,149,108270,2,0,P|348:212|420:160,1,180,2|2,0:0|0:0,0:0:0:0:
444,60,108800,1,0,0:0:0:0:
344,136,108976,5,8,0:0:0:0:
344,136,109064,1,8,0:0:0:0:
344,136,109153,1,8,0:0:0:0:
271,57,109329,1,8,0:0:0:0:
271,57,109417,1,8,0:0:0:0:
271,57,109506,1,8,0:0:0:0:
198,136,109682,1,2,0:0:0:0:
185,142,109770,1,2,0:0:0:0:
184,160,109859,1,2,0:0:0:0:
171,166,109947,1,2,0:0:0:0:
172,181,110035,1,2,0:0:0:0:
159,187,110123,1,2,0:0:0:0:
156,199,110211,1,2,0:0:0:0:
143,206,110300,1,2,0:0:0:0:
144,220,110388,6,0,P|60:228|16:148,1,180,4|8,0:0|0:0,0:0:0:0:
108,76,110917,1,0,0:0:0:0:
228,52,111094,2,0,B|292:72|348:28|408:52,1,180,2|8,0:0|0:0,0:0:0:0:
464,160,111623,1,0,0:0:0:0:
388,256,111800,2,0,P|348:288|311:290,1,90,2|0,0:0|0:0,0:0:0:0:
316,168,112153,1,8,0:0:0:0:
344,53,112329,2,0,P|427:80|464:160,1,180,0|0,0:0|0:0,0:0:0:0:
468,284,112859,1,8,0:0:0:0:
356,332,113035,1,0,0:0:0:0:
244,284,113211,6,0,P|197:275|171:241,1,90,2|0,0:0|0:0,0:0:0:0:
267,164,113564,2,0,P|311:172|340:206,1,90,8|0,0:0|0:0,0:0:0:0:
356,332,113917,2,0,P|432:320|480:220,1,180,2|8,0:0|0:0,0:0:0:0:
400,140,114447,1,0,0:0:0:0:
312,80,114623,2,0,P|268:64|224:80,1,90,2|0,0:0|0:0,0:0:0:0:
336,208,114976,1,8,0:0:0:0:
460,236,115153,2,0,P|500:156|488:68,1,180,0|0,0:0|0:0,0:0:0:0:
400,140,115682,1,8,0:0:0:0:
336,208,115859,1,0,0:0:0:0:
248,228,116035,6,0,P|176:208|135:117,1,180,2|8,0:0|0:0,0:0:0:0:
220,56,116564,1,0,0:0:0:0:
320,24,116741,2,0,P|364:36|392:72,1,90,2|0,0:0|0:0,0:0:0:0:
406,253,117094,2,0,P|362:241|336:208,1,90,8|0,0:0|0:0,0:0:0:0:
184,128,117447,1,2,0:0:0:0:
320,24,117623,1,0,0:0:0:0:
336,208,117800,1,8,0:0:0:0:
220,56,117976,2,0,P|132:72|108:152,1,180,0|0,0:0|0:0,0:0:0:0:
20,240,118506,2,0,L|128:268,1,90,8|0,0:0|0:0,0:0:0:0:
204,336,118859,6,0,P|284:312|300:224,1,180,2|8,0:0|0:0,0:0:0:0:
320,80,119388,1,0,0:0:0:0:
208,120,119564,2,0,P|168:104|144:56,1,90,2|0,0:0|0:0,0:0:0:0:
328,8,119917,2,0,P|368:24|392:72,1,90,8|0,0:0|0:0,0:0:0:0:
284,224,120270,1,2,0:0:0:0:
208,120,120447,1,0,0:0:0:0:
320,80,120623,1,8,0:0:0:0:
172,264,120800,1,0,0:0:0:0:
96,160,120976,1,2,0:0:0:0:
96,160,121064,1,2,0:0:0:0:
96,160,121153,1,2,0:0:0:0:
96,160,121241,1,2,0:0:0:0:
82,184,121329,1,2,0:0:0:0:
96,204,121417,1,2,0:0:0:0:
82,224,121506,1,2,0:0:0:0:
96,244,121594,1,2,0:0:0:0:
82,264,121682,6,0,L|172:264,1,90,4|0,0:0|0:0,0:0:0:0:
300,120,122035,2,0,L|210:120,1,90,8|0,0:0|0:0,0:0:0:0:
128,340,122388,2,0,L|218:340,1,90,2|0,0:0|0:0,0:0:0:0:
256,192,122741,2,0,L|166:192,1,90,8|0,0:0|0:0,0:0:0:0:
0,264,123094,2,0,L|180:264,1,180,2|8,0:0|0:0,0:0:0:0:
256,308,123623,1,0,0:0:0:0:
332,352,123800,2,0,P|376:344|408:312,1,90,2|0,0:0|0:0,0:0:0:0:
416,200,124153,2,0,P|372:208|340:238,1,90,8|0,0:0|0:0,0:0:0:0:
472,272,124506,6,0,P|508:192|460:120,1,180,2|4,0:0|0:0,0:0:0:0:
176,232,125211,2,0,P|256:268|336:232,1,180,2|4,0:0|0:0,0:0:0:0:
256,4,125917,1,2,0:0:0:0:
172,76,126094,1,0,0:0:0:0:
256,148,126270,1,8,0:0:0:0:
340,76,126447,1,0,0:0:0:0:
452,108,126622,1,8,0:0:0:0:
464,128,126711,1,8,0:0:0:0:
452,148,126799,1,8,0:0:0:0:
440,168,126887,1,8,0:0:0:0:
452,188,126976,1,8,0:0:0:0:
464,208,127063,1,8,0:0:0:0:
452,232,127152,1,8,0:0:0:0:
496,332,127329,6,0,P|452:344|408:332,1,90,4|0,0:0|0:0,0:0:0:0:
256,240,127682,2,0,P|300:228|342:238,1,90,8|0,0:0|0:0,0:0:0:0:
188,336,128035,2,0,P|128:364|70:337,2,135,2|0|4,0:0|0:0|0:0,0:0:0:0:
256,240,128741,2,0,P|168:224|128:296,1,180,2|8,0:0|0:0,0:0:0:0:
272,348,129270,1,0,0:0:0:0:
324,272,129447,2,0,P|324:204|264:164,2,135,2|0|0,0:0|0:0|0:0,0:0:0:0:
188,336,130153,6,0,P|144:348|96:332,1,90,2|0,0:0|0:0,0:0:0:0:
36,192,130506,1,12,0:0:0:0:
324,48,130859,2,0,P|368:36|416:52,1,90,2|0,0:0|0:0,0:0:0:0:
476,192,131211,1,12,0:0:0:0:
256,288,131564,1,2,0:0:0:0:
200,148,131741,5,8,0:0:0:0:
224,136,131829,1,8,0:0:0:0:
256,128,131917,1,8,0:0:0:0:
288,136,132006,1,8,0:0:0:0:
312,148,132094,1,8,0:0:0:0:
288,356,132270,1,2,0:0:0:0:
256,364,132359,1,2,0:0:0:0:
224,356,132447,1,2,0:0:0:0:
224,224,132623,1,2,0:0:0:0:
256,216,132711,1,2,0:0:0:0:
288,224,132800,1,2,0:0:0:0:
384,340,132976,5,2,0:0:0:0:
256,364,133153,1,2,0:0:0:0:
128,340,133329,1,2,0:0:0:0:
172,104,133682,6,0,P|256:76|340:104,1,180,2|2,0:0|0:0,0:0:0:0:
204,272,134388,6,0,P|193:230|205:186,1,90,4|0,0:0|0:0,0:0:0:0:
352,232,134741,2,0,P|364:276|353:317,1,90,8|0,0:0|0:0,0:0:0:0:
204,272,135094,1,2,0:0:0:0:
256,148,135270,1,2,0:0:0:0:
352,232,135447,1,8,0:0:0:0:
192,200,135623,1,0,0:0:0:0:
212,88,135800,2,0,P|256:76|304:92,1,90,2|0,0:0|0:0,0:0:0:0:
192,200,136153,2,0,P|148:216|100:196,1,90,8|0,0:0|0:0,0:0:0:0:
256,148,136506,1,2,0:0:0:0:
220,288,136682,1,2,0:0:0:0:
148,128,136859,2,0,P|136:84|156:36,1,90,8|0,0:0|0:0,0:0:0:0:
312,104,137211,6,0,P|326:144|314:188,1,90,4|0,0:0|0:0,0:0:0:0:
192,200,137564,1,8,0:0:0:0:
212,68,137741,1,0,0:0:0:0:
312,104,137917,2,0,P|360:92|408:112,1,90,2|0,0:0|0:0,0:0:0:0:
356,188,138270,1,8,0:0:0:0:
284,248,138447,1,0,0:0:0:0:
204,296,138623,2,0,P|116:288|68:212,1,180,2|8,0:0|0:0,0:0:0:0:
100,120,139153,1,0,0:0:0:0:
176,56,139329,2,0,L|199:142,1,90,2|0,0:0|0:0,0:0:0:0:
336,192,139682,2,0,L|312:105,1,90,8|0,0:0|0:0,0:0:0:0:
448,56,140035,6,0,P|488:80|500:119,1,90,4|0,0:0|0:0,0:0:0:0:
452,196,140388,1,8,0:0:0:0:
400,272,140564,1,0,0:0:0:0:
360,356,140741,2,0,P|320:368|272:352,1,90,2|0,0:0|0:0,0:0:0:0:
180,240,141094,2,0,P|220:228|272:244,1,90,8|0,0:0|0:0,0:0:0:0:
360,356,141447,2,0,P|400:368|448:352,1,90,4|0,0:0|0:0,0:0:0:0:
512,272,141800,1,8,0:0:0:0:
452,196,141976,1,0,0:0:0:0:
368,128,142153,2,0,P|328:116|276:132,1,90,2|0,0:0|0:0,0:0:0:0:
180,240,142506,2,0,P|220:252|272:236,1,90,8|0,0:0|0:0,0:0:0:0:
368,128,142859,6,0,P|408:116|460:132,1,90,4|0,0:0|0:0,0:0:0:0:
408,248,143211,1,8,0:0:0:0:
308,184,143388,1,0,0:0:0:0:
332,68,143564,2,0,P|416:44|504:76,1,180,6|8,0:0|0:0,0:0:0:0:
452,196,144094,1,0,0:0:0:0:
308,184,144270,1,6,0:0:0:0:
332,68,144447,1,8,0:0:0:0:
164,236,144623,1,8,0:0:0:0:
348,236,144976,2,0,L|370:274,2,45,8|8|8,0:0|0:0|0:0,0:0:0:0:
164,236,145329,2,0,L|142:274,2,45,8|8|8,0:0|0:0|0:0,0:0:0:0:
160,44,145682,6,0,P|240:44|312:112,1,180,4|8,0:0|0:0,0:0:0:0:
292,208,146211,1,0,0:0:0:0:
196,244,146388,2,0,P|184:196|200:160,1,90,2|0,0:0|0:0,0:0:0:0:
384,168,146741,2,0,P|396:216|380:252,1,90,8|0,0:0|0:0,0:0:0:0:
140,288,147094,2,0,P|112:204|156:104,2,180,2|8|2,0:0|0:0|0:0,0:0:0:0:
216,352,147976,1,0,0:0:0:0:
256,244,148153,1,8,0:0:0:0:
296,352,148329,1,0,0:0:0:0:
372,288,148506,6,0,P|396:252|400:200,1,90,4|0,0:0|0:0,0:0:0:0:
460,104,148859,1,8,0:0:0:0:
352,56,149035,1,0,0:0:0:0:
272,144,149211,2,0,P|226:138|190:114,1,90,2|0,0:0|0:0,0:0:0:0:
270,26,149564,2,0,P|316:32|352:56,1,90,8|0,0:0|0:0,0:0:0:0:
388,168,149917,2,0,P|368:216|248:260,1,180,2|8,0:0|0:0,0:0:0:0:
156,280,150447,1,0,0:0:0:0:
184,160,150623,1,2,0:0:0:0:
48,228,150800,1,0,0:0:0:0:
156,88,150976,1,8,0:0:0:0:
12,124,151153,1,0,0:0:0:0:
156,16,151329,6,0,P|212:44|225:67,1,90,4|0,0:0|0:0,0:0:0:0:
268,180,151682,1,8,0:0:0:0:
248,300,151859,1,0,0:0:0:0:
144,364,152035,2,0,P|96:336|72:300,1,90,2|0,0:0|0:0,0:0:0:0:
180,244,152388,2,0,P|219:265|248:300,1,90,8|0,0:0|0:0,0:0:0:0:
352,364,152741,2,0,P|400:336|424:300,1,90,4|0,0:0|0:0,0:0:0:0:
424,188,153094,1,8,0:0:0:0:
328,116,153270,1,0,0:0:0:0:
208,72,153447,2,0,P|160:56|120:60,1,90,2|0,0:0|0:0,0:0:0:0:
56,168,153800,2,0,P|104:184|144:180,1,90,8|0,0:0|0:0,0:0:0:0:
328,116,154153,6,0,B|385:102|442:167|499:157,1,180,4|8,0:0|0:0,0:0:0:0:
504,280,154682,1,0,0:0:0:0:
392,324,154859,2,0,L|283:282,1,90,2|2,0:0|0:0,0:0:0:0:
390,237,155211,2,0,L|306:204,1,90,8|0,0:0|0:0,0:0:0:0:
236,104,155564,6,0,B|157:166|200:268,2,180,4|8|2,0:0|0:0|0:0,0:0:0:0:
245,103,156359,1,0,0:0:0:0:
254,101,156447,1,8,0:0:0:0:
262,99,156535,1,8,0:0:0:0:
271,97,156623,1,8,0:0:0:0:
280,95,156711,1,2,0:0:0:0:
289,94,156800,1,8,0:0:0:0:
297,92,156888,1,8,0:0:0:0:
306,90,156976,5,4,0:0:0:0:
256,192,157064,12,0,159800,0:0:0:0:
384,256,168270,6,0,P|394:304|382:342,1,90,4|0,0:0|0:0,0:0:0:0:
272,200,168623,2,0,P|260:162|270:113,1,90,8|0,0:0|0:0,0:0:0:0:
404,152,168976,1,2,0:0:0:0:
488,320,169153,1,0,0:0:0:0:
320,300,169329,1,8,0:0:0:0:
236,132,169506,1,0,0:0:0:0:
412,76,169682,2,0,P|460:100|480:144,1,90,2|0,0:0|0:0,0:0:0:0:
488,320,170035,2,0,P|440:296|420:252,1,90,8|0,0:0|0:0,0:0:0:0:
404,152,170388,1,2,0:0:0:0:
496,248,170564,1,2,0:0:0:0:
388,344,170741,1,8,0:0:0:0:
300,244,170917,1,0,0:0:0:0:
248,132,171094,6,0,L|208:76,2,60,2|0|0,0:0|0:0|0:0,0:0:0:0:
188,192,171447,2,0,L|148:248,2,60,8|0|0,0:0|0:0|0:0,0:0:0:0:
128,132,171800,2,0,L|88:76,2,60,2|0|0,0:0|0:0|0:0,0:0:0:0:
68,192,172153,2,0,L|28:248,2,60,8|0|0,0:0|0:0|0:0,0:0:0:0:
128,132,172506,6,0,B|144:44|256:-36|368:44|384:132,1,360,2|2,0:0|0:0,0:0:0:0:
384,132,173564,1,8,0:0:0:0:
248,348,173917,5,2,0:0:0:0:
208,336,174035,1,0,0:0:0:0:
172,312,174153,1,0,0:0:0:0:
148,276,174270,1,8,0:0:0:0:
136,236,174388,1,0,0:0:0:0:
144,196,174506,1,0,0:0:0:0:
172,164,174623,5,2,0:0:0:0:
212,152,174741,1,0,0:0:0:0:
252,148,174859,1,0,0:0:0:0:
292,152,174976,1,8,0:0:0:0:
332,164,175094,1,0,0:0:0:0:
368,184,175211,1,0,0:0:0:0:
404,204,175329,5,2,0:0:0:0:
444,200,175447,1,0,0:0:0:0:
472,172,175564,1,0,0:0:0:0:
484,132,175682,1,8,0:0:0:0:
468,92,175800,1,0,0:0:0:0:
444,56,175917,1,0,0:0:0:0:
404,40,176035,6,0,B|348:16|284:68|228:48,1,180,2|8,0:0|0:0,0:0:0:0:
48,128,176741,5,4,0:0:0:0:
44,172,176859,1,0,0:0:0:0:
48,212,176977,1,0,0:0:0:0:
56,252,177094,1,8,0:0:0:0:
84,284,177211,1,0,0:0:0:0:
116,308,177330,1,0,0:0:0:0:
156,312,177447,5,4,0:0:0:0:
196,308,177565,1,0,0:0:0:0:
228,284,177683,1,0,0:0:0:0:
256,252,177800,1,8,0:0:0:0:
264,212,177917,1,0,0:0:0:0:
268,172,178035,1,0,0:0:0:0:
264,128,178153,6,0,P|320:68|264:0,2,180,4|8|2,0:0|0:0|0:0,0:0:0:0:
132,128,179035,5,8,0:0:0:0:
124,128,179123,1,8,0:0:0:0:
116,128,179211,1,8,0:0:0:0:
108,128,179300,1,8,0:0:0:0:
100,128,179388,1,8,0:0:0:0:
92,128,179476,1,0,0:0:0:0:
84,128,179564,6,0,P|69:166|85:210,1,90,4|0,0:0|0:0,0:0:0:0:
262,250,179917,2,0,P|278:206|264:168,1,90,8|0,0:0|0:0,0:0:0:0:
184,270,180270,2,0,P|201:308|244:328,1,90,2|0,0:0|0:0,0:0:0:0:
341,147,180623,2,0,P|321:104|284:88,1,90,8|0,0:0|0:0,0:0:0:0:
244,328,180976,2,0,B|300:355|370:298|424:336,2,180,2|8|2,0:0|0:0|0:0,0:0:0:0:
128,304,181859,1,0,0:0:0:0:
180,200,182035,1,8,0:0:0:0:
292,172,182211,1,0,0:0:0:0:
376,256,182388,6,0,P|468:220|476:144,1,180,0|12,0:0|0:0,0:0:0:0:
34,148,183094,2,0,P|44:220|136:256,1,180,2|12,0:0|0:0,0:0:0:0:
309,75,183800,1,2,0:0:0:0:
199,152,183976,1,0,0:0:0:0:
247,276,184153,1,8,0:0:0:0:
372,276,184329,1,0,0:0:0:0:
420,152,184506,1,2,0:0:0:0:
416,140,184594,1,2,0:0:0:0:
412,128,184682,1,2,0:0:0:0:
404,116,184770,1,2,0:0:0:0:
396,104,184859,1,2,0:0:0:0:
388,92,184947,1,2,0:0:0:0:
380,84,185035,1,2,0:0:0:0:
368,76,185123,1,2,0:0:0:0:
356,68,185211,6,0,P|312:56|268:68,1,90,4|0,0:0|0:0,0:0:0:0:
224,168,185564,2,0,P|268:180|309:169,1,90,8|0,0:0|0:0,0:0:0:0:
192,88,185917,2,0,P|144:136|148:204,2,135,2|0|4,0:0|0:0|0:0,0:0:0:0:
336,88,186623,2,0,P|384:136|360:236,1,180,2|8,0:0|0:0,0:0:0:0:
224,168,187153,1,0,0:0:0:0:
312,168,187329,2,0,L|452:168,2,135,2|0|0,0:0|0:0|0:0,0:0:0:0:
224,168,188035,5,12,0:0:0:0:
156,168,188388,1,8,0:0:0:0:
88,168,188741,1,8,0:0:0:0:
20,168,189094,1,8,0:0:0:0:
156,288,189447,5,4,0:0:0:0:
156,288,189623,1,0,0:0:0:0:
224,168,189800,1,8,0:0:0:0:
224,168,189976,1,0,0:0:0:0:
292,288,190153,1,8,0:0:0:0:
292,288,190329,1,0,0:0:0:0:
360,168,190506,1,8,0:0:0:0:
360,168,190682,1,0,0:0:0:0:
428,288,190859,5,2,0:0:0:0:
496,168,191035,1,2,0:0:0:0:
428,48,191211,1,2,0:0:0:0:
428,48,191564,6,0,L|244:48,1,180,2|2,0:0|0:0,0:0:0:0:
104,56,192270,6,0,P|76:116|112:192,1,144,4|2,0:0|0:0,0:0:0:0:
292,240,192976,2,0,P|327:249|359:237,1,72,2|0,0:0|0:0,0:0:0:0:
356,120,193329,2,0,P|320:110|288:122,1,72,2|0,0:0|0:0,0:0:0:0:
256,344,193682,2,0,L|424:344,2,144,2|2|2,0:0|0:0|0:0,0:0:0:0:
176,312,194564,1,0,0:0:0:0:
100,272,194741,2,0,P|64:256|48:228,1,72,2|0,0:0|0:0,0:0:0:0:
100,124,195094,6,0,P|172:144|196:208,1,144,2|2,0:0|0:0,0:0:0:0:
176,312,195623,1,0,0:0:0:0:
120,200,195800,2,0,L|208:86,1,144,2|2,0:0|0:0,0:0:0:0:
400,82,196506,2,0,L|488:195,1,144,2|2,0:0|0:0,0:0:0:0:
472,292,197035,1,0,0:0:0:0:
384,284,197211,2,0,L|340:372,1,72,2|0,0:0|0:0,0:0:0:0:
292,276,197564,2,0,L|248:364,1,72,2|0,0:0|0:0,0:0:0:0:
200,268,197917,6,0,P|140:228|140:160,1,144,4|0,0:0|0:0,0:0:0:0:
256,56,198623,1,2,0:0:0:0:
256,56,198976,1,2,0:0:0:0:
372,161,199329,2,0,P|372:228|312:268,1,144,2|2,0:0|0:0,0:0:0:0:
256,56,200035,1,2,0:0:0:0:
256,56,200388,1,2,0:0:0:0:
384,168,200741,5,2,0:0:0:0:
336,328,201094,1,2,0:0:0:0:
176,328,201447,1,2,0:0:0:0:
127,168,201800,1,12,0:0:0:0:
256,56,202153,5,8,0:0:0:0:
336,328,202329,1,8,0:0:0:0:
127,168,202506,1,8,0:0:0:0:
385,168,202682,1,8,0:0:0:0:
176,328,202859,1,8,0:0:0:0:
324,112,203035,1,8,0:0:0:0:
256,328,203211,1,8,0:0:0:0:
188,112,203388,1,8,0:0:0:0:
168,316,204976,6,0,B|216:280|292:344|344:308,1,180,2|2,0:0|0:0,0:0:0:0:
492,132,205682,5,4,0:0:0:0:
344,104,205858,1,0,0:0:0:0:
392,248,206034,1,8,0:0:0:0:
492,132,206211,1,0,0:0:0:0:
344,104,206387,2,0,P|300:92|257:102,1,90,2|2,0:0|0:0,0:0:0:0:
212,200,206741,2,0,P|256:212|304:200,1,90,8|0,0:0|0:0,0:0:0:0:
324,20,207093,1,2,0:0:0:0:
188,20,207270,1,2,0:0:0:0:
258,101,207446,1,8,0:0:0:0:
324,20,207622,1,0,0:0:0:0:
390,101,207799,2,0,P|402:145|386:193,1,90,2|0,0:0|0:0,0:0:0:0:
288,251,208152,2,0,P|275:294|287:337,1,90,8|0,0:0|0:0,0:0:0:0:
396,300,208505,5,4,0:0:0:0:
396,300,208681,1,0,0:0:0:0:
328,144,208858,1,8,0:0:0:0:
328,144,209034,1,0,0:0:0:0:
192,248,209211,2,0,P|148:249|109:226,1,90,2|0,0:0|0:0,0:0:0:0:
46,103,209564,2,0,P|91:103|128:126,1,90,8|0,0:0|0:0,0:0:0:0:
204,316,209917,2,0,P|120:312|44:256,2,180,2|8|2,0:0|0:0|0:0,0:0:0:0:
308,352,210799,1,0,0:0:0:0:
384,276,210976,1,8,0:0:0:0:
404,168,211152,1,0,0:0:0:0:
420,56,211329,6,0,P|372:56|328:88,1,90,4|0,0:0|0:0,0:0:0:0:
280,200,211682,1,8,0:0:0:0:
404,168,211858,1,0,0:0:0:0:
264,48,212034,2,0,P|216:60|192:92,1,90,2|2,0:0|0:0,0:0:0:0:
272,272,212387,2,0,P|319:263|348:228,1,90,8|0,0:0|0:0,0:0:0:0:
132,144,212740,2,0,P|110:189|118:227,1,90,4|0,0:0|0:0,0:0:0:0:
220,324,213093,2,0,P|261:344|309:337,1,90,8|0,0:0|0:0,0:0:0:0:
280,200,213446,1,2,0:0:0:0:
132,144,213622,1,0,0:0:0:0:
140,364,213799,2,0,P|185:348|222:323,1,90,8|0,0:0|0:0,0:0:0:0:
280,200,214152,5,4,0:0:0:0:
232,96,214329,1,0,0:0:0:0:
132,144,214505,1,8,0:0:0:0:
176,248,214682,1,0,0:0:0:0:
280,200,214858,1,6,0:0:0:0:
336,52,215035,1,0,0:0:0:0:
382,153,215211,1,8,0:0:0:0:
232,96,215387,1,0,0:0:0:0:
176,248,215564,6,0,L|136:344,2,90,4|8|8,0:0|0:0|0:0,0:0:0:0:
232,96,216093,1,0,0:0:0:0:
382,31,216270,1,8,0:0:0:0:
402,46,216358,1,8,0:0:0:0:
422,65,216446,1,8,0:0:0:0:
440,88,216535,1,8,0:0:0:0:
445,111,216623,1,8,0:0:0:0:
448,136,216711,1,8,0:0:0:0:
450,159,216799,1,8,0:0:0:0:
450,183,216887,1,8,0:0:0:0:
452,208,216976,6,0,P|440:276|356:340,1,180,4|8,0:0|0:0,0:0:0:0:
256,292,217505,1,0,0:0:0:0:
168,228,217682,2,0,P|152:184|164:144,1,90,2|0,0:0|0:0,0:0:0:0:
312,144,218035,2,0,P|324:184|308:228,1,90,8|0,0:0|0:0,0:0:0:0:
156,340,218387,2,0,P|72:276|60:208,2,180,2|8|2,0:0|0:0|0:0,0:0:0:0:
264,340,219270,1,0,0:0:0:0:
368,308,219446,1,8,0:0:0:0:
424,216,219623,1,0,0:0:0:0:
450,116,219799,6,0,P|432:80|392:52,1,90,4|0,0:0|0:0,0:0:0:0:
276,140,220152,2,0,P|320:152|362:141,1,90,8|0,0:0|0:0,0:0:0:0:
244,52,220505,2,0,P|204:80|184:128,1,90,2|0,0:0|0:0,0:0:0:0:
268,224,220858,1,8,0:0:0:0:
362,141,221034,1,0,0:0:0:0:
244,52,221211,2,0,P|196:92|208:216,1,180,2|8,0:0|0:0,0:0:0:0:
212,336,221740,1,0,0:0:0:0:
268,224,221917,1,2,0:0:0:0:
324,336,222093,1,2,0:0:0:0:
268,224,222270,1,8,0:0:0:0:
212,336,222446,1,0,0:0:0:0:
156,224,222623,6,0,P|140:180|156:136,1,90,4|0,0:0|0:0,0:0:0:0:
204,48,222976,1,8,0:0:0:0:
308,48,223152,1,0,0:0:0:0:
359,140,223329,2,0,P|372:180|356:224,1,90,2|0,0:0|0:0,0:0:0:0:
264,340,223682,2,0,P|252:292|268:256,1,90,8|0,0:0|0:0,0:0:0:0:
440,252,224034,2,0,P|456:296|443:335,1,90,4|0,0:0|0:0,0:0:0:0:
356,296,224387,1,8,0:0:0:0:
268,256,224564,1,0,0:0:0:0:
180,216,224740,2,0,P|144:200|96:212,1,90,2|0,0:0|0:0,0:0:0:0:
44,308,225093,2,0,P|80:324|128:312,1,90,8|0,0:0|0:0,0:0:0:0:
180,216,225446,6,0,L|226:42,1,180,4|8,0:0|0:0,0:0:0:0:
316,52,225976,1,0,0:0:0:0:
412,64,226152,2,0,L|388:152,1,90,2|2,0:0|0:0,0:0:0:0:
500,76,226505,2,0,L|475:168,1,90,8|0,0:0|0:0,0:0:0:0:
484,288,226858,6,0,P|424:352|336:356,1,180,4|8,0:0|0:0,0:0:0:0:
256,276,227387,1,0,0:0:0:0:
176,356,227564,1,2,0:0:0:0:
152,360,227652,1,2,0:0:0:0:
124,360,227740,1,2,0:0:0:0:
96,356,227829,1,2,0:0:0:0:
76,344,227917,1,2,0:0:0:0:
56,328,228005,1,2,0:0:0:0:
40,308,228093,1,2,0:0:0:0:
28,288,228181,1,2,0:0:0:0:
24,264,228270,6,8,P|32:176|108:143,1,180,4|8,0:0|0:0,0:0:0:0:
184,196,228799,1,0,0:0:0:0:
96,224,228976,1,2,0:0:0:0:
96,224,229152,2,0,P|28:136|64:72,1,180,2|0,0:0|0:0,0:0:0:0:
207,68,229682,2,0,P|246:90|269:130,1,90,0|0,0:0|0:0,0:0:0:0:
296,292,230034,2,0,P|256:269|235:232,1,90,8|0,0:0|0:0,0:0:0:0:
207,68,230387,1,2,0:0:0:0:
207,68,230740,2,0,P|167:90|144:130,1,90,8|0,0:0|0:0,0:0:0:0:
140,248,231093,6,0,P|212:312|300:320,1,180,2|8,0:0|0:0,0:0:0:0:
384,240,231623,1,0,0:0:0:0:
384,112,231799,1,2,0:0:0:0:
384,112,231976,2,0,P|296:148|256:232,2,180,2|0|0,0:0|0:0|0:0,0:0:0:0:
480,176,232858,1,8,0:0:0:0:
400,336,233211,1,2,0:0:0:0:
392,344,233299,1,0,0:0:0:0:
384,352,233387,1,0,0:0:0:0:
228,232,233564,1,8,0:0:0:0:
220,224,233652,1,0,0:0:0:0:
212,216,233740,1,0,0:0:0:0:
204,208,233829,1,0,0:0:0:0:
196,200,233917,6,0,P|148:132|152:32,1,180,4|8,0:0|0:0,0:0:0:0:
272,92,234446,1,0,0:0:0:0:
300,232,234623,1,2,0:0:0:0:
300,232,234799,2,0,P|288:284|160:280,1,180,2|2,0:0|0:0,0:0:0:0:
80,220,235329,1,0,0:0:0:0:
120,100,235505,1,0,0:0:0:0:
228,36,235681,2,0,P|276:64|304:104,1,90,8|0,0:0|0:0,0:0:0:0:
312,272,236034,1,2,0:0:0:0:
312,272,236387,2,0,P|284:312|240:340,1,90,8|0,0:0|0:0,0:0:0:0:
111,347,236740,6,0,P|31:317|20:232,1,180,4|8,0:0|0:0,0:0:0:0:
28,144,237269,1,0,0:0:0:0:
88,76,237446,1,2,0:0:0:0:
168,36,237622,1,0,0:0:0:0:
256,40,237799,1,8,0:0:0:0:
256,40,238152,5,8,0:0:0:0:
256,244,238329,1,8,0:0:0:0:
184,104,238682,5,10,0:0:0:0:
328,104,238859,1,8,0:0:0:0:
128,336,239211,5,8,0:0:0:0:
384,336,239387,1,8,0:0:0:0:
256,192,239476,12,0,243799,0:0:0:0:
