osu file format v9

[General]
AudioFilename: ducaaaaaaaaaaaa.mp3
AudioLeadIn: 500
PreviewTime: 68675
Countdown: 0
SampleSet: Normal
StackLeniency: 0.7
Mode: 1
LetterboxInBreaks: 0

[Editor]
DistanceSpacing: 0
BeatDivisor: 4
GridSize: 4

[Metadata]
Title:Futari (Short Ver.)
Artist:Duca
Creator:Melophobia
Version:tTaiko
Source:Haruka na Sora
Tags:yosuga no sora Sphere fandisk hentai eroge game visual novel opening those

[Difficulty]
HPDrainRate:5
CircleSize:5
OverallDifficulty:5
ApproachRate:5
SliderMultiplier:1.6
SliderTickRate:1

[Events]
//Background and Video events
0,0,"t.jpg"
//Break Periods
//Storyboard Layer 0 (Background)
//Storyboard Layer 1 (Fail)
//Storyboard Layer 2 (Pass)
//Storyboard Layer 3 (Foreground)
//Storyboard Sound Samples
//Background Colour Transformations
3,100,163,162,255

[TimingPoints]
542,508.259212198221,4,1,0,50,1,0
51367,-113.636363636364,4,1,0,40,0,0
59500,-100,4,1,0,60,0,0
69665,-100,4,1,0,60,0,1
102193,-100,4,1,0,50,0,0

[Colours]
Combo1 : 0,0,255
Combo2 : 255,0,0

[HitObjects]
256,192,1558,1,0
256,192,1812,1,0
256,192,1897,1,0
256,192,1982,1,0
256,192,2066,5,10
256,192,2193,1,8
256,192,2320,5,0
256,192,2575,1,4
256,192,2829,1,0
256,192,2956,1,0
256,192,3083,5,10
256,192,3337,5,0
256,192,3464,1,0
256,192,3591,1,0
256,192,3718,5,8
256,192,3845,5,0
256,192,4099,5,10
256,192,4353,1,8
256,192,4481,5,0
256,192,4608,1,0
256,192,4862,1,0
256,192,4989,1,0
256,192,5116,5,10
256,192,5370,5,0
256,192,5497,1,0
256,192,5624,1,0
256,192,5751,5,8
256,192,5878,5,0
256,192,6132,5,10
256,192,6259,1,8
256,192,6386,5,0
256,192,6641,1,0
256,192,6895,1,0
256,192,7022,1,0
256,192,7149,5,10
256,192,7403,5,0
256,192,7530,5,8
256,192,7657,5,0
256,192,7784,1,0
256,192,7911,5,8
256,192,8165,1,10
256,192,8420,1,8
256,192,8674,5,4
256,192,8928,1,0
256,192,9055,1,0
256,192,9182,5,10
256,192,9436,5,4
256,192,9690,5,8
256,192,9817,5,0
256,192,9944,5,8
256,192,10198,1,10
256,192,10325,1,8
256,192,10453,5,0
256,192,10707,1,4
256,192,10961,1,0
256,192,11088,1,0
256,192,11215,5,10
256,192,11469,5,0
256,192,11596,1,0
256,192,11723,5,8
256,192,11850,1,8
256,192,11977,5,0
256,192,12231,5,10
256,192,12486,1,8
256,192,12613,5,0
256,192,12740,1,0
256,192,12867,1,0
256,192,12994,1,0
256,192,13248,5,10
256,192,13502,5,0
256,192,13629,1,0
256,192,13756,5,8
256,192,13883,5,0
256,192,14010,1,0
256,192,14264,5,10
256,192,14519,1,8
256,192,14773,5,4
256,192,15027,1,0
256,192,15154,1,0
256,192,15281,5,10
256,192,15535,5,0
256,192,15662,5,8
256,192,15789,5,0
256,192,15916,5,8
256,192,16043,5,0
256,192,16298,5,10
256,192,16425,5,0
256,192,16552,1,0
256,192,16806,1,4
256,192,17822,1,4
256,192,18839,1,0
256,192,19093,1,0
256,192,19347,5,10
256,192,19601,5,0
256,192,19855,5,8
256,192,20109,1,8
256,192,20194,1,8
256,192,20279,1,8
256,192,20364,5,0
256,192,20618,5,8
256,192,20745,5,0
256,192,20872,1,0
256,192,21126,1,0
256,192,21380,5,10
256,192,21634,5,0
256,192,21719,1,0
256,192,21804,1,0
256,192,21888,1,0
256,192,22015,5,8
256,192,22143,5,0
256,192,22397,5,8
256,192,22651,1,8
256,192,22735,1,8
256,192,22820,1,8
256,192,22905,5,0
256,192,23159,1,0
256,192,23413,5,10
256,192,23667,5,0
256,192,23921,5,8
256,192,24176,1,8
256,192,24260,1,8
256,192,24345,1,8
256,192,24430,5,0
256,192,24684,1,0
256,192,24811,5,8
256,192,24938,1,8
256,192,25192,5,0
256,192,25446,5,10
256,192,25700,5,0
256,192,25827,5,8
256,192,25954,5,0
256,192,26082,5,8
256,192,26209,5,0
256,192,26336,1,0
256,192,26463,5,8
256,192,26717,1,8
256,192,26971,5,0
256,192,27225,1,0
256,192,27479,5,10
256,192,27733,5,0
256,192,27987,5,8
256,192,28242,5,0
256,192,28326,5,8
256,192,28411,1,8
256,192,28496,1,8
256,192,28750,1,8
256,192,28877,1,8
256,192,29004,5,0
256,192,29258,1,0
256,192,29512,5,10
256,192,29766,5,0
256,192,29851,1,0
256,192,29936,1,0
256,192,30021,1,0
256,192,30148,5,8
256,192,30275,5,0
256,192,30529,5,8
256,192,30783,1,8
256,192,30868,1,8
256,192,30952,1,8
256,192,31037,5,0
256,192,31291,1,0
256,192,31545,5,10
256,192,31799,5,0
256,192,32054,1,0
256,192,32308,1,0
256,192,32392,1,0
256,192,32477,1,0
256,192,32562,5,8
256,192,32816,5,0
256,192,32943,5,8
256,192,33070,5,0
256,192,33324,1,0
256,192,33578,5,10
256,192,33832,5,0
256,192,33960,5,8
256,192,34087,5,0
256,192,34214,5,8
256,192,34341,5,0
256,192,34595,5,8
256,192,34849,1,8
256,192,35103,5,4
256,192,35357,1,0
256,192,35611,5,10
256,192,35866,5,0
256,192,36120,1,0
256,192,36374,1,0
256,192,36458,1,0
256,192,36543,1,0
256,192,36628,5,10
256,192,36755,5,0
256,192,36882,5,8
256,192,37009,5,0
256,192,37136,1,0
256,192,37390,1,0
256,192,37644,5,10
256,192,37899,5,0
256,192,37983,1,0
256,192,38068,1,0
256,192,38153,1,0
256,192,38280,5,8
256,192,38407,5,0
256,192,38661,5,10
256,192,38915,1,8
256,192,39000,1,8
256,192,39084,1,8
256,192,39169,5,0
256,192,39423,1,0
256,192,39677,5,10
256,192,39932,5,0
256,192,40186,1,0
256,192,40440,5,8
256,192,40694,1,10
256,192,40779,5,0
256,192,40863,1,0
256,192,40948,5,8
256,192,41202,1,8
256,192,41456,5,0
256,192,41710,5,10
256,192,41965,5,0
256,192,42092,5,8
256,192,42219,1,8
256,192,42346,1,8
256,192,42473,5,0
256,192,42727,5,10
256,192,42981,1,8
256,192,43066,5,0
256,192,43151,1,0
256,192,43235,1,0
256,192,43489,1,0
256,192,43744,5,10
256,192,43998,5,0
256,192,44252,1,0
256,192,44506,1,0
256,192,44633,5,8
256,192,44760,1,10
256,192,44845,1,8
256,192,44929,1,8
256,192,45014,5,0
256,192,45268,1,0
256,192,45522,1,0
256,192,45777,5,10
256,192,46031,5,0
256,192,46285,5,8
256,192,46412,1,8
256,192,46539,5,0
256,192,46793,5,10
256,192,47047,1,8
256,192,47174,5,0
256,192,47301,1,0
256,192,47555,1,0
256,192,47810,5,10
256,192,48064,5,0
256,192,48318,5,8
256,192,48445,5,0
256,192,48572,1,0
256,192,48657,1,0
256,192,48741,1,0
256,192,48826,5,10
256,192,49080,1,8
256,192,49207,1,8
256,192,49334,5,0
256,192,49589,5,8
256,192,49716,5,0
256,192,49843,5,10
256,192,50097,5,0
256,192,50224,5,8
256,192,50351,5,0
256,192,50478,5,8
256,192,50605,5,0
256,192,50732,1,0
256,192,50859,5,10
256,192,50986,1,8
256,192,51113,5,0
256,192,51367,1,4
256,192,51622,1,0
256,192,51749,1,0
256,192,51876,5,10
256,192,52130,5,0
256,192,52384,5,8
256,192,52511,5,0
256,192,52638,1,0
256,192,52892,5,10
256,192,53146,1,8
256,192,53273,1,8
256,192,53400,5,0
256,192,53655,1,0
256,192,53782,5,8
256,192,53909,1,10
256,192,54163,5,0
256,192,54417,5,8
256,192,54544,1,8
256,192,54671,5,0
256,192,54925,5,10
256,192,55179,1,8
256,192,55433,5,0
256,192,55688,1,0
256,192,55815,1,0
256,192,55942,5,10
256,192,56196,5,0
256,192,56450,5,8
256,192,56577,1,8
256,192,56704,5,0
256,192,56958,5,10
256,192,57212,5,0
256,192,57339,1,0
256,192,57467,1,0
256,192,57721,5,8
256,192,57848,1,8
256,192,57975,1,10
256,192,58229,5,0
256,192,58356,1,0
256,192,58483,5,8
256,192,58610,5,0
256,192,58737,1,0
256,192,58991,5,10
256,192,59118,5,0
256,192,59245,1,0
256,192,59500,1,4
256,192,59754,1,0
256,192,59881,1,0
256,192,60008,5,10
256,192,60262,5,0
256,192,60516,5,8
256,192,60643,5,0
256,192,60770,1,0
256,192,61024,5,10
256,192,61278,5,0
256,192,61406,5,8
256,192,61533,5,0
256,192,61787,1,0
256,192,61914,1,0
256,192,62041,5,10
256,192,62295,5,0
256,192,62549,5,8
256,192,62676,1,8
256,192,62803,5,0
256,192,63057,5,10
256,192,63184,1,8
256,192,63312,1,8
256,192,63439,1,8
256,192,63566,5,0
256,192,63820,5,8
256,192,63947,5,0
256,192,64074,5,10
256,192,64328,1,8
256,192,64582,1,8
256,192,64709,1,8
256,192,64836,5,0
256,192,65090,1,0
256,192,65345,1,0
256,192,65472,1,0
256,192,65599,5,10
256,192,65726,5,0
256,192,65853,1,0
256,192,66107,5,10
256,192,66361,5,0
256,192,66488,1,0
256,192,66615,5,10
256,192,66742,1,8
256,192,66869,5,0
256,192,66996,1,0
256,192,67123,5,10
256,192,67251,5,0
256,192,67378,1,0
256,192,67505,1,0
256,192,67632,1,0
256,192,68648,5,8
256,192,68902,5,0
256,192,68987,1,0
256,192,69072,1,0
256,192,69156,5,10
256,192,69284,1,8
256,192,69411,5,0
256,192,69665,1,4
256,192,69919,1,0
256,192,70046,1,0
256,192,70173,5,10
256,192,70427,5,0
256,192,70681,5,8
256,192,70808,1,8
256,192,70935,5,0
256,192,71190,5,10
256,192,71444,5,0
256,192,71571,5,8
256,192,71698,5,0
256,192,71952,5,8
256,192,72079,5,0
256,192,72206,5,10
256,192,72333,5,0
256,192,72460,1,0
256,192,72714,5,8
256,192,72841,5,0
256,192,72968,1,0
256,192,73223,5,10
256,192,73350,1,8
256,192,73477,1,8
256,192,73604,5,0
256,192,73731,1,0
256,192,73985,1,0
256,192,74112,1,0
256,192,74239,5,10
256,192,74493,5,0
256,192,74747,5,8
256,192,74874,1,8
256,192,75001,5,0
256,192,75256,5,10
256,192,75510,5,0
256,192,75637,1,0
256,192,75764,5,8
256,192,75891,5,0
256,192,76018,1,0
256,192,76145,1,0
256,192,76272,5,10
256,192,76526,1,8
256,192,76611,1,8
256,192,76696,1,8
256,192,76780,1,8
256,192,76907,5,0
256,192,77035,1,0
256,192,77289,5,10
256,192,77543,1,8
256,192,77797,5,4
256,192,78051,1,0
256,192,78178,5,8
256,192,78305,1,10
256,192,78559,5,4
256,192,78813,5,8
256,192,78940,1,8
256,192,79068,5,0
256,192,79322,5,10
256,192,79576,1,8
256,192,79703,1,8
256,192,79830,5,0
256,192,79957,5,8
256,192,80084,5,0
256,192,80211,1,0
256,192,80338,5,10
256,192,80592,5,0
256,192,80846,5,8
256,192,80974,5,0
256,192,81101,1,0
256,192,81355,5,10
256,192,81482,5,0
256,192,81609,5,8
256,192,81736,5,0
256,192,81863,1,0
256,192,82117,1,0
256,192,82244,5,8
256,192,82371,1,10
256,192,82625,5,0
256,192,82879,5,8
256,192,83007,5,0
256,192,83134,1,0
256,192,83388,5,10
256,192,83642,1,8
256,192,83896,5,4
256,192,84150,5,8
256,192,84277,5,0
256,192,84404,5,10
256,192,84531,5,0
256,192,84658,1,0
256,192,84913,5,8
256,192,85040,1,8
256,192,85167,5,0
256,192,85294,1,0
256,192,85421,5,10
256,192,85548,1,8
256,192,85675,5,0
256,192,85929,1,4
256,192,86183,5,8
256,192,86310,5,0
256,192,86437,5,10
256,192,86691,5,0
256,192,86819,1,0
256,192,86946,1,0
256,192,87073,5,8
256,192,87200,5,0
256,192,87454,5,10
256,192,87708,1,8
256,192,87835,5,0
256,192,87962,1,0
256,192,88216,5,8
256,192,88343,5,0
256,192,88470,5,10
256,192,88597,5,0
256,192,88724,1,0
256,192,88979,5,8
256,192,89106,1,8
256,192,89233,5,0
256,192,89487,5,10
256,192,89614,1,8
256,192,89741,1,8
256,192,89868,5,0
256,192,89995,1,0
256,192,90249,1,0
256,192,90376,1,0
256,192,90503,5,10
256,192,90758,5,4
256,192,91266,1,4
256,192,91774,1,4
256,192,92028,5,8
256,192,92282,5,0
256,192,92536,5,10
256,192,92791,5,0
256,192,92918,5,8
256,192,93045,1,8
256,192,93172,5,0
256,192,93299,1,0
256,192,93553,5,10
256,192,93680,1,8
256,192,93807,1,8
256,192,94061,5,4
256,192,94315,5,8
256,192,94442,5,0
256,192,94569,5,10
256,192,94824,5,0
256,192,95078,5,8
256,192,95205,1,8
256,192,95332,5,0
256,192,95586,5,10
256,192,95840,1,8
256,192,95967,5,0
256,192,96094,5,8
256,192,96221,1,8
256,192,96348,5,0
256,192,96475,1,0
256,192,96602,5,10
256,192,96857,5,0
256,192,97111,5,8
256,192,97238,5,0
256,192,97365,1,0
256,192,97619,5,10
256,192,97873,5,0
256,192,98000,1,0
256,192,98127,1,0
256,192,98381,5,8
256,192,98508,5,0
256,192,98636,5,10
256,192,98890,5,0
256,192,99144,5,8
256,192,99398,5,0
256,192,99652,1,0
256,192,99906,1,4
256,192,100414,1,0
256,192,100669,5,12
256,192,102193,5,0
256,192,102447,1,0
256,192,102575,1,0
256,192,102702,5,10
256,192,102956,5,0
256,192,103210,5,8
256,192,103337,1,8
256,192,103464,5,0
256,192,103718,5,10
256,192,103972,5,0
256,192,104099,5,8
256,192,104226,5,0
256,192,104481,1,0
256,192,104608,1,0
256,192,104735,5,10
256,192,104862,5,0
256,192,104989,1,0
256,192,105243,5,8
256,192,105370,5,0
256,192,105497,5,8
256,192,105751,1,10
256,192,106005,1,8
256,192,106259,5,0
256,192,106514,1,0
256,192,106641,1,0
256,192,106768,5,10
256,192,106895,5,0
256,192,107022,1,0
256,192,107276,5,8
256,192,107403,5,0
256,192,107530,1,0
256,192,107784,5,10
256,192,108038,1,8
256,192,108165,1,8
256,192,108292,5,0
256,192,108547,1,0
256,192,108674,1,0
256,192,108801,5,10
256,192,109055,5,0
256,192,109182,5,8
256,192,109309,1,8
256,192,109436,1,8
256,192,109563,5,0
256,192,109817,5,10
256,192,109944,1,8
256,192,110071,5,0
256,192,110325,1,4
256,192,110580,5,8
256,192,110707,5,0
256,192,110834,5,10
256,192,111088,5,0
256,192,111215,1,0
256,192,111342,1,0
256,192,111469,5,8
256,192,111596,5,0
256,192,111850,5,10
256,192,112104,1,8
256,192,112231,5,0
256,192,112359,1,0
256,192,112613,1,0
256,192,112740,5,8
256,192,112867,1,10
256,192,112994,5,0
256,192,113121,1,0
256,192,113375,5,8
256,192,113502,5,0
256,192,113629,1,0
256,192,113883,5,10
256,192,114010,5,0
256,192,114137,5,8
256,192,114392,1,12
256,192,114646,5,0
256,192,114773,1,0
256,192,114900,5,10
256,192,115154,1,8
256,192,115281,5,0
256,192,115408,5,8
256,192,115535,1,8
256,192,115662,5,0
256,192,115916,5,10
256,192,116043,5,0
256,192,116170,1,0
256,192,116425,1,0
256,192,117441,1,0
256,192,118458,5,12
256,192,118839,5,0
256,192,119220,5,12
256,192,119728,5,0
256,192,119982,1,0
256,192,120237,5,12
256,192,120491,12,0,124557
